  0
SECTION
  2
HEADER
  9
$ACADVER
  1
AC1024
  9
$ACADMAINTVER
 70
     6
  9
$DWGCODEPAGE
  3
ANSI_932
  9
$LASTSAVEDBY
  1
CAD01
  9
$CUSTOMPROPERTYTAG
  1
AmdtFileType
  9
$CUSTOMPROPERTY
  1
84
  9
$INSBASE
 10
0.0
 20
0.0
 30
0.0
  9
$EXTMIN
 10
0.0
 20
-400.4618930181264
 30
0.0
  9
$EXTMAX
 10
4200.0
 20
2970.0
 30
0.0
  9
$LIMMIN
 10
0.0
 20
0.0
  9
$LIMMAX
 10
4200.0
 20
2970.0
  9
$ORTHOMODE
 70
     0
  9
$REGENMODE
 70
     0
  9
$FILLMODE
 70
     1
  9
$QTEXTMODE
 70
     0
  9
$MIRRTEXT
 70
     1
  9
$LTSCALE
 40
10.0
  9
$ATTMODE
 70
     1
  9
$TEXTSIZE
 40
64.0
  9
$TRACEWID
 40
0.05
  9
$TEXTSTYLE
  7
USR5
  9
$CLAYER
  8
0
  9
$CELTYPE
  6
CONTINUOUS
  9
$CECOLOR
 62
     7
  9
$CELTSCALE
 40
1.0
  9
$DISPSILH
 70
     0
  9
$DIMSCALE
 40
10.0
  9
$DIMASZ
 40
2.0
  9
$DIMEXO
 40
1.0
  9
$DIMDLI
 40
8.0
  9
$DIMRND
 40
0.0
  9
$DIMDLE
 40
0.0
  9
$DIMEXE
 40
1.0
  9
$DIMTP
 40
0.0
  9
$DIMTM
 40
0.0
  9
$DIMTXT
 40
2.0
  9
$DIMCEN
 40
0.0
  9
$DIMTSZ
 40
0.0
  9
$DIMTOL
 70
     0
  9
$DIMLIM
 70
     0
  9
$DIMTIH
 70
     0
  9
$DIMTOH
 70
     0
  9
$DIMSE1
 70
     0
  9
$DIMSE2
 70
     0
  9
$DIMTAD
 70
     2
  9
$DIMZIN
 70
     8
  9
$DIMBLK
  1

  9
$DIMASO
 70
     1
  9
$DIMSHO
 70
     1
  9
$DIMPOST
  1

  9
$DIMAPOST
  1

  9
$DIMALT
 70
     0
  9
$DIMALTD
 70
     2
  9
$DIMALTF
 40
25.4
  9
$DIMLFAC
 40
1.0
  9
$DIMTOFL
 70
     1
  9
$DIMTVP
 40
1.0
  9
$DIMTIX
 70
     1
  9
$DIMSOXD
 70
     0
  9
$DIMSAH
 70
     0
  9
$DIMBLK1
  1

  9
$DIMBLK2
  1

  9
$DIMSTYLE
  2
ASKSTANDARD
  9
$DIMCLRD
 70
     3
  9
$DIMCLRE
 70
     3
  9
$DIMCLRT
 70
     3
  9
$DIMTFAC
 40
0.7
  9
$DIMGAP
 40
1.0
  9
$DIMJUST
 70
     0
  9
$DIMSD1
 70
     0
  9
$DIMSD2
 70
     0
  9
$DIMTOLJ
 70
     1
  9
$DIMTZIN
 70
     0
  9
$DIMALTZ
 70
     0
  9
$DIMALTTZ
 70
     0
  9
$DIMUPT
 70
     0
  9
$DIMDEC
 70
     1
  9
$DIMTDEC
 70
     1
  9
$DIMALTU
 70
     2
  9
$DIMALTTD
 70
     2
  9
$DIMTXSTY
  7
STD
  9
$DIMAUNIT
 70
     0
  9
$DIMADEC
 70
     0
  9
$DIMALTRND
 40
0.0
  9
$DIMAZIN
 70
     0
  9
$DIMDSEP
 70
    46
  9
$DIMATFIT
 70
     3
  9
$DIMFRAC
 70
     0
  9
$DIMLDRBLK
  1

  9
$DIMLUNIT
 70
     2
  9
$DIMLWD
 70
    -2
  9
$DIMLWE
 70
    -2
  9
$DIMTMOVE
 70
     0
  9
$DIMFXL
 40
1.0
  9
$DIMFXLON
 70
     0
  9
$DIMJOGANG
 40
0.7853981633974483
  9
$DIMTFILL
 70
     0
  9
$DIMTFILLCLR
 70
     0
  9
$DIMARCSYM
 70
     0
  9
$DIMLTYPE
  6

  9
$DIMLTEX1
  6

  9
$DIMLTEX2
  6

  9
$DIMTXTDIRECTION
 70
     0
  9
$LUNITS
 70
     2
  9
$LUPREC
 70
     1
  9
$SKETCHINC
 40
0.1
  9
$FILLETRAD
 40
0.0
  9
$AUNITS
 70
     0
  9
$AUPREC
 70
     1
  9
$MENU
  1
SK
  9
$ELEVATION
 40
0.0
  9
$PELEVATION
 40
0.0
  9
$THICKNESS
 40
0.0
  9
$LIMCHECK
 70
     0
  9
$CHAMFERA
 40
0.0
  9
$CHAMFERB
 40
0.0
  9
$CHAMFERC
 40
0.0
  9
$CHAMFERD
 40
0.0
  9
$SKPOLY
 70
     0
  9
$TDCREATE
 40
2451696.627293252
  9
$TDUCREATE
 40
2451696.252293252
  9
$TDUPDATE
 40
2458859.342994329
  9
$TDUUPDATE
 40
2458858.967994329
  9
$TDINDWG
 40
1.2672115972
  9
$TDUSRTIMER
 40
0.0034751157
  9
$USRTIMER
 70
     1
  9
$ANGBASE
 50
0.0
  9
$ANGDIR
 70
     0
  9
$PDMODE
 70
     0
  9
$PDSIZE
 40
0.0
  9
$PLINEWID
 40
0.0
  9
$SPLFRAME
 70
     0
  9
$SPLINETYPE
 70
     6
  9
$SPLINESEGS
 70
     8
  9
$HANDSEED
  5
50BF
  9
$SURFTAB1
 70
     6
  9
$SURFTAB2
 70
     6
  9
$SURFTYPE
 70
     6
  9
$SURFU
 70
     6
  9
$SURFV
 70
     6
  9
$UCSBASE
  2

  9
$UCSNAME
  2

  9
$UCSORG
 10
0.0
 20
0.0
 30
0.0
  9
$UCSXDIR
 10
1.0
 20
0.0
 30
0.0
  9
$UCSYDIR
 10
0.0
 20
1.0
 30
0.0
  9
$UCSORTHOREF
  2

  9
$UCSORTHOVIEW
 70
     0
  9
$UCSORGTOP
 10
0.0
 20
0.0
 30
0.0
  9
$UCSORGBOTTOM
 10
0.0
 20
0.0
 30
0.0
  9
$UCSORGLEFT
 10
0.0
 20
0.0
 30
0.0
  9
$UCSORGRIGHT
 10
0.0
 20
0.0
 30
0.0
  9
$UCSORGFRONT
 10
0.0
 20
0.0
 30
0.0
  9
$UCSORGBACK
 10
0.0
 20
0.0
 30
0.0
  9
$PUCSBASE
  2

  9
$PUCSNAME
  2

  9
$PUCSORG
 10
0.0
 20
0.0
 30
0.0
  9
$PUCSXDIR
 10
1.0
 20
0.0
 30
0.0
  9
$PUCSYDIR
 10
0.0
 20
1.0
 30
0.0
  9
$PUCSORTHOREF
  2

  9
$PUCSORTHOVIEW
 70
     0
  9
$PUCSORGTOP
 10
0.0
 20
0.0
 30
0.0
  9
$PUCSORGBOTTOM
 10
0.0
 20
0.0
 30
0.0
  9
$PUCSORGLEFT
 10
0.0
 20
0.0
 30
0.0
  9
$PUCSORGRIGHT
 10
0.0
 20
0.0
 30
0.0
  9
$PUCSORGFRONT
 10
0.0
 20
0.0
 30
0.0
  9
$PUCSORGBACK
 10
0.0
 20
0.0
 30
0.0
  9
$USERI1
 70
     0
  9
$USERI2
 70
     0
  9
$USERI3
 70
     1
  9
$USERI4
 70
     0
  9
$USERI5
 70
    15
  9
$USERR1
 40
0.0
  9
$USERR2
 40
0.0
  9
$USERR3
 40
0.0
  9
$USERR4
 40
0.0
  9
$USERR5
 40
0.0
  9
$WORLDVIEW
 70
     1
  9
$SHADEDGE
 70
     3
  9
$SHADEDIF
 70
    70
  9
$TILEMODE
 70
     1
  9
$MAXACTVP
 70
    16
  9
$PINSBASE
 10
0.0
 20
0.0
 30
0.0
  9
$PLIMCHECK
 70
     0
  9
$PEXTMIN
 10
1.000000000000000E+20
 20
1.000000000000000E+20
 30
1.000000000000000E+20
  9
$PEXTMAX
 10
-1.000000000000000E+20
 20
-1.000000000000000E+20
 30
-1.000000000000000E+20
  9
$PLIMMIN
 10
6.70424615031054
 20
-4.173710231796127
  9
$PLIMMAX
 10
426.7042461503106
 20
292.8262897682039
  9
$UNITMODE
 70
     0
  9
$VISRETAIN
 70
     0
  9
$PLINEGEN
 70
     0
  9
$PSLTSCALE
 70
     0
  9
$TREEDEPTH
 70
  3020
  9
$CMLSTYLE
  2
STANDARD
  9
$CMLJUST
 70
     0
  9
$CMLSCALE
 40
1.0
  9
$PROXYGRAPHICS
 70
     1
  9
$MEASUREMENT
 70
     0
  9
$CELWEIGHT
370
    -1
  9
$ENDCAPS
280
     0
  9
$JOINSTYLE
280
     0
  9
$LWDISPLAY
290
     0
  9
$INSUNITS
 70
     0
  9
$HYPERLINKBASE
  1

  9
$STYLESHEET
  1
モノクロ.ctb
  9
$XEDIT
290
     1
  9
$CEPSNTYPE
380
     0
  9
$PSTYLEMODE
290
     1
  9
$FINGERPRINTGUID
  2
{20CCCC70-5279-11D4-B99D-006153C1FFF9}
  9
$VERSIONGUID
  2
{0387B9EE-4AB6-4CBC-A222-CB57B1B25940}
  9
$EXTNAMES
290
     1
  9
$PSVPSCALE
 40
0.0
  9
$OLESTARTUP
290
     0
  9
$SORTENTS
280
    99
  9
$INDEXCTL
280
     1
  9
$HIDETEXT
280
     1
  9
$XCLIPFRAME
280
     2
  9
$HALOGAP
280
     0
  9
$OBSCOLOR
 70
   257
  9
$OBSLTYPE
280
     0
  9
$INTERSECTIONDISPLAY
280
     0
  9
$INTERSECTIONCOLOR
 70
   257
  9
$DIMASSOC
280
     1
  9
$PROJECTNAME
  1

  9
$CAMERADISPLAY
290
     0
  9
$LENSLENGTH
 40
50.0
  9
$CAMERAHEIGHT
 40
0.0
  9
$STEPSPERSEC
 40
2.0
  9
$STEPSIZE
 40
6.0
  9
$3DDWFPREC
 40
2.0
  9
$PSOLWIDTH
 40
0.25
  9
$PSOLHEIGHT
 40
4.0
  9
$LOFTANG1
 40
1.570796326794897
  9
$LOFTANG2
 40
1.570796326794897
  9
$LOFTMAG1
 40
0.0
  9
$LOFTMAG2
 40
0.0
  9
$LOFTPARAM
 70
     7
  9
$LOFTNORMALS
280
     1
  9
$LATITUDE
 40
37.795
  9
$LONGITUDE
 40
-122.394
  9
$NORTHDIRECTION
 40
0.0
  9
$TIMEZONE
 70
 -8000
  9
$LIGHTGLYPHDISPLAY
280
     1
  9
$TILEMODELIGHTSYNCH
280
     1
  9
$SOLIDHIST
280
     0
  9
$SHOWHIST
280
     1
  9
$DWFFRAME
280
     2
  9
$DGNFRAME
280
     2
  9
$REALWORLDSCALE
290
     1
  9
$INTERFERECOLOR
 62
   256
  9
$CSHADOW
280
     0
  9
$SHADOWPLANELOCATION
 40
0.0
  0
ENDSEC
  0
SECTION
  2
CLASSES
  0
CLASS
  1
ACME_DOCUMENT
  2
AcMeDoc
  3
AcMeServices
 90
   -65536
 91
        1
280
     1
281
     0
  0
CLASS
  1
ACMESTATEMGR
  2
AcMeStateMgr
  3
AcMeServices
 90
        0
 91
        2
280
     1
281
     0
  0
CLASS
  1
ACMESCOPE
  2
AcMeScope
  3
AcMeServices
 90
        0
 91
        2
280
     1
281
     0
  0
CLASS
  1
ACMECOMMANDHISTORY
  2
AcMeCommandHistory
  3
AcMeServices
 90
        0
 91
        2
280
     1
281
     0
  0
CLASS
  1
ACRFINSADJUSTERMGR
  2
AcRfInsAdjusterMgr
  3
AcMeServices
 90
   -65536
 91
        1
280
     1
281
     0
  0
CLASS
  1
DICTIONARYVAR
  2
AcDbDictionaryVar
  3
ObjectDBX Classes
 90
        0
 91
        3
280
     0
281
     0
  0
CLASS
  1
ACIMSYSVARMAN
  2
AcImSysVarManager
  3
AcMeServices
 90
        0
 91
        6
280
     1
281
     0
  0
CLASS
  1
ACIMREALSYSVAR
  2
AcImRealSysVar
  3
AcMeServices
 90
        0
 91
       20
280
     1
281
     0
  0
CLASS
  1
ACIMINTSYSVAR
  2
AcImIntSysVar
  3
AcMeServices
 90
        0
 91
       44
280
     1
281
     0
  0
CLASS
  1
ACMEDRAWINGMAN
  2
AcMeDrawingMan
  3
AcMeServices
 90
        0
 91
        2
280
     1
281
     0
  0
CLASS
  1
ACMEVIEW
  2
AcMeView
  3
AcMeServices
 90
        0
 91
        2
280
     1
281
     0
  0
CLASS
  1
ACDBENTITYCACHE
  2
AcMeEntityCache
  3
AcMeServices
 90
   -65536
 91
        1
280
     1
281
     0
  0
CLASS
  1
ACMDATADICTIONARY
  2
AcmDataDictionary
  3
"AcmSymBB|Product Description: AutoCAD Mechanical 2000|Company: Autodesk"
 90
        0
 91
        2
280
     1
281
     0
  0
CLASS
  1
ACMDATAENTRYBLOCK
  2
AcmDataEntryBlock
  3
"AcmSymBB|Product Description: AutoCAD Mechanical 2000|Company: Autodesk"
 90
        0
 91
        2
280
     1
281
     0
  0
CLASS
  1
HATCH
  2
AcDbHatch
  3
ObjectDBX Classes
 90
        0
 91
        1
280
     0
281
     1
  0
CLASS
  1
LAYER_INDEX
  2
AcDbLayerIndex
  3
ObjectDBX Classes
 90
        0
 91
        3
280
     0
281
     0
  0
CLASS
  1
IDBUFFER
  2
AcDbIdBuffer
  3
ObjectDBX Classes
 90
        0
 91
        3
280
     0
281
     0
  0
CLASS
  1
ACDBDICTIONARYWDFLT
  2
AcDbDictionaryWithDefault
  3
ObjectDBX Classes
 90
        0
 91
        3
280
     0
281
     0
  0
CLASS
  1
ACDBPLACEHOLDER
  2
AcDbPlaceHolder
  3
ObjectDBX Classes
 90
        0
 91
        1
280
     0
281
     0
  0
CLASS
  1
LAYOUT
  2
AcDbLayout
  3
ObjectDBX Classes
 90
        0
 91
        1
280
     0
281
     0
  0
CLASS
  1
PLOTSETTINGS
  2
AcDbPlotSettings
  3
ObjectDBX Classes
 90
        0
 91
        3
280
     0
281
     0
  0
CLASS
  1
ACME_DOCUMENT
  2
AcMeDbDoc
  3
AcMeServices
 90
   -65536
 91
        1
280
     1
281
     0
  0
CLASS
  1
AMGSETTINGSOBJ
  2
AmgSettingsObj
  3
"AcadM|Product Description: AutoCAD Mechanical 2000|Company: Autodesk"
 90
        0
 91
        3
280
     1
281
     0
  0
CLASS
  1
GSMANAGER
  2
AcMeGSManager
  3
AcMeServices
 90
   -65536
 91
        1
280
     1
281
     0
  0
CLASS
  1
AmdtInternalReactor
  2
AmdtInternalReactor
  3
AcMeServices
 90
   -65536
 91
        1
280
     1
281
     0
  0
CLASS
  1
ACGREFMASTER
  2
AcGrefMaster
  3
AcAttribServices
 90
   -65536
 91
        1
280
     1
281
     0
  0
CLASS
  1
AM_DRAWING_MGR
  2
AcDmDwgMgr
  3
AcMechDwgViewMgmt
 90
        0
 91
        2
280
     1
281
     0
  0
CLASS
  1
AM_DWG_DOCUMENT
  2
AcDmDwgDocument
  3
AcMechDwgViewMgmt
 90
        0
 91
        2
280
     1
281
     0
  0
CLASS
  1
AM_DWG_SHEET
  2
AcDmSheet
  3
AcMechDwgViewMgmt
 90
        0
 91
        2
280
     1
281
     0
  0
CLASS
  1
AM_VIEWDIMPARMAP
  2
AcDmViewDimParMap
  3
AcMechDwgViewMgmt
 90
        0
 91
        2
280
     1
281
     0
  0
CLASS
  1
AM_DWGMGR_NAME
  2
AcDmDwgMgrName
  3
AcMechDwgViewMgmt
 90
        0
 91
        2
280
     1
281
     0
  0
CLASS
  1
ACME_DATABASE
  2
AcMeDbDatabase
  3
AcMeServices
 90
   -65536
 91
        1
280
     1
281
     0
  0
CLASS
  1
ACGREFMASTER
  2
AcGrefacadMaster
  3
AcGrefServices
 90
        0
 91
        3
280
     1
281
     0
  0
CLASS
  1
AMDTMENUSTATEMGR
  2
AmdtMenuStateMgr
  3
McadcomServices
 90
   -65536
 91
        1
280
     1
281
     0
  0
CLASS
  1
AMDTMCOMMENUSTATE
  2
AmdtMcomMenuState
  3
McadcomServices
 90
   -65536
 91
        1
280
     1
281
     0
  0
CLASS
  1
ASAPP
  2
AcAsAppObject
  3
AutoSurfServices
 90
        0
 91
        2
280
     1
281
     0
  0
CLASS
  1
IM_STATIC_MAN
  2
AcImStaticVarManager
  3
AcMeServices
 90
        0
 91
        2
280
     1
281
     0
  0
CLASS
  1
ACIMSTRSYSVAR
  2
AcImStrSysVar
  3
AcMeServices
 90
        0
 91
        7
280
     1
281
     0
  0
CLASS
  1
ACIMDBLSTATICVAR
  2
AcImDblStaticVar
  3
AcMeServices
 90
        0
 91
       19
280
     1
281
     0
  0
CLASS
  1
ACIMSTRSTATICVAR
  2
AcImStrStaticVar
  3
AcMeServices
 90
        0
 91
        6
280
     1
281
     0
  0
CLASS
  1
ACIMINTSTATICVAR
  2
AcImIntStaticVar
  3
AcMeServices
 90
        0
 91
        8
280
     1
281
     0
  0
CLASS
  1
ACADGREFMODULE
  2
AcAdGrefModule
  3
AdGrefServices
 90
        0
 91
        2
280
     1
281
     0
  0
CLASS
  1
AMIMASTER
  2
AmiMaster
  3
AmiServices
 90
        0
 91
        2
280
     1
281
     0
  0
CLASS
  1
ACASGREFMASTER
  2
AcAsGrefMaster
  3
AutoSurfResolverServices
 90
        0
 91
        2
280
     1
281
     0
  0
CLASS
  1
MAPIAMMOUDLE
  2
MApiAmModule
  3
MApiAmServices
 90
        0
 91
        2
280
     1
281
     0
  0
CLASS
  1
AMDTDMMENUSTATE
  2
AmdtDmMenuState
  3
AcMechDwgViewMgmt
 90
   -65536
 91
        1
280
     1
281
     0
  0
CLASS
  1
AMDTADMENUSTATE
  2
AmdtAdMenuState
  3
DesignerServices
 90
   -65536
 91
        1
280
     1
281
     0
  0
CLASS
  1
ADAPPL
  2
AcAdAppl
  3
DesignerServices
 90
        0
 91
        2
280
     1
281
     0
  0
CLASS
  1
DEPMGR
  2
AcAdDepMgr
  3
DesignerServices
 90
        0
 91
        2
280
     1
281
     0
  0
CLASS
  1
PARAMMGR
  2
AcAdParamMgr
  3
DesignerServices
 90
        0
 91
        2
280
     1
281
     0
  0
CLASS
  1
PARAMSCOPE
  2
AcAdParamScope
  3
DesignerServices
 90
        0
 91
        2
280
     1
281
     0
  0
CLASS
  1
NAMEDAPPL
  2
AcAdNamedAppl
  3
DesignerServices
 90
        0
 91
        2
280
     1
281
     0
  0
CLASS
  1
ADHNTMPLT
  2
AdHoleNoteTemplateMgr
  3
DesignerServices
 90
        0
 91
        2
280
     1
281
     0
  0
CLASS
  1
AM_HNTEMPLATE_MGR_NAME
  2
AdHoleNoteTemplateMgrName
  3
DesignerServices
 90
        0
 91
        2
280
     1
281
     0
  0
CLASS
  1
AMDTAMMENUSTATE
  2
AmdtAmMenuState
  3
DesignerAssemblies
 90
   -65536
 91
        1
280
     1
281
     0
  0
CLASS
  1
ACAMPROJECT
  2
AcAmProject
  3
DesignerAssemblies
 90
        0
 91
        2
280
     1
281
     0
  0
CLASS
  1
ACAMGRCOMPDEF
  2
AcAmGrCompDef
  3
DesignerAssemblies
 90
        0
 91
        2
280
     1
281
     0
  0
CLASS
  1
ACCMCONTEXT
  2
AcCmContext
  3
DesignerAssemblies
 90
        0
 91
        2
280
     1
281
     0
  0
CLASS
  1
ACAMCOMPDEF
  2
AcAmCompDef
  3
DesignerAssemblies
 90
        0
 91
        2
280
     1
281
     0
  0
CLASS
  1
ACAMCOMPDEFMGR
  2
AcAmCompDefMgr
  3
DesignerAssemblies
 90
        0
 91
        2
280
     1
281
     0
  0
CLASS
  1
AMCONTEXTMGR
  2
AcAmContextMgr
  3
DesignerAssemblies
 90
        0
 91
        2
280
     1
281
     0
  0
CLASS
  1
ACAMCONTEXTMODELER
  2
AcAmContextModeler
  3
DesignerAssemblies
 90
        0
 91
        2
280
     1
281
     0
  0
CLASS
  1
MAPIADMODULE
  2
MApiAdModule
  3
MApiAdServices
 90
        0
 91
        2
280
     1
281
     0
  0
CLASS
  1
AMDTBROWSERDBTAB
  2
AmdtBrowserDbTab
  3
McadcomServices
 90
   -65536
 91
        1
280
     1
281
     0
  0
CLASS
  1
CBROWSERAPPOBJECT
  2
CBrowserAppObject
  3
McadcomServices
 90
   -65536
 91
        1
280
     1
281
     0
  0
CLASS
  1
DM_PLACEHOLDER
  2
AcDmSelsetPlaceholder
  3
AcMechDwgViewMgmt
 90
   -65536
 91
        1
280
     1
281
     0
  0
CLASS
  1
CATALOGSTATE
  2
AcAmCatalogState
  3
DesignerAssemblies
 90
        0
 91
        2
280
     1
281
     0
  0
CLASS
  1
ACAMGRCOMPDEFSET
  2
AcAmGrCompDefSet
  3
DesignerAssemblies
 90
   -65536
 91
        1
280
     1
281
     0
  0
CLASS
  1
AMGOBJPROPCFG
  2
AmgObjPropCfg
  3
"AmgLay|Product Description: AutoCAD Mechanical 2000|Company: Autodesk"
 90
        1
 91
        2
280
     1
281
     0
  0
CLASS
  1
ACAMGFILTERDAT
  2
AcAmgFilterDat
  3
"AcadM|Product Description: AutoCAD Mechanical 2000|Company: Autodesk"
 90
        0
 91
        6
280
     1
281
     0
  0
CLASS
  1
ACRFATTGENMGR
  2
AcRfAttGeneralMgr
  3
AcAttribServices
 90
   -65536
 91
        1
280
     1
281
     0
  0
CLASS
  1
MATERIAL
  2
AcDbMaterial
  3
ObjectDBX Classes
 90
     1153
 91
        3
280
     0
281
     0
  0
CLASS
  1
VISUALSTYLE
  2
AcDbVisualStyle
  3
ObjectDBX Classes
 90
     4095
 91
        3
280
     0
281
     0
  0
CLASS
  1
TABLESTYLE
  2
AcDbTableStyle
  3
ObjectDBX Classes
 90
     4095
 91
        3
280
     0
281
     0
  0
CLASS
  1
SCALE
  2
AcDbScale
  3
ObjectDBX Classes
 90
     1153
 91
        3
280
     0
281
     0
  0
CLASS
  1
MLEADERSTYLE
  2
AcDbMLeaderStyle
  3
ACDB_MLEADERSTYLE_CLASS
 90
     4095
 91
        3
280
     0
281
     0
  0
CLASS
  1
AEC_REFEDIT_STATUS_TRACKER
  2
AecDbRefEditStatusTracker
  3
AecArchBase60|Product Desc: Autodesk Architectural Desktop 2007 |Company: Autodesk,Inc. |WEB Address: www.autodesk.com
 90
   -65407
 91
        1
280
     1
281
     0
  0
CLASS
  1
NPOCOLLECTION
  2
AcDbImpNonPersistentObjectsCollection
  3
ObjectDBX Classes
 90
   -64383
 91
        1
280
     1
281
     0
  0
CLASS
  1
SORTENTSTABLE
  2
AcDbSortentsTable
  3
ObjectDBX Classes
 90
        0
 91
        3
280
     0
281
     0
  0
CLASS
  1
CELLSTYLEMAP
  2
AcDbCellStyleMap
  3
ObjectDBX Classes
 90
     1152
 91
        3
280
     0
281
     0
  0
CLASS
  1
EXACXREFPANELOBJECT
  2
ExAcXREFPanelObject
  3
EXAC_ESW
 90
   -64511
 91
        1
280
     1
281
     0
  0
ENDSEC
  0
SECTION
  2
TABLES
  0
TABLE
  2
VPORT
  5
8
330
0
100
AcDbSymbolTable
 70
     1
  0
VPORT
  5
4A15
330
8
100
AcDbSymbolTableRecord
100
AcDbViewportTableRecord
  2
*Active
 70
     0
 10
0.0
 20
0.0
 11
1.0
 21
1.0
 12
2100.0
 22
1485.0
 13
0.0
 23
0.0
 14
10.0
 24
10.0
 15
0.0
 25
0.0
 16
0.0
 26
0.0
 36
1.0
 17
0.0
 27
0.0
 37
0.0
 40
2970.0
 41
2.153366583541147
 42
50.0
 43
0.0
 44
0.0
 50
0.0
 51
0.0
 71
    16
 72
  2000
 73
     1
 74
     0
 75
     0
 76
     0
 77
     0
 78
     0
281
     0
 65
     1
110
0.0
120
0.0
130
0.0
111
1.0
121
0.0
131
0.0
112
0.0
122
1.0
132
0.0
 79
     0
146
0.0
348
4A36
 60
     3
 61
     5
292
     1
282
     1
141
0.0
142
0.0
 63
   256
  0
ENDTAB
  0
TABLE
  2
LTYPE
  5
5
330
0
100
AcDbSymbolTable
 70
    12
  0
LTYPE
  5
12
330
5
100
AcDbSymbolTableRecord
100
AcDbLinetypeTableRecord
  2
BYBLOCK
 70
     0
  3

 72
    65
 73
     0
 40
0.0
  0
LTYPE
  5
13
330
5
100
AcDbSymbolTableRecord
100
AcDbLinetypeTableRecord
  2
BYLAYER
 70
     0
  3

 72
    65
 73
     0
 40
0.0
  0
LTYPE
  5
14
330
5
100
AcDbSymbolTableRecord
100
AcDbLinetypeTableRecord
  2
CONTINUOUS
 70
     0
  3
実線
 72
    65
 73
     0
 40
0.0
  0
LTYPE
  5
46B
330
5
100
AcDbSymbolTableRecord
100
AcDbLinetypeTableRecord
  2
HIDS
 70
     0
  3
(破線1)- - - - - - - - - - - - - - - - - - - - 
 72
    65
 73
     2
 40
2.5
 49
1.5
 74
     0
 49
-1.0
 74
     0
  0
LTYPE
  5
177F
330
5
100
AcDbSymbolTableRecord
100
AcDbLinetypeTableRecord
  2
CENTER
 70
     0
  3
Center ____ _ ____ _ ____ _ ____ _ ____ _ ____
 72
    65
 73
     4
 40
10.16
 49
6.35
 74
     0
 49
-1.27
 74
     0
 49
1.27
 74
     0
 49
-1.27
 74
     0
  0
LTYPE
  5
234D
330
5
100
AcDbSymbolTableRecord
100
AcDbLinetypeTableRecord
  2
HIDDEN
 70
     0
  3
Hidden __ __ __ __ __ __ __ __ __ __ __ __ __ _
 72
    65
 73
     2
 40
0.375
 49
0.25
 74
     0
 49
-0.125
 74
     0
  0
LTYPE
  5
234E
330
5
100
AcDbSymbolTableRecord
100
AcDbLinetypeTableRecord
  2
PHANTOM2
 70
     0
  3
Phantom (.5x) ___ _ _ ___ _ _ ___ _ _ ___ _ _
 72
    65
 73
     6
 40
1.25
 49
0.625
 74
     0
 49
-0.125
 74
     0
 49
0.125
 74
     0
 49
-0.125
 74
     0
 49
0.125
 74
     0
 49
-0.125
 74
     0
  0
LTYPE
  5
23DD
330
5
100
AcDbSymbolTableRecord
100
AcDbLinetypeTableRecord
  2
Amconstr
 70
     0
  3
_______________________
 72
    65
 73
     2
 40
9999.0
 49
9999.0
 74
     0
 49
0.0
 74
     0
  0
LTYPE
  5
23E3
330
5
100
AcDbSymbolTableRecord
100
AcDbLinetypeTableRecord
  2
HIDDEN2
 70
     0
  3
Hidden (.5x) _ _ _ _ _ _ _ _ _ _ _ _ _ _ _ _ _
 72
    65
 73
     2
 40
0.1875
 49
0.125
 74
     0
 49
-0.0625
 74
     0
  0
LTYPE
  5
23E4
330
5
100
AcDbSymbolTableRecord
100
AcDbLinetypeTableRecord
  2
CENTER2
 70
     0
  3
Center (.5x) ___ _ ___ _ ___ _ ___ _ ___ _ ___
 72
    65
 73
     4
 40
1.125
 49
0.75
 74
     0
 49
-0.125
 74
     0
 49
0.125
 74
     0
 49
-0.125
 74
     0
  0
LTYPE
  5
23E5
330
5
100
AcDbSymbolTableRecord
100
AcDbLinetypeTableRecord
  2
Amzigzag2
 70
     0
  3
/\/-/\/-/\/-/\/-/\/-/\/
 72
    65
 73
     2
 40
0.4401
 49
0.0001
 74
     4
 75
   135
340
23E1
 46
0.0016
 50
0.0
 44
0.0
 45
0.0
 49
-0.44
 74
     0
  0
LTYPE
  5
4A67
330
5
100
AcDbSymbolTableRecord
100
AcDbLinetypeTableRecord
  2
DRAFT
 70
     0
  3
_______________________________________________
 72
    65
 73
     2
 40
0.000000000000002
 49
0.000000000000001
 74
     0
 49
0.000000000000001
 74
     0
  0
LTYPE
  5
4A84
330
5
100
AcDbSymbolTableRecord
100
AcDbLinetypeTableRecord
  2
DIMENSION
 70
     0
  3
_______________________________________________
 72
    65
 73
     2
 40
0.000000000000002
 49
0.000000000000001
 74
     0
 49
0.000000000000001
 74
     0
  0
LTYPE
  5
4B7F
330
5
100
AcDbSymbolTableRecord
100
AcDbLinetypeTableRecord
  2
CENS
 70
     0
  3
(1点鎖線1)---- - ---- - ---- - ---- - ---- - ---- 
 72
    65
 73
     4
 40
13.0
 49
10.0
 74
     0
 49
-1.0
 74
     0
 49
1.0
 74
     0
 49
-1.0
 74
     0
  0
ENDTAB
  0
TABLE
  2
LAYER
  5
2
102
{ACAD_XDICTIONARY
360
28C2
102
}
330
0
100
AcDbSymbolTable
 70
    10
  0
LAYER
  5
F
102
{ACAD_XDICTIONARY
360
4D5E
102
}
330
2
100
AcDbSymbolTableRecord
100
AcDbLayerTableRecord
  2
0
 70
     0
 62
     7
  6
CONTINUOUS
370
    -3
390
5DB
347
4A28
  0
LAYER
  5
C7
102
{ACAD_XDICTIONARY
360
4D60
102
}
330
2
100
AcDbSymbolTableRecord
100
AcDbLayerTableRecord
  2
ASKPAPERSIZE
 70
     0
 62
     7
  6
CONTINUOUS
290
     0
370
    -3
390
5DB
347
4A28
  0
LAYER
  5
3F9
102
{ACAD_XDICTIONARY
360
4D62
102
}
330
2
100
AcDbSymbolTableRecord
100
AcDbLayerTableRecord
  2
9図面枠
 70
     0
 62
     5
  6
CONTINUOUS
370
    -3
390
5DB
347
4A28
  0
LAYER
  5
3FB
102
{ACAD_XDICTIONARY
360
4D64
102
}
330
2
100
AcDbSymbolTableRecord
100
AcDbLayerTableRecord
  2
9図面文字
 70
     0
 62
     7
  6
CONTINUOUS
370
    -3
390
5DB
347
4A28
  0
LAYER
  5
EE1
102
{ACAD_XDICTIONARY
360
4D66
102
}
330
2
100
AcDbSymbolTableRecord
100
AcDbLayerTableRecord
  2
非表示破線
 70
     0
 62
     7
  6
CONTINUOUS
290
     0
370
    -3
390
5DB
347
4A28
  0
LAYER
  5
2AE1
102
{ACAD_XDICTIONARY
360
4D68
102
}
330
2
100
AcDbSymbolTableRecord
100
AcDbLayerTableRecord
  2
LAYER01
 70
     0
 62
     7
  6
CONTINUOUS
370
    -3
390
5DB
347
4A28
  0
LAYER
  5
2AE2
102
{ACAD_XDICTIONARY
360
4D6A
102
}
330
2
100
AcDbSymbolTableRecord
100
AcDbLayerTableRecord
  2
LAYER03
 70
     0
 62
     7
  6
CONTINUOUS
370
    -3
390
5DB
347
4A28
  0
LAYER
  5
2AE4
102
{ACAD_XDICTIONARY
360
4D6C
102
}
330
2
100
AcDbSymbolTableRecord
100
AcDbLayerTableRecord
  2
LAYER02
 70
     0
 62
     3
  6
CONTINUOUS
370
    -3
390
5DB
347
4A28
  0
LAYER
  5
4A87
330
2
100
AcDbSymbolTableRecord
100
AcDbLayerTableRecord
  2
Defpoints
 70
     0
 62
     7
  6
CONTINUOUS
290
     0
370
    -3
390
5DB
347
4A28
  0
LAYER
  5
4D39
102
{ACAD_XDICTIONARY
360
4D3A
102
}
330
2
100
AcDbSymbolTableRecord
100
AcDbLayerTableRecord
  2
TEXT_0
 70
     0
 62
     7
  6
CONTINUOUS
370
    -3
390
5DB
347
4A28
  0
ENDTAB
  0
TABLE
  2
STYLE
  5
3
330
0
100
AcDbSymbolTable
 70
     8
  0
STYLE
  5
10
330
3
100
AcDbSymbolTableRecord
100
AcDbTextStyleTableRecord
  2
STANDARD
 70
     0
 40
0.0
 41
1.0
 50
0.0
 71
     0
 42
3.299999999999999
  3
TXT
  4
BIGFONT
  0
STYLE
  5
2AB
330
3
100
AcDbSymbolTableRecord
100
AcDbTextStyleTableRecord
  2
STD
 70
     0
 40
0.0
 41
1.0
 50
0.0
 71
     0
 42
64.0
  3
TXT
  4
BIGFONT
  0
STYLE
  5
3FC
330
3
100
AcDbSymbolTableRecord
100
AcDbTextStyleTableRecord
  2
STYLE1
 70
     0
 40
0.0
 41
1.0
 50
0.0
 71
     0
 42
64.0
  3
msgothic.ttc
  4

1001
ACAD
1000
MS PGothic
1071
    32818
  0
STYLE
  5
532
330
3
100
AcDbSymbolTableRecord
100
AcDbTextStyleTableRecord
  2
STYLE3
 70
     0
 40
0.0
 41
1.5
 50
0.0
 71
     0
 42
64.0
  3

  4

1001
ACAD
1000
MS PGothic
1071
    32818
  0
STYLE
  5
568
330
3
100
AcDbSymbolTableRecord
100
AcDbTextStyleTableRecord
  2
USR5
 70
     0
 40
0.0
 41
1.0
 50
0.0
 71
     0
 42
64.0
  3
TXT.shx
  4
BIGFONT.shx
  0
STYLE
  5
23E1
330
3
100
AcDbSymbolTableRecord
100
AcDbTextStyleTableRecord
  2

 70
     1
 40
0.0
 41
1.0
 50
0.0
 71
     0
 42
64.0
  3
ltypeshp.shx
  4

  0
STYLE
  5
2AED
330
3
100
AcDbSymbolTableRecord
100
AcDbTextStyleTableRecord
  2
ＭＳ ゴシック
 70
     0
 40
0.0
 41
0.7
 50
0.0
 71
     0
 42
0.0
  3
romans.shx
  4
bigfont.shx
  0
STYLE
  5
4D03
330
3
100
AcDbSymbolTableRecord
100
AcDbTextStyleTableRecord
  2
ｽﾀｲﾙ1
 70
     0
 40
0.0
 41
1.0
 50
0.0
 71
     0
 42
64.0
  3
HGRGY.TTC
  4

1001
ACAD
1000
HGGyoshotai
1071
    32833
1001
ASKOBJSC
1000
1/2
1001
ASKDWGSC
1040
10.0
  0
ENDTAB
  0
TABLE
  2
VIEW
  5
6
330
0
100
AcDbSymbolTable
 70
     1
  0
VIEW
  5
C5
330
6
100
AcDbSymbolTableRecord
100
AcDbViewTableRecord
  2
V0
 70
     0
 40
2970.0
 10
2100.0
 20
1485.0
 41
4200.0
 11
0.0
 21
0.0
 31
1.0
 12
0.0
 22
0.0
 32
0.0
 42
50.0
 43
0.0
 44
0.0
 50
0.0
 71
     0
281
     0
 72
     0
 73
     0
348
4A36
  0
ENDTAB
  0
TABLE
  2
UCS
  5
7
330
0
100
AcDbSymbolTable
 70
     3
  0
UCS
  5
1D1
330
7
100
AcDbSymbolTableRecord
100
AcDbUCSTableRecord
  2
ASKMOVEUCS
 70
     0
 10
0.0
 20
0.0
 30
0.0
 11
1.0
 21
0.0
 31
0.0
 12
0.0
 22
1.0
 32
0.0
 79
     0
146
0.0
  0
UCS
  5
1D4
330
7
100
AcDbSymbolTableRecord
100
AcDbUCSTableRecord
  2
UCS_SET
 70
     0
 10
0.0
 20
0.0
 30
0.0
 11
1.0
 21
0.0
 31
0.0
 12
0.0
 22
1.0
 32
0.0
 79
     0
146
0.0
  0
UCS
  5
4C10
330
7
100
AcDbSymbolTableRecord
100
AcDbUCSTableRecord
  2
DIM_LEADER
 70
     0
 10
0.0
 20
0.0
 30
0.0
 11
1.0
 21
0.0
 31
0.0
 12
0.0
 22
1.0
 32
0.0
 79
     0
146
0.0
  0
ENDTAB
  0
TABLE
  2
APPID
  5
9
330
0
100
AcDbSymbolTable
 70
    22
  0
APPID
  5
11
330
9
100
AcDbSymbolTableRecord
100
AcDbRegAppTableRecord
  2
ACAD
 70
     0
  0
APPID
  5
C6
330
9
100
AcDbSymbolTableRecord
100
AcDbRegAppTableRecord
  2
AUTO_SEKKEIYA
 70
     0
  0
APPID
  5
3BE
330
9
100
AcDbSymbolTableRecord
100
AcDbRegAppTableRecord
  2
MCAD_NO_VIS
 70
     0
  0
APPID
  5
3BF
330
9
100
AcDbSymbolTableRecord
100
AcDbRegAppTableRecord
  2
ACAD_TEMP_GRAPHIC
 70
     0
  0
APPID
  5
1781
330
9
100
AcDbSymbolTableRecord
100
AcDbRegAppTableRecord
  2
ASKOBJSC
 70
     0
  0
APPID
  5
1782
330
9
100
AcDbSymbolTableRecord
100
AcDbRegAppTableRecord
  2
ASKDWGSC
 70
     0
  0
APPID
  5
2336
330
9
100
AcDbSymbolTableRecord
100
AcDbRegAppTableRecord
  2
GENIUS_GENDIM_13
 70
     0
  0
APPID
  5
2337
330
9
100
AcDbSymbolTableRecord
100
AcDbRegAppTableRecord
  2
GENIUS_GENDTOL_13
 70
     0
  0
APPID
  5
2338
330
9
100
AcDbSymbolTableRecord
100
AcDbRegAppTableRecord
  2
GENIUS_GE3DTOL_13
 70
     0
  0
APPID
  5
2362
330
9
100
AcDbSymbolTableRecord
100
AcDbRegAppTableRecord
  2
AD_DRAW
 70
     0
  0
APPID
  5
2365
330
9
100
AcDbSymbolTableRecord
100
AcDbRegAppTableRecord
  2
ACATTRIBSERVICES
 70
     0
  0
APPID
  5
239D
330
9
100
AcDbSymbolTableRecord
100
AcDbRegAppTableRecord
  2
ASURF_PCURVE_APPNAME
 70
     0
  0
APPID
  5
23CE
330
9
100
AcDbSymbolTableRecord
100
AcDbRegAppTableRecord
  2
DESIGNERASSEMBLIES
 70
     0
  0
APPID
  5
23D4
330
9
100
AcDbSymbolTableRecord
100
AcDbRegAppTableRecord
  2
ACADM_DIM_EDIT
 70
     0
  0
APPID
  5
4B0C
330
9
100
AcDbSymbolTableRecord
100
AcDbRegAppTableRecord
  2
ACAD_EXEMPT_FROM_CAD_STANDARDS
 70
     0
  0
APPID
  5
4BDF
330
9
100
AcDbSymbolTableRecord
100
AcDbRegAppTableRecord
  2
ASK_MEN_XD
 70
     0
  0
APPID
  5
4C14
330
9
100
AcDbSymbolTableRecord
100
AcDbRegAppTableRecord
  2
ASKLEADER
 70
     0
  0
APPID
  5
4C15
330
9
100
AcDbSymbolTableRecord
100
AcDbRegAppTableRecord
  2
ASKLEADERCHILD
 70
     0
  0
APPID
  5
4C37
330
9
100
AcDbSymbolTableRecord
100
AcDbRegAppTableRecord
  2
GradientColor1ACI
 70
     0
  0
APPID
  5
4C38
330
9
100
AcDbSymbolTableRecord
100
AcDbRegAppTableRecord
  2
GradientColor2ACI
 70
     0
  0
APPID
  5
4DDA
330
9
100
AcDbSymbolTableRecord
100
AcDbRegAppTableRecord
  2
ACAD_PSEXT
 70
     0
  0
APPID
  5
4E8C
330
9
100
AcDbSymbolTableRecord
100
AcDbRegAppTableRecord
  2
ACAD_MLEADERVER
 70
     0
  0
ENDTAB
  0
TABLE
  2
DIMSTYLE
  5
A
330
0
100
AcDbSymbolTable
 70
     1
100
AcDbDimStyleTable
  0
DIMSTYLE
105
B39
102
{ACAD_REACTORS
330
4A86
330
4A95
330
4AA3
330
4AB1
330
4ACB
330
4AFD
330
4C13
330
4C47
330
4C5E
102
}
330
A
100
AcDbSymbolTableRecord
100
AcDbDimStyleTableRecord
  2
ASKSTANDARD
 70
     0
 40
20.0
 41
1.5
 42
1.0
 43
8.0
 44
1.0
 73
     0
 74
     0
 78
     8
140
2.0
141
0.0
145
1.0
146
0.7
147
1.0
172
     1
174
     1
176
     3
177
     3
271
     1
178
     3
271
     1
272
     1
340
2AB
  0
ENDTAB
  0
TABLE
  2
BLOCK_RECORD
  5
1
330
0
100
AcDbSymbolTable
 70
    11
  0
BLOCK_RECORD
  5
18
102
{ACAD_XDICTIONARY
360
53B
102
}
330
1
100
AcDbSymbolTableRecord
100
AcDbBlockTableRecord
  2
*MODEL_SPACE
340
5DE
 70
     0
280
     1
281
     0
  0
BLOCK_RECORD
  5
15
330
1
100
AcDbSymbolTableRecord
100
AcDbBlockTableRecord
  2
*PAPER_SPACE
340
5DF
 70
     0
280
     1
281
     0
  0
BLOCK_RECORD
  5
23C5
330
1
100
AcDbSymbolTableRecord
100
AcDbBlockTableRecord
  2
*U0
340
0
 70
     0
280
     1
281
     0
  0
BLOCK_RECORD
  5
4A88
330
1
100
AcDbSymbolTableRecord
100
AcDbBlockTableRecord
  2
*D1
340
0
 70
     0
280
     1
281
     0
  0
BLOCK_RECORD
  5
4A96
330
1
100
AcDbSymbolTableRecord
100
AcDbBlockTableRecord
  2
*D2
340
0
 70
     0
280
     1
281
     0
  0
BLOCK_RECORD
  5
4AA4
330
1
100
AcDbSymbolTableRecord
100
AcDbBlockTableRecord
  2
*D3
340
0
 70
     0
280
     1
281
     0
  0
BLOCK_RECORD
  5
4AB2
330
1
100
AcDbSymbolTableRecord
100
AcDbBlockTableRecord
  2
*D4
340
0
 70
     0
280
     1
281
     0
  0
BLOCK_RECORD
  5
4ACC
330
1
100
AcDbSymbolTableRecord
100
AcDbBlockTableRecord
  2
*D5
340
0
 70
     0
280
     1
281
     0
  0
BLOCK_RECORD
  5
4AFE
330
1
100
AcDbSymbolTableRecord
100
AcDbBlockTableRecord
  2
*D6
340
0
 70
     0
280
     1
281
     0
  0
BLOCK_RECORD
  5
4C48
330
1
100
AcDbSymbolTableRecord
100
AcDbBlockTableRecord
  2
*D7
340
0
 70
     0
280
     1
281
     0
  0
BLOCK_RECORD
  5
4C5F
330
1
100
AcDbSymbolTableRecord
100
AcDbBlockTableRecord
  2
*D8
340
0
 70
     0
280
     1
281
     0
  0
BLOCK_RECORD
  5
4D1A
330
1
100
AcDbSymbolTableRecord
100
AcDbBlockTableRecord
  2
kami
340
0
102
{BLKREFS
331
4D22
331
4D23
102
}
 70
     0
280
     1
281
     0
1001
ASKOBJSC
1000
1/2
1001
ASKDWGSC
1040
10.0
  0
BLOCK_RECORD
  5
4D21
102
{ACAD_XDICTIONARY
360
4D24
102
}
330
1
100
AcDbSymbolTableRecord
100
AcDbBlockTableRecord
  2
上條判子
340
0
102
{BLKREFS
331
4D28
102
}
 70
     0
280
     1
281
     0
1001
ASKOBJSC
1000
1/2
1001
ASKDWGSC
1040
10.0
  0
ENDTAB
  0
ENDSEC
  0
SECTION
  2
BLOCKS
  0
BLOCK
  5
24
330
18
100
AcDbEntity
  8
0
 62
     7
370
    -1
100
AcDbBlockBegin
  2
*MODEL_SPACE
 70
     0
 10
0.0
 20
0.0
 30
0.0
  3
*MODEL_SPACE
  1

  0
ENDBLK
  5
25
330
18
100
AcDbEntity
  8
0
 62
     7
370
    -1
100
AcDbBlockEnd
  0
BLOCK
  5
22
330
15
100
AcDbEntity
 67
     1
  8
0
 62
     7
370
    -1
100
AcDbBlockBegin
  2
*PAPER_SPACE
 70
     0
 10
0.0
 20
0.0
 30
0.0
  3
*PAPER_SPACE
  1

  0
ENDBLK
  5
23
330
15
100
AcDbEntity
 67
     1
  8
0
 62
     7
370
    -1
100
AcDbBlockEnd
  0
BLOCK
  5
23C6
330
23C5
100
AcDbEntity
  8
0
 62
     7
100
AcDbBlockBegin
  2
*U0
 70
     1
 10
0.0
 20
0.0
 30
0.0
  3
*U0
  1

  0
ENDBLK
  5
23C7
330
23C5
100
AcDbEntity
  8
0
 62
     7
100
AcDbBlockEnd
  0
BLOCK
  5
4A89
330
4A88
100
AcDbEntity
  8
0
 62
     7
100
AcDbBlockBegin
  2
*D1
 70
     1
 10
0.0
 20
0.0
 30
0.0
  3
*D1
  1

  0
LINE
  5
4B4C
330
4A88
100
AcDbEntity
  8
0
  6
DIMENSION
 62
     3
370
    -2
100
AcDbLine
 10
640.498309085975
 20
2357.57609936243
 30
0.0
 11
640.498309085975
 21
2547.40796801416
 31
0.0
  0
LINE
  5
4B4D
330
4A88
100
AcDbEntity
  8
0
  6
DIMENSION
 62
     3
370
    -2
100
AcDbLine
 10
2040.498309085976
 20
2357.57609936243
 30
0.0
 11
2040.498309085976
 21
2547.40796801416
 31
0.0
  0
LINE
  5
4B4E
330
4A88
100
AcDbEntity
  8
0
  6
DIMENSION
 62
     3
370
    -2
100
AcDbLine
 10
660.498309085975
 20
2537.40796801416
 30
0.0
 11
2020.498309085976
 21
2537.40796801416
 31
0.0
  0
SOLID
  5
4B4F
330
4A88
100
AcDbEntity
  8
0
  6
DIMENSION
 62
     3
100
AcDbTrace
 10
660.498309085975
 20
2540.741301347494
 30
0.0
 11
660.498309085975
 21
2534.074634680827
 31
0.0
 12
640.498309085975
 22
2537.40796801416
 32
0.0
 13
640.498309085975
 23
2537.40796801416
 33
0.0
  0
SOLID
  5
4B50
330
4A88
100
AcDbEntity
  8
0
  6
DIMENSION
 62
     3
100
AcDbTrace
 10
2020.498309085976
 20
2540.741301347494
 30
0.0
 11
2020.498309085976
 21
2534.074634680827
 31
0.0
 12
2040.498309085976
 22
2537.40796801416
 32
0.0
 13
2040.498309085976
 23
2537.40796801416
 33
0.0
  0
MTEXT
  5
4B51
330
4A88
100
AcDbEntity
  8
0
  6
DIMENSION
 62
     3
100
AcDbMText
 10
1340.498309085975
 20
2557.40796801416
 30
0.0
 40
20.0
 41
0.0
 46
0.0
 71
     5
 72
     1
  1
\A1;1400
  7
STD
 73
     1
 44
1.0
  0
POINT
  5
4B52
330
4A88
100
AcDbEntity
  8
Defpoints
  6
DIMENSION
 62
     0
100
AcDbPoint
 10
640.498309085975
 20
2347.57609936243
 30
0.0
  0
POINT
  5
4B53
330
4A88
100
AcDbEntity
  8
Defpoints
  6
DIMENSION
 62
     0
100
AcDbPoint
 10
2040.498309085976
 20
2347.57609936243
 30
0.0
  0
POINT
  5
4B54
330
4A88
100
AcDbEntity
  8
Defpoints
  6
DIMENSION
 62
     0
100
AcDbPoint
 10
2040.498309085976
 20
2537.40796801416
 30
0.0
  0
ENDBLK
  5
4A8A
330
4A88
100
AcDbEntity
  8
0
 62
     7
100
AcDbBlockEnd
  0
BLOCK
  5
4A97
330
4A96
100
AcDbEntity
  8
0
 62
     7
100
AcDbBlockBegin
  2
*D2
 70
     1
 10
0.0
 20
0.0
 30
0.0
  3
*D2
  1

  0
LINE
  5
4B55
330
4A96
100
AcDbEntity
  8
0
  6
DIMENSION
 62
     3
370
    -2
100
AcDbLine
 10
2025.498309085975
 20
2342.57609936243
 30
0.0
 11
2025.498309085975
 21
2502.439598993909
 31
0.0
  0
LINE
  5
4B56
330
4A96
100
AcDbEntity
  8
0
  6
DIMENSION
 62
     3
370
    -2
100
AcDbLine
 10
655.498309085975
 20
2342.57609936243
 30
0.0
 11
655.498309085975
 21
2502.439598993909
 31
0.0
  0
LINE
  5
4B57
330
4A96
100
AcDbEntity
  8
0
  6
DIMENSION
 62
     3
370
    -2
100
AcDbLine
 10
2005.498309085975
 20
2492.439598993909
 30
0.0
 11
675.498309085975
 21
2492.439598993909
 31
0.0
  0
SOLID
  5
4B58
330
4A96
100
AcDbEntity
  8
0
  6
DIMENSION
 62
     3
100
AcDbTrace
 10
2005.498309085975
 20
2495.772932327243
 30
0.0
 11
2005.498309085975
 21
2489.106265660576
 31
0.0
 12
2025.498309085975
 22
2492.439598993909
 32
0.0
 13
2025.498309085975
 23
2492.439598993909
 33
0.0
  0
SOLID
  5
4B59
330
4A96
100
AcDbEntity
  8
0
  6
DIMENSION
 62
     3
100
AcDbTrace
 10
675.498309085975
 20
2495.772932327243
 30
0.0
 11
675.498309085975
 21
2489.106265660576
 31
0.0
 12
655.498309085975
 22
2492.439598993909
 32
0.0
 13
655.498309085975
 23
2492.439598993909
 33
0.0
  0
MTEXT
  5
4B5A
330
4A96
100
AcDbEntity
  8
0
  6
DIMENSION
 62
     3
100
AcDbMText
 10
1340.498309085975
 20
2512.439598993909
 30
0.0
 40
20.0
 41
0.0
 46
0.0
 71
     5
 72
     1
  1
\A1;1370
  7
STD
 73
     1
 44
1.0
  0
POINT
  5
4B5B
330
4A96
100
AcDbEntity
  8
Defpoints
  6
DIMENSION
 62
     0
100
AcDbPoint
 10
2025.498309085975
 20
2332.57609936243
 30
0.0
  0
POINT
  5
4B5C
330
4A96
100
AcDbEntity
  8
Defpoints
  6
DIMENSION
 62
     0
100
AcDbPoint
 10
655.498309085975
 20
2332.57609936243
 30
0.0
  0
POINT
  5
4B5D
330
4A96
100
AcDbEntity
  8
Defpoints
  6
DIMENSION
 62
     0
100
AcDbPoint
 10
655.498309085975
 20
2492.439598993909
 30
0.0
  0
ENDBLK
  5
4A98
330
4A96
100
AcDbEntity
  8
0
 62
     7
100
AcDbBlockEnd
  0
BLOCK
  5
4AA5
330
4AA4
100
AcDbEntity
  8
0
 62
     7
100
AcDbBlockBegin
  2
*D3
 70
     1
 10
0.0
 20
0.0
 30
0.0
  3
*D3
  1

  0
LINE
  5
4B5E
330
4AA4
100
AcDbEntity
  8
0
  6
DIMENSION
 62
     3
370
    -2
100
AcDbLine
 10
645.498309085975
 20
2332.57609936243
 30
0.0
 11
497.3490301981329
 21
2332.57609936243
 31
0.0
  0
LINE
  5
4B5F
330
4AA4
100
AcDbEntity
  8
0
  6
DIMENSION
 62
     3
370
    -2
100
AcDbLine
 10
645.498309085975
 20
1762.57609936243
 30
0.0
 11
497.3490301981328
 21
1762.57609936243
 31
0.0
  0
LINE
  5
4B60
330
4AA4
100
AcDbEntity
  8
0
  6
DIMENSION
 62
     3
370
    -2
100
AcDbLine
 10
507.3490301981329
 20
2312.57609936243
 30
0.0
 11
507.3490301981328
 21
1782.57609936243
 31
0.0
  0
SOLID
  5
4B61
330
4AA4
100
AcDbEntity
  8
0
  6
DIMENSION
 62
     3
100
AcDbTrace
 10
504.0156968647996
 20
2312.57609936243
 30
0.0
 11
510.6823635314662
 21
2312.57609936243
 31
0.0
 12
507.3490301981329
 22
2332.57609936243
 32
0.0
 13
507.3490301981329
 23
2332.57609936243
 33
0.0
  0
SOLID
  5
4B62
330
4AA4
100
AcDbEntity
  8
0
  6
DIMENSION
 62
     3
100
AcDbTrace
 10
504.0156968647995
 20
1782.57609936243
 30
0.0
 11
510.6823635314661
 21
1782.57609936243
 31
0.0
 12
507.3490301981328
 22
1762.57609936243
 32
0.0
 13
507.3490301981328
 23
1762.57609936243
 33
0.0
  0
MTEXT
  5
4B63
330
4AA4
100
AcDbEntity
  8
0
  6
DIMENSION
 62
     3
100
AcDbMText
 10
487.3490301981325
 20
2047.57609936243
 30
0.0
 40
20.0
 41
0.0
 46
0.0
 71
     5
 72
     1
  1
\A1;570
  7
STD
 11
6.123233995736766E-17
 21
1.0
 31
0.0
 73
     1
 44
1.0
  0
POINT
  5
4B64
330
4AA4
100
AcDbEntity
  8
Defpoints
  6
DIMENSION
 62
     0
100
AcDbPoint
 10
655.498309085975
 20
2332.57609936243
 30
0.0
  0
POINT
  5
4B65
330
4AA4
100
AcDbEntity
  8
Defpoints
  6
DIMENSION
 62
     0
100
AcDbPoint
 10
655.498309085975
 20
1762.57609936243
 30
0.0
  0
POINT
  5
4B66
330
4AA4
100
AcDbEntity
  8
Defpoints
  6
DIMENSION
 62
     0
100
AcDbPoint
 10
507.3490301981328
 20
1762.57609936243
 30
0.0
  0
ENDBLK
  5
4AA6
330
4AA4
100
AcDbEntity
  8
0
 62
     7
100
AcDbBlockEnd
  0
BLOCK
  5
4AB3
330
4AB2
100
AcDbEntity
  8
0
 62
     7
100
AcDbBlockBegin
  2
*D4
 70
     1
 10
0.0
 20
0.0
 30
0.0
  3
*D4
  1

  0
LINE
  5
4B67
330
4AB2
100
AcDbEntity
  8
0
  6
DIMENSION
 62
     3
370
    -2
100
AcDbLine
 10
630.498309085975
 20
2347.57609936243
 30
0.0
 11
440.2388012041193
 21
2347.57609936243
 31
0.0
  0
LINE
  5
4B68
330
4AB2
100
AcDbEntity
  8
0
  6
DIMENSION
 62
     3
370
    -2
100
AcDbLine
 10
630.498309085975
 20
1747.57609936243
 30
0.0
 11
440.2388012041192
 21
1747.57609936243
 31
0.0
  0
LINE
  5
4B69
330
4AB2
100
AcDbEntity
  8
0
  6
DIMENSION
 62
     3
370
    -2
100
AcDbLine
 10
450.2388012041193
 20
2327.57609936243
 30
0.0
 11
450.2388012041192
 21
1767.57609936243
 31
0.0
  0
SOLID
  5
4B6A
330
4AB2
100
AcDbEntity
  8
0
  6
DIMENSION
 62
     3
100
AcDbTrace
 10
446.905467870786
 20
2327.57609936243
 30
0.0
 11
453.5721345374526
 21
2327.57609936243
 31
0.0
 12
450.2388012041193
 22
2347.57609936243
 32
0.0
 13
450.2388012041193
 23
2347.57609936243
 33
0.0
  0
SOLID
  5
4B6B
330
4AB2
100
AcDbEntity
  8
0
  6
DIMENSION
 62
     3
100
AcDbTrace
 10
446.9054678707859
 20
1767.57609936243
 30
0.0
 11
453.5721345374525
 21
1767.57609936243
 31
0.0
 12
450.2388012041192
 22
1747.57609936243
 32
0.0
 13
450.2388012041192
 23
1747.57609936243
 33
0.0
  0
MTEXT
  5
4B6C
330
4AB2
100
AcDbEntity
  8
0
  6
DIMENSION
 62
     3
100
AcDbMText
 10
430.2388012041189
 20
2047.57609936243
 30
0.0
 40
20.0
 41
0.0
 46
0.0
 71
     5
 72
     1
  1
\A1;600
  7
STD
 11
6.123233995736766E-17
 21
1.0
 31
0.0
 73
     1
 44
1.0
  0
POINT
  5
4B6D
330
4AB2
100
AcDbEntity
  8
Defpoints
  6
DIMENSION
 62
     0
100
AcDbPoint
 10
640.498309085975
 20
2347.57609936243
 30
0.0
  0
POINT
  5
4B6E
330
4AB2
100
AcDbEntity
  8
Defpoints
  6
DIMENSION
 62
     0
100
AcDbPoint
 10
640.498309085975
 20
1747.57609936243
 30
0.0
  0
POINT
  5
4B6F
330
4AB2
100
AcDbEntity
  8
Defpoints
  6
DIMENSION
 62
     0
100
AcDbPoint
 10
450.2388012041192
 20
1747.57609936243
 30
0.0
  0
ENDBLK
  5
4AB4
330
4AB2
100
AcDbEntity
  8
0
 62
     7
100
AcDbBlockEnd
  0
BLOCK
  5
4ACD
330
4ACC
100
AcDbEntity
  8
0
 62
     7
100
AcDbBlockBegin
  2
*D5
 70
     1
 10
0.0
 20
0.0
 30
0.0
  3
*D5
  1

  0
LINE
  5
4B38
330
4ACC
100
AcDbEntity
  8
0
  6
DIMENSION
 62
     3
370
    -2
100
AcDbLine
 10
630.4983090859749
 20
1243.951421634305
 30
0.0
 11
440.2388012041191
 21
1243.951421634305
 31
0.0
  0
LINE
  5
4B39
330
4ACC
100
AcDbEntity
  8
0
  6
DIMENSION
 62
     3
370
    -2
100
AcDbLine
 10
630.498309085975
 20
1263.951421634305
 30
0.0
 11
440.2388012041191
 21
1263.951421634305
 31
0.0
  0
LINE
  5
4B3A
330
4ACC
100
AcDbEntity
  8
0
  6
DIMENSION
 62
     3
370
    -2
100
AcDbLine
 10
450.2388012041191
 20
1223.951421634305
 30
0.0
 11
450.2388012041191
 21
1203.951421634305
 31
0.0
  0
LINE
  5
4B3B
330
4ACC
100
AcDbEntity
  8
0
  6
DIMENSION
 62
     3
370
    -2
100
AcDbLine
 10
450.2388012041191
 20
1283.951421634305
 30
0.0
 11
450.2388012041191
 21
1303.951421634305
 31
0.0
  0
LINE
  5
4B3C
330
4ACC
100
AcDbEntity
  8
0
  6
DIMENSION
 62
     3
370
    -2
100
AcDbLine
 10
450.2388012041191
 20
1243.951421634305
 30
0.0
 11
450.2388012041191
 21
1263.951421634305
 31
0.0
  0
SOLID
  5
4B3D
330
4ACC
100
AcDbEntity
  8
0
  6
DIMENSION
 62
     3
100
AcDbTrace
 10
446.9054678707858
 20
1223.951421634305
 30
0.0
 11
453.5721345374524
 21
1223.951421634305
 31
0.0
 12
450.2388012041191
 22
1243.951421634305
 32
0.0
 13
450.2388012041191
 23
1243.951421634305
 33
0.0
  0
SOLID
  5
4B3E
330
4ACC
100
AcDbEntity
  8
0
  6
DIMENSION
 62
     3
100
AcDbTrace
 10
446.9054678707858
 20
1283.951421634305
 30
0.0
 11
453.5721345374524
 21
1283.951421634305
 31
0.0
 12
450.2388012041191
 22
1263.951421634305
 32
0.0
 13
450.2388012041191
 23
1263.951421634305
 33
0.0
  0
MTEXT
  5
4B3F
330
4ACC
100
AcDbEntity
  8
0
  6
DIMENSION
 62
     3
100
AcDbMText
 10
430.2388012041189
 20
1253.951421634305
 30
0.0
 40
20.0
 41
0.0
 46
0.0
 71
     5
 72
     1
  1
\A1;20
  7
STD
 11
6.123233995736766E-17
 21
1.0
 31
0.0
 73
     1
 44
1.0
  0
POINT
  5
4B40
330
4ACC
100
AcDbEntity
  8
Defpoints
  6
DIMENSION
 62
     0
100
AcDbPoint
 10
640.4983090859749
 20
1243.951421634305
 30
0.0
  0
POINT
  5
4B41
330
4ACC
100
AcDbEntity
  8
Defpoints
  6
DIMENSION
 62
     0
100
AcDbPoint
 10
640.498309085975
 20
1263.951421634305
 30
0.0
  0
POINT
  5
4B42
330
4ACC
100
AcDbEntity
  8
Defpoints
  6
DIMENSION
 62
     0
100
AcDbPoint
 10
450.2388012041191
 20
1263.951421634305
 30
0.0
  0
ENDBLK
  5
4ACE
330
4ACC
100
AcDbEntity
  8
0
 62
     7
100
AcDbBlockEnd
  0
BLOCK
  5
4AFF
330
4AFE
100
AcDbEntity
  8
0
 62
     7
100
AcDbBlockBegin
  2
*D6
 70
     1
 10
0.0
 20
0.0
 30
0.0
  3
*D6
  1

  0
LINE
  5
4B43
330
4AFE
100
AcDbEntity
  8
0
  6
DIMENSION
 62
     3
370
    -2
100
AcDbLine
 10
640.498309085975
 20
1253.951421634305
 30
0.0
 11
640.498309085975
 21
1398.220780839874
 31
0.0
  0
LINE
  5
4B44
330
4AFE
100
AcDbEntity
  8
0
  6
DIMENSION
 62
     3
370
    -2
100
AcDbLine
 10
2040.498309085975
 20
1253.951421634305
 30
0.0
 11
2040.498309085975
 21
1398.220780839874
 31
0.0
  0
LINE
  5
4B45
330
4AFE
100
AcDbEntity
  8
0
  6
DIMENSION
 62
     3
370
    -2
100
AcDbLine
 10
660.498309085975
 20
1388.220780839874
 30
0.0
 11
2020.498309085975
 21
1388.220780839874
 31
0.0
  0
SOLID
  5
4B46
330
4AFE
100
AcDbEntity
  8
0
  6
DIMENSION
 62
     3
100
AcDbTrace
 10
660.498309085975
 20
1391.554114173208
 30
0.0
 11
660.498309085975
 21
1384.887447506541
 31
0.0
 12
640.498309085975
 22
1388.220780839874
 32
0.0
 13
640.498309085975
 23
1388.220780839874
 33
0.0
  0
SOLID
  5
4B47
330
4AFE
100
AcDbEntity
  8
0
  6
DIMENSION
 62
     3
100
AcDbTrace
 10
2020.498309085975
 20
1391.554114173208
 30
0.0
 11
2020.498309085975
 21
1384.887447506541
 31
0.0
 12
2040.498309085975
 22
1388.220780839874
 32
0.0
 13
2040.498309085975
 23
1388.220780839874
 33
0.0
  0
MTEXT
  5
4B48
330
4AFE
100
AcDbEntity
  8
0
  6
DIMENSION
 62
     3
100
AcDbMText
 10
1340.498309085975
 20
1408.220780839874
 30
0.0
 40
20.0
 41
0.0
 46
0.0
 71
     5
 72
     1
  1
\A1;1400
  7
STD
 73
     1
 44
1.0
  0
POINT
  5
4B49
330
4AFE
100
AcDbEntity
  8
Defpoints
  6
DIMENSION
 62
     0
100
AcDbPoint
 10
640.498309085975
 20
1243.951421634305
 30
0.0
  0
POINT
  5
4B4A
330
4AFE
100
AcDbEntity
  8
Defpoints
  6
DIMENSION
 62
     0
100
AcDbPoint
 10
2040.498309085975
 20
1243.951421634305
 30
0.0
  0
POINT
  5
4B4B
330
4AFE
100
AcDbEntity
  8
Defpoints
  6
DIMENSION
 62
     0
100
AcDbPoint
 10
2040.498309085975
 20
1388.220780839874
 30
0.0
  0
ENDBLK
  5
4B00
330
4AFE
100
AcDbEntity
  8
0
 62
     7
100
AcDbBlockEnd
  0
BLOCK
  5
4C49
330
4C48
100
AcDbEntity
  8
0
 62
     7
100
AcDbBlockBegin
  2
*D7
 70
     1
 10
0.0
 20
0.0
 30
0.0
  3
*D7
  1

  0
LINE
  5
4CE8
330
4C48
100
AcDbEntity
  8
0
  6
DIMENSION
 62
     3
370
    -2
100
AcDbLine
 10
3482.58738405785
 20
1799.90901004893
 30
0.0
 11
3651.457894151798
 21
1799.90901004893
 31
0.0
  0
LINE
  5
4CE9
330
4C48
100
AcDbEntity
  8
0
  6
DIMENSION
 62
     3
370
    -2
100
AcDbLine
 10
3557.58738405785
 20
1699.90901004893
 30
0.0
 11
3651.457894151798
 21
1699.90901004893
 31
0.0
  0
LINE
  5
4CEA
330
4C48
100
AcDbEntity
  8
0
  6
DIMENSION
 62
     3
370
    -2
100
AcDbLine
 10
3641.457894151798
 20
1779.90901004893
 30
0.0
 11
3641.457894151798
 21
1719.90901004893
 31
0.0
  0
MTEXT
  5
4CEB
330
4C48
100
AcDbEntity
  8
0
  6
DIMENSION
 62
     3
100
AcDbMText
 10
3618.257011217025
 20
1746.653458105246
 30
0.0
 40
20.0
 41
0.0
 46
0.0
 71
     5
 72
     1
  1
\A1;20
  7
STD
 11
6.123233995736766E-17
 21
1.0
 31
0.0
 73
     1
 44
1.0
  0
SOLID
  5
4CEC
330
4C48
100
AcDbEntity
  8
0
  6
DIMENSION
 62
     3
100
AcDbTrace
 10
3638.124560818464
 20
1779.90901004893
 30
0.0
 11
3644.791227485131
 21
1779.90901004893
 31
0.0
 12
3641.457894151798
 22
1799.90901004893
 32
0.0
 13
3641.457894151798
 23
1799.90901004893
 33
0.0
  0
SOLID
  5
4CED
330
4C48
100
AcDbEntity
  8
0
  6
DIMENSION
 62
     3
100
AcDbTrace
 10
3638.124560818464
 20
1719.90901004893
 30
0.0
 11
3644.791227485131
 21
1719.90901004893
 31
0.0
 12
3641.457894151798
 22
1699.90901004893
 32
0.0
 13
3641.457894151798
 23
1699.90901004893
 33
0.0
  0
POINT
  5
4CEE
330
4C48
100
AcDbEntity
  8
Defpoints
  6
DIMENSION
 62
     0
100
AcDbPoint
 10
3472.58738405785
 20
1799.90901004893
 30
0.0
  0
POINT
  5
4CEF
330
4C48
100
AcDbEntity
  8
Defpoints
  6
DIMENSION
 62
     0
100
AcDbPoint
 10
3547.58738405785
 20
1699.90901004893
 30
0.0
  0
POINT
  5
4CF0
330
4C48
100
AcDbEntity
  8
Defpoints
  6
DIMENSION
 62
     0
100
AcDbPoint
 10
3641.457894151798
 20
1699.90901004893
 30
0.0
  0
ENDBLK
  5
4C4A
330
4C48
100
AcDbEntity
  8
0
 62
     7
100
AcDbBlockEnd
  0
BLOCK
  5
4C60
330
4C5F
100
AcDbEntity
  8
0
 62
     7
100
AcDbBlockBegin
  2
*D8
 70
     1
 10
0.0
 20
0.0
 30
0.0
  3
*D8
  1

  0
LINE
  5
4CF1
330
4C5F
100
AcDbEntity
  8
0
  6
DIMENSION
 62
     3
370
    -2
100
AcDbLine
 10
3567.58738405785
 20
1699.90901004893
 30
0.0
 11
3651.457894151798
 21
1699.90901004893
 31
0.0
  0
LINE
  5
4CF2
330
4C5F
100
AcDbEntity
  8
0
  6
DIMENSION
 62
     3
370
    -2
100
AcDbLine
 10
3350.08738405785
 20
874.9090100489302
 30
0.0
 11
3651.457894151797
 21
874.9090100489302
 31
0.0
  0
LINE
  5
4CF3
330
4C5F
100
AcDbEntity
  8
0
  6
DIMENSION
 62
     3
370
    -2
100
AcDbLine
 10
3641.457894151798
 20
1679.90901004893
 30
0.0
 11
3641.457894151797
 21
894.9090100489302
 31
0.0
  0
MTEXT
  5
4CF4
330
4C5F
100
AcDbEntity
  8
0
  6
DIMENSION
 62
     3
100
AcDbMText
 10
3616.172302900894
 20
1287.409010048931
 30
0.0
 40
20.0
 41
0.0
 46
0.0
 71
     5
 72
     1
  1
\A1;165
  7
STD
 11
6.123233995736766E-17
 21
1.0
 31
0.0
 73
     1
 44
1.0
  0
SOLID
  5
4CF5
330
4C5F
100
AcDbEntity
  8
0
  6
DIMENSION
 62
     3
100
AcDbTrace
 10
3638.124560818464
 20
1679.90901004893
 30
0.0
 11
3644.791227485131
 21
1679.90901004893
 31
0.0
 12
3641.457894151798
 22
1699.90901004893
 32
0.0
 13
3641.457894151798
 23
1699.90901004893
 33
0.0
  0
SOLID
  5
4CF6
330
4C5F
100
AcDbEntity
  8
0
  6
DIMENSION
 62
     3
100
AcDbTrace
 10
3638.124560818464
 20
894.9090100489302
 30
0.0
 11
3644.791227485131
 21
894.9090100489302
 31
0.0
 12
3641.457894151797
 22
874.9090100489302
 32
0.0
 13
3641.457894151797
 23
874.9090100489302
 33
0.0
  0
POINT
  5
4CF7
330
4C5F
100
AcDbEntity
  8
Defpoints
  6
DIMENSION
 62
     0
100
AcDbPoint
 10
3557.58738405785
 20
1699.90901004893
 30
0.0
  0
POINT
  5
4CF8
330
4C5F
100
AcDbEntity
  8
Defpoints
  6
DIMENSION
 62
     0
100
AcDbPoint
 10
3340.08738405785
 20
874.9090100489302
 30
0.0
  0
POINT
  5
4CF9
330
4C5F
100
AcDbEntity
  8
Defpoints
  6
DIMENSION
 62
     0
100
AcDbPoint
 10
3641.457894151797
 20
874.9090100489302
 30
0.0
  0
ENDBLK
  5
4C61
330
4C5F
100
AcDbEntity
  8
0
 62
     7
100
AcDbBlockEnd
  0
BLOCK
  5
4D1B
330
4D1A
100
AcDbEntity
  8
0
 62
     7
100
AcDbBlockBegin
  2
kami
 70
     0
 10
0.0
 20
0.0
 30
0.0
  3
kami
  1

1001
ASKOBJSC
1000
1/2
1001
ASKDWGSC
1040
10.0
  0
HATCH
  5
4D1C
330
4D1A
100
AcDbEntity
  8
0
 62
     7
100
AcDbHatch
 10
0.0
 20
0.0
 30
0.0
210
0.0
220
0.0
230
1.0
  2
SOLID
 70
     1
 71
     0
 91
        4
 92
        7
 72
     1
 73
     1
 93
        2
 10
-296.6990962011851
 20
143.6130484268639
 42
1.0
 10
-18.53304944719821
 20
143.6130484268639
 42
1.0
 97
        0
 92
       22
 72
     1
 73
     1
 93
        2
 10
-24.53304944719912
 20
143.6130484268639
 42
-1.0
 10
-290.6990962011851
 20
143.6130484268639
 42
-1.0
 97
        0
 92
      137
 93
        4
 72
     1
 10
-230.6259610516054
 20
-3.941527314732127
 11
-79.52069789371035
 21
-3.941527314732127
 72
     1
 10
-79.52069789371035
 20
-3.941527314732127
 11
-79.52069789371035
 21
129.2395253168468
 72
     1
 10
-79.52069789371035
 20
129.2395253168468
 11
-230.6259610516054
 21
129.2395253168468
 72
     1
 10
-230.6259610516054
 20
129.2395253168468
 11
-230.6259610516054
 21
-3.941527314732127
 97
        0
 92
      137
 93
        4
 72
     1
 10
-331.7457524725041
 20
51.47930738142071
 11
-59.75975247250517
 21
51.47930738142071
 72
     1
 10
-59.75975247250517
 20
51.47930738142071
 11
-59.75975247250517
 21
300.9766758024735
 72
     1
 10
-59.75975247250517
 20
300.9766758024735
 11
-331.7457524725041
 21
300.9766758024735
 72
     1
 10
-331.7457524725041
 20
300.9766758024735
 11
-331.7457524725041
 21
51.47930738142071
 97
        0
 75
     0
 76
     1
 47
0.5709725132640477
 98
        2
 10
-104.4447271322788
 20
269.547503387793
 10
-104.4447271322788
 20
269.547503387793
1001
ASKOBJSC
1000
1/2
1001
ASKDWGSC
1040
10.0
  0
CIRCLE
  5
4D1D
330
4D1A
100
AcDbEntity
  8
9図面文字
  6
Continuous
 62
     7
100
AcDbCircle
 10
-157.6160728241921
 20
143.6130484268639
 30
0.0
 40
139.0830233769932
1001
ASKOBJSC
1000
1/2
1001
ASKDWGSC
1040
10.0
  0
TEXT
  5
4D1E
330
4D1A
100
AcDbEntity
  8
0
 62
     7
100
AcDbText
 10
-297.8283565562324
 20
80.15415115954897
 30
0.0
 40
143.0
  1
上條
 41
0.7
  7
ｽﾀｲﾙ1
100
AcDbText
1001
ASKOBJSC
1000
1/2
1001
ASKDWGSC
1040
10.0
  0
CIRCLE
  5
4D1F
330
4D1A
100
AcDbEntity
  8
9図面文字
  6
Continuous
 62
     7
100
AcDbCircle
 10
-157.6160728241921
 20
143.6130484268639
 30
0.0
 40
133.0830233769932
1001
ASKOBJSC
1000
1/2
1001
ASKDWGSC
1040
10.0
  0
ENDBLK
  5
4D20
330
4D1A
100
AcDbEntity
  8
0
 62
     7
100
AcDbBlockEnd
1001
ASKOBJSC
1000
1/2
1001
ASKDWGSC
1040
10.0
  0
BLOCK
  5
4D26
330
4D21
100
AcDbEntity
  8
0
 62
     7
100
AcDbBlockBegin
  2
上條判子
 70
     0
 10
0.0
 20
0.0
 30
0.0
  3
上條判子
  1

1001
ASKOBJSC
1000
1/2
1001
ASKDWGSC
1040
10.0
  0
INSERT
  5
4D22
330
4D21
100
AcDbEntity
  8
0
  6
Continuous
 62
     7
100
AcDbBlockReference
  2
kami
 10
116.6203699941564
 20
11.65343418059786
 30
0.0
 41
0.3831077352926513
 42
0.3831077352926513
 43
0.2275
1001
ASKOBJSC
1000
1/2
1001
ASKDWGSC
1040
10.0
  0
INSERT
  5
4D23
330
4D21
100
AcDbEntity
  8
0
  6
Continuous
 62
     7
100
AcDbBlockReference
  2
kami
 10
308.0282275652737
 20
11.65343418059786
 30
0.0
 41
0.3831077352926513
 42
0.3831077352926513
 43
0.2275
1001
ASKOBJSC
1000
1/2
1001
ASKDWGSC
1040
10.0
  0
ENDBLK
  5
4D27
330
4D21
100
AcDbEntity
  8
0
 62
     7
100
AcDbBlockEnd
1001
ASKOBJSC
1000
1/2
1001
ASKDWGSC
1040
10.0
  0
ENDSEC
  0
SECTION
  2
ENTITIES
  0
LWPOLYLINE
  5
56C
330
18
100
AcDbEntity
  8
ASKPAPERSIZE
  6
Continuous
 62
     4
100
AcDbPolyline
 90
        4
 70
     1
 43
0.0
 10
0.0
 20
0.0
 10
0.0
 20
2970.0
 10
4200.0
 20
2970.0
 10
4200.0
 20
0.0
1001
AUTO_SEKKEIYA
1002
{
1000
NONE
1002
}
  0
TEXT
  5
AD9
330
18
100
AcDbEntity
  8
9図面文字
 62
     2
100
AcDbText
 10
3438.047638989523
 20
101.7610137799827
 30
0.0
 40
28.35000000000002
  1
会社
  7
STYLE1
 72
     1
 11
3479.284002625886
 21
115.9360137799827
 31
0.0
100
AcDbText
 73
     2
  0
TEXT
  5
ADA
330
18
100
AcDbEntity
  8
9図面文字
 62
     2
100
AcDbText
 10
3438.047638989523
 20
141.5758928349453
 30
0.0
 40
28.35000000000002
  1
株式
  7
STYLE1
 72
     1
 11
3479.284002625886
 21
155.7508928349453
 31
0.0
100
AcDbText
 73
     2
  0
HATCH
  5
ADB
330
18
100
AcDbEntity
  8
9図面文字
  6
Continuous
 62
     3
100
AcDbHatch
 10
0.0
 20
0.0
 30
0.0
210
0.0
220
0.0
230
1.0
  2
SOLID
 70
     1
 71
     0
 91
        2
 92
        7
 72
     1
 73
     1
 93
        2
 10
3329.520908232925
 20
139.9887067696769
 42
1.0
 10
3428.772923817587
 20
139.9887067696769
 42
1.0
 97
        0
 92
        7
 72
     1
 73
     1
 93
       11
 10
3378.842973293248
 20
184.3486733067126
 42
0.0
 10
3379.146916025255
 20
185.5647145620065
 42
0.0
 10
3379.450858757264
 20
184.3486733067126
 42
-0.412208187950293
 10
3423.507923817588
 20
139.9887067696769
 42
-0.0773445374705047
 10
3421.410094690534
 20
126.5082490082383
 42
0.0
 10
3422.117979894291
 20
124.8012067696769
 42
0.0
 10
3420.827113434832
 20
124.8012067696769
 42
-0.6999368910289298
 10
3337.466718615679
 20
124.8012067696769
 42
0.0
 10
3336.175852156221
 20
124.8012067696769
 42
0.0
 10
3336.883737359976
 20
126.5082490082392
 42
-0.0773445374704989
 10
3334.785908232926
 20
139.9887067696769
 42
-0.4122081879502925
 97
        0
 75
     0
 76
     1
 47
0.6951189523479065
 98
        2
 10
3377.635049380754
 20
184.8505308065897
 10
3377.635049380754
 20
184.8505308065897
  0
HATCH
  5
ADC
330
18
100
AcDbEntity
  8
9図面文字
  6
Continuous
 62
     3
100
AcDbHatch
 10
0.0
 20
0.0
 30
0.0
210
0.0
220
0.0
230
1.0
  2
SOLID
 70
     1
 71
     0
 91
        3
 92
        7
 72
     1
 73
     1
 93
        4
 10
3363.959416025255
 20
124.8012067696769
 42
0.0
 10
3394.334416025255
 20
124.8012067696769
 42
0.0
 10
3379.450858757263
 20
184.3486733067126
 42
0.0034258272556783
 10
3378.842973293247
 20
184.3486733067126
 42
0.0
 97
        0
 92
        7
 72
     1
 73
     1
 93
        4
 10
3363.959416025255
 20
124.8012067696769
 42
0.0
 10
3348.771916025255
 20
155.1762067696769
 42
0.0
 10
3336.883737359976
 20
126.5082490082374
 42
0.0101667687972818
 10
3337.466718615679
 20
124.8012067696769
 42
0.0
 97
        0
 92
        7
 72
     1
 73
     1
 93
        4
 10
3394.334416025255
 20
124.8012067696769
 42
0.0
 10
3420.827113434832
 20
124.8012067696769
 42
0.0101667687972915
 10
3421.410094690534
 20
126.5082490082388
 42
0.0
 10
3409.521916025255
 20
155.1762067696769
 42
0.0
 97
        0
 75
     0
 76
     1
 47
0.6951189523479065
 98
        3
 10
3376.790080151126
 20
164.0178055230564
 10
3350.31428026883
 20
133.0502566563297
 10
3403.547530716594
 20
136.4285349181988
  0
CIRCLE
  5
ADD
330
18
100
AcDbEntity
  8
9図面文字
  6
Continuous
 62
     7
100
AcDbCircle
 10
3379.146916025254
 20
139.9887067696768
 30
0.0
 40
44.36100779233107
  0
CIRCLE
  5
ADE
330
18
100
AcDbEntity
  8
9図面文字
  6
Continuous
 62
     7
100
AcDbCircle
 10
3379.146916025254
 20
139.9887067696768
 30
0.0
 40
49.62600779233107
  0
LINE
  5
ADF
330
18
100
AcDbEntity
  8
9図面文字
  6
Continuous
 62
     7
100
AcDbLine
 10
3409.521916025255
 20
155.1762067696768
 30
0.0
 11
3422.117979894289
 21
124.8012067696768
 31
0.0
  0
LINE
  5
AE0
330
18
100
AcDbEntity
  8
9図面文字
  6
Continuous
 62
     7
100
AcDbLine
 10
3394.334416025255
 20
124.8012067696768
 30
0.0
 11
3409.521916025255
 21
155.1762067696768
 31
0.0
  0
LINE
  5
AE1
330
18
100
AcDbEntity
  8
9図面文字
  6
Continuous
 62
     7
100
AcDbLine
 10
3379.146916025255
 20
185.5647145620082
 30
0.0
 11
3394.334416025255
 21
124.8012067696768
 31
0.0
  0
LINE
  5
AE2
330
18
100
AcDbEntity
  8
9図面文字
  6
Continuous
 62
     7
100
AcDbLine
 10
3363.959416025255
 20
124.8012067696768
 30
0.0
 11
3379.146916025255
 21
185.5647145620082
 31
0.0
  0
LINE
  5
AE3
330
18
100
AcDbEntity
  8
9図面文字
  6
Continuous
 62
     7
100
AcDbLine
 10
3348.771916025255
 20
155.1762067696768
 30
0.0
 11
3363.959416025255
 21
124.8012067696768
 31
0.0
  0
LINE
  5
AE4
330
18
100
AcDbEntity
  8
9図面文字
  6
Continuous
 62
     7
100
AcDbLine
 10
3336.175852156221
 20
124.8012067696768
 30
0.0
 11
3348.771916025255
 21
155.1762067696768
 31
0.0
  0
LINE
  5
AE5
330
18
100
AcDbEntity
  8
9図面文字
  6
Continuous
 62
     7
100
AcDbLine
 10
3336.175852156221
 20
124.8012067696768
 30
0.0
 11
3422.117979894289
 21
124.8012067696768
 31
0.0
  0
TEXT
  5
AE6
330
18
100
AcDbEntity
  8
9図面文字
100
AcDbText
 10
1928.118596407701
 20
101.7753478165525
 30
0.0
 40
30.0
  1
当
  7
STYLE1
 72
     1
 11
1949.936778225883
 21
116.7753478165525
 31
0.0
100
AcDbText
 73
     2
  0
TEXT
  5
AE7
330
18
100
AcDbEntity
  8
9図面文字
100
AcDbText
 10
1928.118596407701
 20
152.907383817251
 30
0.0
 40
30.0
  1
担
  7
STYLE1
 72
     1
 11
1949.936778225883
 21
167.907383817251
 31
0.0
100
AcDbText
 73
     2
  0
TEXT
  5
AE8
330
18
100
AcDbEntity
  8
9図面文字
100
AcDbText
 10
2110.870318662885
 20
101.7753478165528
 30
0.0
 40
30.0
  1
認
  7
STYLE1
 72
     1
 11
2132.688500481067
 21
116.7753478165528
 31
0.0
100
AcDbText
 73
     2
  0
TEXT
  5
AE9
330
18
100
AcDbEntity
  8
9図面文字
100
AcDbText
 10
2110.870318662885
 20
152.907383817251
 30
0.0
 40
30.0
  1
承
  7
STYLE1
 72
     1
 11
2132.688500481067
 21
167.907383817251
 31
0.0
100
AcDbText
 73
     2
  0
LINE
  5
B06
330
18
100
AcDbEntity
  8
9図面枠
  6
Continuous
 62
     4
100
AcDbLine
 10
186.0
 20
74.25
 30
0.0
 11
186.0
 21
334.2500000000001
 31
0.0
  0
TEXT
  5
B07
330
18
100
AcDbEntity
  8
9図面文字
100
AcDbText
 10
124.5632568796875
 20
117.206782147847
 30
0.0
 40
30.0
  1
様
  7
STYLE1
 72
     1
 11
146.3814386978693
 21
132.206782147847
 31
0.0
100
AcDbText
 73
     2
  0
TEXT
  5
B08
330
18
100
AcDbEntity
  8
9図面文字
100
AcDbText
 10
123.9859618323828
 20
216.7005123316744
 30
0.0
 40
30.0
  1
記
  7
STYLE1
 72
     1
 11
145.8041436505646
 21
231.7005123316744
 31
0.0
100
AcDbText
 73
     2
  0
TEXT
  5
B09
330
18
100
AcDbEntity
  8
9図面文字
100
AcDbText
 10
124.5632568796875
 20
167.8850762080988
 30
0.0
 40
30.0
  1
仕
  7
STYLE1
 72
     1
 11
146.3814386978693
 21
182.8850762080988
 31
0.0
100
AcDbText
 73
     2
  0
TEXT
  5
B0A
330
18
100
AcDbEntity
  8
9図面文字
100
AcDbText
 10
123.6818181818182
 20
267.4795649035996
 30
0.0
 40
30.0
  1
特
  7
STYLE1
 72
     1
 11
145.5
 21
282.4795649035996
 31
0.0
100
AcDbText
 73
     2
  0
LINE
  5
B0C
330
18
100
AcDbEntity
  8
9図面枠
  6
Continuous
 62
     4
100
AcDbLine
 10
1916.002261313723
 20
204.25
 30
0.0
 11
4095.0
 21
204.25
 31
0.0
  0
TEXT
  5
B0D
330
18
100
AcDbEntity
  8
9図面文字
 62
     2
100
AcDbText
 10
3524.74454997319
 20
110.9018753110516
 30
0.0
 40
56.70000000000003
  1
丸山製作所
 41
1.3
  7
STYLE3
 72
     1
 11
3792.780913609554
 21
139.2518753110517
 31
0.0
100
AcDbText
 73
     2
  0
LINE
  5
B10
330
18
100
AcDbEntity
  8
9図面枠
  6
Continuous
 62
     4
100
AcDbLine
 10
1916.002261313723
 20
74.25
 30
0.0
 11
1916.002261313723
 21
236.25
 31
0.0
  0
TEXT
  5
B18
330
18
100
AcDbEntity
  8
9図面文字
100
AcDbText
 10
2913.428974447454
 20
101.7753478165525
 30
0.0
 40
30.0
  1
尺
  7
STYLE1
 72
     1
 11
2935.247156265636
 21
116.7753478165525
 31
0.0
100
AcDbText
 73
     2
  0
TEXT
  5
B19
330
18
100
AcDbEntity
  8
9図面文字
100
AcDbText
 10
2913.428974447454
 20
152.907383817251
 30
0.0
 40
30.0
  1
縮
  7
STYLE1
 72
     1
 11
2935.247156265636
 21
167.907383817251
 31
0.0
100
AcDbText
 73
     2
  0
LINE
  5
B1C
330
18
100
AcDbEntity
  8
9図面枠
  6
Continuous
 62
     4
100
AcDbLine
 10
2294.747156265637
 20
74.25
 30
0.0
 11
2294.747156265637
 21
204.25
 31
0.0
  0
LINE
  5
B1D
330
18
100
AcDbEntity
  8
9図面枠
  6
Continuous
 62
     4
100
AcDbLine
 10
2164.747156265636
 20
74.25
 30
0.0
 11
2164.747156265636
 21
204.25
 31
0.0
  0
LINE
  5
B1E
330
18
100
AcDbEntity
  8
9図面枠
  6
Continuous
 62
     4
100
AcDbLine
 10
2099.747156265636
 20
74.25
 30
0.0
 11
2099.747156265636
 21
204.25
 31
0.0
  0
LINE
  5
B1F
330
18
100
AcDbEntity
  8
9図面枠
  6
Continuous
 62
     4
100
AcDbLine
 10
1981.002261313723
 20
74.25
 30
0.0
 11
1981.002261313723
 21
204.25
 31
0.0
  0
LINE
  5
B21
330
18
100
AcDbEntity
  8
9図面枠
  6
Continuous
 62
     4
100
AcDbLine
 10
3267.347156265636
 20
74.25
 30
0.0
 11
3267.347156265636
 21
204.25
 31
0.0
  0
TEXT
  5
B22
330
18
100
AcDbEntity
  8
9図面文字
100
AcDbText
 10
3063.365338083819
 20
115.0755372387916
 30
0.0
 40
40.0
  1
図示
  7
STYLE1
 72
     1
 11
3121.547156265637
 21
135.0755372387916
 31
0.0
100
AcDbText
 73
     2
  0
TEXT
  5
C69
330
18
100
AcDbEntity
  8
9図面文字
 62
     7
100
AcDbText
 10
2543.263632658911
 20
171.9266855040712
 30
0.0
 40
25.0
  1
file name：
  7
STYLE1
 11
2543.263632658911
 21
184.4266855040712
 31
0.0
100
AcDbText
 73
     2
  0
LINE
  5
CFE
330
18
100
AcDbEntity
  8
非表示破線
  6
HIDS
 62
     5
100
AcDbLine
 10
186.0
 20
282.25
 30
0.0
 11
1916.002261313723
 21
282.2499999999999
 31
0.0
  0
TEXT
  5
D07
330
18
100
AcDbEntity
  8
9図面文字
 62
     7
100
AcDbText
 10
2564.859991538453
 20
103.6351442471062
 30
0.0
 40
35.0
  1
GM
  7
STYLE1
 72
     4
 11
2601.053173356635
 21
121.0357124289244
 31
0.0
100
AcDbText
  0
LINE
  5
D87
330
18
100
AcDbEntity
  8
9図面枠
  6
Continuous
 62
     4
100
AcDbLine
 10
105.0
 20
2895.75
 30
0.0
 11
4095.0
 21
2895.75
 31
0.0
  0
LINE
  5
D88
330
18
100
AcDbEntity
  8
9図面枠
  6
Continuous
 62
     4
100
AcDbLine
 10
4095.0
 20
2895.75
 30
0.0
 11
4095.0
 21
74.25
 31
0.0
  0
LINE
  5
D89
330
18
100
AcDbEntity
  8
9図面枠
  6
Continuous
 62
     4
100
AcDbLine
 10
4095.0
 20
74.25
 30
0.0
 11
105.0
 21
74.25
 31
0.0
  0
LINE
  5
D8B
330
18
100
AcDbEntity
  8
9図面枠
  6
Continuous
 62
     4
100
AcDbLine
 10
105.0
 20
2895.75
 30
0.0
 11
105.0
 21
74.25
 31
0.0
  0
LINE
  5
DF7
330
18
100
AcDbEntity
  8
9図面枠
  6
Continuous
 62
     4
100
AcDbLine
 10
2294.747156265636
 20
164.25
 30
0.0
 11
2894.747156265636
 21
164.25
 31
0.0
  0
TEXT
  5
E45
330
18
100
AcDbEntity
  8
9図面文字
  6
Continuous
 62
     7
100
AcDbText
 10
1481.850933379324
 20
-187.439069002804
 30
0.0
 40
27.33750000000004
  1
    /  /  
  7
STYLE1
100
AcDbText
  0
LINE
  5
E46
330
18
100
AcDbEntity
  8
9図面枠
  6
Continuous
 62
     7
100
AcDbLine
 10
1660.296933428177
 20
-140.4618930181264
 30
0.0
 11
1660.296933428177
 21
-400.4618930181263
 31
0.0
  0
LINE
  5
E47
330
18
100
AcDbEntity
  8
非表示破線
  6
HIDS
 62
     5
100
AcDbLine
 10
1431.901583700579
 20
-140.4618930181264
 30
0.0
 11
1431.901583700579
 21
-400.4618930181263
 31
0.0
  0
LINE
  5
E48
330
18
100
AcDbEntity
  8
9図面枠
  6
Continuous
 62
     7
100
AcDbLine
 10
188.6922831557749
 20
-140.4618930181264
 30
0.0
 11
188.6922831557749
 21
-400.4618930181264
 31
0.0
  0
TEXT
  5
E49
330
18
100
AcDbEntity
  8
9図面文字
100
AcDbText
 10
207.2751731071332
 20
-194.4871480189998
 30
0.0
 40
30.00000000000004
  1
変
  7
STYLE1
 72
     1
 11
229.093354925315
 21
-179.4871480189997
 31
0.0
100
AcDbText
 73
     2
  0
TEXT
  5
E4A
330
18
100
AcDbEntity
  8
9図面文字
100
AcDbText
 10
207.2751731071332
 20
-315.0691469073001
 30
0.0
 40
30.00000000000004
  1
履
  7
STYLE1
 72
     1
 11
229.093354925315
 21
-300.0691469073001
 31
0.0
100
AcDbText
 73
     2
  0
TEXT
  5
E4B
330
18
100
AcDbEntity
  8
9図面文字
100
AcDbText
 10
207.2751731071332
 20
-254.1652686349483
 30
0.0
 40
30.00000000000004
  1
更
  7
STYLE1
 72
     1
 11
229.093354925315
 21
-239.1652686349482
 31
0.0
100
AcDbText
 73
     2
  0
TEXT
  5
E4C
330
18
100
AcDbEntity
  8
9図面文字
100
AcDbText
 10
207.2751731071332
 20
-377.1987669541452
 30
0.0
 40
30.00000000000004
  1
歴
  7
STYLE1
 72
     1
 11
229.093354925315
 21
-362.1987669541452
 31
0.0
100
AcDbText
 73
     2
  0
TEXT
  5
E4E
330
18
100
AcDbEntity
  8
9図面文字
  6
Continuous
 62
     7
100
AcDbText
 10
279.4017410181386
 20
-187.2145226579185
 30
0.0
 40
27.33750000000004
  1
１：
  7
STYLE1
100
AcDbText
  0
TEXT
  5
E4F
330
18
100
AcDbEntity
  8
9図面文字
  6
Continuous
 62
     7
100
AcDbText
 10
279.4017410181386
 20
-251.556144334925
 30
0.0
 40
27.33750000000004
  1
２：
  7
STYLE1
100
AcDbText
  0
TEXT
  5
E50
330
18
100
AcDbEntity
  8
9図面文字
  6
Continuous
 62
     7
100
AcDbText
 10
279.4017410181386
 20
-318.6508232050764
 30
0.0
 40
27.33750000000004
  1
３：
  7
STYLE1
100
AcDbText
  0
TEXT
  5
E51
330
18
100
AcDbEntity
  8
9図面文字
  6
Continuous
 62
     7
100
AcDbText
 10
279.4017410181386
 20
-382.7099916150007
 30
0.0
 40
27.33750000000004
  1
４：
  7
STYLE1
100
AcDbText
  0
LINE
  5
E52
330
18
100
AcDbEntity
  8
非表示破線
  6
HIDS
 62
     5
 48
2.0
100
AcDbLine
 10
269.6922831557749
 20
-270.4618930181264
 30
0.0
 11
1660.296933428177
 21
-270.4618930181264
 31
0.0
  0
LINE
  5
E53
330
18
100
AcDbEntity
  8
9図面枠
  6
Continuous
 62
     7
100
AcDbLine
 10
188.6922831557749
 20
-140.4618930181264
 30
0.0
 11
1660.296933428177
 21
-140.4618930181264
 31
0.0
  0
LINE
  5
E54
330
18
100
AcDbEntity
  8
非表示破線
  6
HIDS
 62
     5
 48
2.0
100
AcDbLine
 10
269.6922831557749
 20
-205.4618930181264
 30
0.0
 11
1660.296933428177
 21
-205.4618930181264
 31
0.0
  0
LINE
  5
E56
330
18
100
AcDbEntity
  8
非表示破線
  6
HIDS
 62
     5
 48
2.0
100
AcDbLine
 10
269.6922831557749
 20
-335.4618930181264
 30
0.0
 11
1660.296933428177
 21
-335.4618930181264
 31
0.0
  0
TEXT
  5
E81
330
18
100
AcDbEntity
  8
9図面文字
  6
Continuous
 62
     7
100
AcDbText
 10
193.0462324986311
 20
293.3444379732957
 30
0.0
 40
27.33750000000004
  1
・本製品はゴムチップ一体成形品（リサイクルゴム）とする。
  7
STYLE1
100
AcDbText
  0
LINE
  5
E84
330
18
100
AcDbEntity
  8
非表示破線
  6
HIDS
 62
     5
100
AcDbLine
 10
186.0
 20
230.25
 30
0.0
 11
1916.002261313723
 21
230.25
 31
0.0
  0
LINE
  5
E85
330
18
100
AcDbEntity
  8
非表示破線
  6
HIDS
 62
     5
100
AcDbLine
 10
186.0
 20
178.25
 30
0.0
 11
1916.002261313723
 21
178.25
 31
0.0
  0
LINE
  5
E88
330
18
100
AcDbEntity
  8
非表示破線
  6
HIDS
 62
     5
100
AcDbLine
 10
186.0
 20
126.25
 30
0.0
 11
1916.002261313723
 21
126.25
 31
0.0
  0
LINE
  5
E8C
330
18
100
AcDbEntity
  8
9図面枠
  6
Continuous
 62
     7
100
AcDbLine
 10
1660.296933428177
 20
-400.4618930181263
 30
0.0
 11
188.6922831557749
 21
-400.4618930181264
 31
0.0
  0
TEXT
  5
E96
330
18
100
AcDbEntity
  8
9図面文字
  6
Continuous
 62
     7
100
AcDbText
 10
1481.850933379324
 20
-252.439069002804
 30
0.0
 40
27.33750000000004
  1
    /  /  
  7
STYLE1
100
AcDbText
  0
TEXT
  5
E97
330
18
100
AcDbEntity
  8
9図面文字
  6
Continuous
 62
     7
100
AcDbText
 10
1481.850933379324
 20
-317.439069002804
 30
0.0
 40
27.33750000000004
  1
    /  /  
  7
STYLE1
100
AcDbText
  0
TEXT
  5
E98
330
18
100
AcDbEntity
  8
9図面文字
  6
Continuous
 62
     7
100
AcDbText
 10
1481.850933379324
 20
-382.4390690028039
 30
0.0
 40
27.33750000000004
  1
    /  /  
  7
STYLE1
100
AcDbText
  0
LINE
  5
EAE
330
18
100
AcDbEntity
  8
9図面枠
  6
Continuous
 62
     7
100
AcDbLine
 10
269.6922831557749
 20
-400.4618930181264
 30
0.0
 11
269.6922831557749
 21
-140.4618930181264
 31
0.0
  0
TEXT
  5
144F
330
18
100
AcDbEntity
  8
9図面文字
 62
     7
100
AcDbText
 10
2122.02933863222
 20
253.9606096660629
 30
0.0
 40
34.99999999999999
  1
標準図
  7
STYLE1
 72
     4
 11
2198.392974995856
 21
271.957768756972
 31
0.0
100
AcDbText
  0
TEXT
  5
1450
330
18
100
AcDbEntity
  8
9図面文字
100
AcDbText
 10
1928.118596407702
 20
230.3647676345026
 30
0.0
 40
29.99999999999999
  1
別
  7
STYLE1
 72
     1
 11
1949.936778225884
 21
245.3647676345026
 31
0.0
100
AcDbText
 73
     2
  0
TEXT
  5
1451
330
18
100
AcDbEntity
  8
9図面文字
100
AcDbText
 10
1928.118596407702
 20
283.0154632676069
 30
0.0
 40
29.99999999999999
  1
類
  7
STYLE1
 72
     1
 11
1949.936778225884
 21
298.0154632676069
 31
0.0
100
AcDbText
 73
     2
  0
LINE
  5
1452
330
18
100
AcDbEntity
  8
9図面枠
  6
Continuous
 62
     4
100
AcDbLine
 10
1981.002261313725
 20
204.25
 30
0.0
 11
1981.002261313725
 21
334.2499999999999
 31
0.0
  0
LINE
  5
1453
330
18
100
AcDbEntity
  8
9図面枠
  6
Continuous
 62
     4
100
AcDbLine
 10
2460.620180703402
 20
204.25
 30
0.0
 11
2460.620180703402
 21
334.2499999999999
 31
0.0
  0
LINE
  5
1454
330
18
100
AcDbEntity
  8
9図面枠
  6
Continuous
 62
     4
100
AcDbLine
 10
2395.620180703402
 20
204.25
 30
0.0
 11
2395.620180703402
 21
334.2499999999999
 31
0.0
  0
TEXT
  5
1455
330
18
100
AcDbEntity
  8
9図面文字
100
AcDbText
 10
2407.736515797379
 20
283.0154632676069
 30
0.0
 40
29.99999999999999
  1
図
  7
STYLE1
 72
     1
 11
2429.554697615561
 21
298.0154632676069
 31
0.0
100
AcDbText
 73
     2
  0
TEXT
  5
1456
330
18
100
AcDbEntity
  8
9図面文字
100
AcDbText
 10
2407.736515797379
 20
230.3647676345026
 30
0.0
 40
29.99999999999999
  1
種
  7
STYLE1
 72
     1
 11
2429.554697615561
 21
245.3647676345026
 31
0.0
100
AcDbText
 73
     2
  0
LINE
  5
1457
330
18
100
AcDbEntity
  8
9図面枠
  6
Continuous
 62
     4
100
AcDbLine
 10
1981.002261313725
 20
204.25
 30
0.0
 11
1981.002261313725
 21
334.2499999999999
 31
0.0
  0
TEXT
  5
1458
330
18
100
AcDbEntity
  8
9図面文字
 62
     7
100
AcDbText
 10
2568.425778390402
 20
254.0600414842447
 30
0.0
 40
34.99999999999999
  1
承諾願図
  7
STYLE1
 72
     4
 11
2670.243960208584
 21
271.957768756972
 31
0.0
100
AcDbText
  0
TEXT
  5
145A
330
18
100
AcDbEntity
  8
9図面文字
100
AcDbText
 10
3303.895656459976
 20
235.1853676243004
 30
0.0
 40
48.60000000000003
  1
ゴムチップマット
  7
STYLE1
 72
     4
 11
3539.992247369067
 21
262.7990039879368
 31
0.0
100
AcDbText
  0
LINE
  5
145B
330
18
100
AcDbEntity
  8
9図面枠
  6
Continuous
 62
     4
100
AcDbLine
 10
2975.747156265636
 20
74.25
 30
0.0
 11
2975.747156265636
 21
334.2500000000001
 31
0.0
  0
LINE
  5
145C
330
18
100
AcDbEntity
  8
9図面枠
  6
Continuous
 62
     4
100
AcDbLine
 10
2894.747156265637
 20
74.25
 30
0.0
 11
2894.747156265637
 21
334.2500000000001
 31
0.0
  0
TEXT
  5
145D
330
18
100
AcDbEntity
  8
9図面文字
100
AcDbText
 10
2913.428974447454
 20
253.9237698710328
 30
0.0
 40
30.0
  1
面
  7
STYLE1
 72
     1
 11
2935.247156265636
 21
268.9237698710328
 31
0.0
100
AcDbText
 73
     2
  0
TEXT
  5
145E
330
18
100
AcDbEntity
  8
9図面文字
100
AcDbText
 10
2912.13090238156
 20
214.5756929603872
 30
0.0
 40
30.0
  1
名
  7
STYLE1
 72
     1
 11
2933.949084199742
 21
229.5756929603872
 31
0.0
100
AcDbText
 73
     2
  0
TEXT
  5
145F
330
18
100
AcDbEntity
  8
9図面文字
100
AcDbText
 10
2913.428974447454
 20
294.7697253021111
 30
0.0
 40
30.0
  1
図
  7
STYLE1
 72
     1
 11
2935.247156265636
 21
309.7697253021111
 31
0.0
100
AcDbText
 73
     2
  0
LINE
  5
1460
330
18
100
AcDbEntity
  8
9図面枠
  6
Continuous
 62
     4
100
AcDbLine
 10
1916.002261313723
 20
74.25
 30
0.0
 11
1916.002261313723
 21
334.2500000000001
 31
0.0
  0
LINE
  5
1461
330
18
100
AcDbEntity
  8
9図面枠
  6
Continuous
 62
     4
100
AcDbLine
 10
105.0
 20
334.2500000000001
 30
0.0
 11
4095.0
 21
334.2500000000001
 31
0.0
  0
POINT
  5
2235
330
18
100
AcDbEntity
  8
0
  6
Continuous
 62
     7
 60
     1
100
AcDbPoint
 10
0.0
 20
0.0
 30
0.0
  0
LINE
  5
4A74
330
18
100
AcDbEntity
  8
0
  6
Continuous
 62
     7
100
AcDbLine
 10
640.498309085975
 20
2347.57609936243
 30
0.0
 11
640.498309085975
 21
1747.57609936243
 31
0.0
  0
LINE
  5
4A77
330
18
100
AcDbEntity
  8
0
  6
Continuous
 62
     7
100
AcDbLine
 10
640.498309085975
 20
1747.57609936243
 30
0.0
 11
2040.498309085975
 21
1747.57609936243
 31
0.0
  0
LINE
  5
4A78
330
18
100
AcDbEntity
  8
0
  6
Continuous
 62
     7
100
AcDbLine
 10
2040.498309085975
 20
1747.57609936243
 30
0.0
 11
2040.498309085975
 21
2347.57609936243
 31
0.0
  0
LINE
  5
4A79
330
18
100
AcDbEntity
  8
0
  6
Continuous
 62
     7
100
AcDbLine
 10
2040.498309085975
 20
2347.57609936243
 30
0.0
 11
640.498309085975
 21
2347.57609936243
 31
0.0
  0
LINE
  5
4A7A
330
18
100
AcDbEntity
  8
0
  6
Continuous
 62
     7
100
AcDbLine
 10
655.498309085975
 20
2332.57609936243
 30
0.0
 11
655.498309085975
 21
1762.57609936243
 31
0.0
  0
LINE
  5
4A7B
330
18
100
AcDbEntity
  8
0
  6
Continuous
 62
     7
100
AcDbLine
 10
655.498309085975
 20
1762.57609936243
 30
0.0
 11
2025.498309085975
 21
1762.57609936243
 31
0.0
  0
LINE
  5
4A7C
330
18
100
AcDbEntity
  8
0
  6
Continuous
 62
     7
100
AcDbLine
 10
2025.498309085975
 20
1762.57609936243
 30
0.0
 11
2025.498309085975
 21
2332.57609936243
 31
0.0
  0
LINE
  5
4A7D
330
18
100
AcDbEntity
  8
0
  6
Continuous
 62
     7
100
AcDbLine
 10
2025.498309085975
 20
2332.57609936243
 30
0.0
 11
655.498309085975
 21
2332.57609936243
 31
0.0
  0
LINE
  5
4A7E
330
18
100
AcDbEntity
  8
0
  6
Continuous
 62
     7
100
AcDbLine
 10
640.498309085975
 20
2347.57609936243
 30
0.0
 11
655.498309085975
 21
2332.57609936243
 31
0.0
  0
LINE
  5
4A80
330
18
100
AcDbEntity
  8
0
  6
Continuous
 62
     7
100
AcDbLine
 10
640.498309085975
 20
1747.57609936243
 30
0.0
 11
655.498309085975
 21
1762.57609936243
 31
0.0
  0
LINE
  5
4A81
330
18
100
AcDbEntity
  8
0
  6
Continuous
 62
     7
100
AcDbLine
 10
2025.498309085975
 20
1762.57609936243
 30
0.0
 11
2040.498309085975
 21
1747.57609936243
 31
0.0
  0
LINE
  5
4A82
330
18
100
AcDbEntity
  8
0
  6
Continuous
 62
     7
100
AcDbLine
 10
2040.498309085975
 20
2347.57609936243
 30
0.0
 11
2025.498309085975
 21
2332.57609936243
 31
0.0
  0
DIMENSION
  5
4A86
330
18
100
AcDbEntity
  8
0
  6
DIMENSION
 62
     7
100
AcDbDimension
280
     0
  2
*D1
 10
2040.498309085976
 20
2537.40796801416
 30
0.0
 11
1340.498309085975
 21
2557.40796801416
 31
0.0
 70
    32
  1
<>
 71
     5
 42
1400.0
 73
     0
 74
     0
 75
     0
  3
ASKSTANDARD
100
AcDbAlignedDimension
 13
640.498309085975
 23
2347.57609936243
 33
0.0
 14
2040.498309085976
 24
2347.57609936243
 34
0.0
100
AcDbRotatedDimension
1001
ACAD
1000
DSTYLE
1002
{
1070
     3
1000
<>
1070
    40
1040
10.0
1070
    41
1040
2.0
1070
    77
1070
     2
1002
}
  0
DIMENSION
  5
4A95
330
18
100
AcDbEntity
  8
0
  6
DIMENSION
 62
     7
100
AcDbDimension
280
     0
  2
*D2
 10
655.498309085975
 20
2492.439598993909
 30
0.0
 11
1340.498309085975
 21
2512.439598993909
 31
0.0
 70
    32
  1
<>
 71
     5
 42
1370.0
 73
     0
 74
     0
 75
     0
  3
ASKSTANDARD
100
AcDbAlignedDimension
 13
2025.498309085975
 23
2332.57609936243
 33
0.0
 14
655.498309085975
 24
2332.57609936243
 34
0.0
100
AcDbRotatedDimension
1001
ACAD
1000
DSTYLE
1002
{
1070
     3
1000
<>
1070
    40
1040
10.0
1070
    41
1040
2.0
1070
    77
1070
     2
1002
}
  0
DIMENSION
  5
4AA3
330
18
100
AcDbEntity
  8
0
  6
DIMENSION
 62
     7
100
AcDbDimension
280
     0
  2
*D3
 10
507.3490301981328
 20
1762.57609936243
 30
0.0
 11
487.3490301981325
 21
2047.57609936243
 31
0.0
 70
    32
  1
<>
 71
     5
 42
569.9999999999998
 73
     0
 74
     0
 75
     0
  3
ASKSTANDARD
100
AcDbAlignedDimension
 13
655.498309085975
 23
2332.57609936243
 33
0.0
 14
655.498309085975
 24
1762.57609936243
 34
0.0
 50
90.0
100
AcDbRotatedDimension
1001
ACAD
1000
DSTYLE
1002
{
1070
     3
1000
<>
1070
    40
1040
10.0
1070
    41
1040
2.0
1070
    77
1070
     2
1002
}
  0
DIMENSION
  5
4AB1
330
18
100
AcDbEntity
  8
0
  6
DIMENSION
 62
     7
100
AcDbDimension
280
     0
  2
*D4
 10
450.2388012041192
 20
1747.57609936243
 30
0.0
 11
430.2388012041189
 21
2047.57609936243
 31
0.0
 70
    32
  1
<>
 71
     5
 42
599.9999999999998
 73
     0
 74
     0
 75
     0
  3
ASKSTANDARD
100
AcDbAlignedDimension
 13
640.498309085975
 23
2347.57609936243
 33
0.0
 14
640.498309085975
 24
1747.57609936243
 34
0.0
 50
90.0
100
AcDbRotatedDimension
1001
ACAD
1000
DSTYLE
1002
{
1070
     3
1000
<>
1070
    40
1040
10.0
1070
    41
1040
2.0
1070
    77
1070
     2
1002
}
  0
LINE
  5
4AC1
330
18
100
AcDbEntity
  8
0
  6
Continuous
 62
     7
100
AcDbLine
 10
640.498309085975
 20
1243.951421634305
 30
0.0
 11
2040.498309085975
 21
1243.951421634305
 31
0.0
  0
LINE
  5
4AC2
330
18
100
AcDbEntity
  8
0
  6
Continuous
 62
     7
100
AcDbLine
 10
655.498309085975
 20
1263.951421634305
 30
0.0
 11
2025.498309085975
 21
1263.951421634305
 31
0.0
  0
LINE
  5
4AC7
330
18
100
AcDbEntity
  8
0
  6
Continuous
 62
     7
100
AcDbLine
 10
2025.498309085975
 20
1263.951421634305
 30
0.0
 11
2040.498309085975
 21
1243.951421634305
 31
0.0
  0
LINE
  5
4AC8
330
18
100
AcDbEntity
  8
0
  6
Continuous
 62
     7
100
AcDbLine
 10
655.498309085975
 20
1263.951421634305
 30
0.0
 11
640.498309085975
 21
1243.951421634305
 31
0.0
  0
DIMENSION
  5
4ACB
330
18
100
AcDbEntity
  8
0
  6
DIMENSION
 62
     7
100
AcDbDimension
280
     0
  2
*D5
 10
450.2388012041191
 20
1263.951421634305
 30
0.0
 11
430.2388012041189
 21
1253.951421634305
 31
0.0
 70
    32
  1
<>
 71
     5
 42
20.0
 73
     0
 74
     0
 75
     0
  3
ASKSTANDARD
100
AcDbAlignedDimension
 13
640.4983090859749
 23
1243.951421634305
 33
0.0
 14
640.498309085975
 24
1263.951421634305
 34
0.0
 50
90.0
100
AcDbRotatedDimension
1001
ACAD
1000
DSTYLE
1002
{
1070
     3
1000
<>
1070
    40
1040
10.0
1070
    41
1040
2.0
1070
    77
1070
     2
1002
}
  0
LINE
  5
4AE6
330
18
100
AcDbEntity
  8
0
  6
HIDDEN
 62
     5
100
AcDbLine
 10
1092.998309085975
 20
1263.951421634305
 30
0.0
 11
1092.998309085975
 21
1258.951421634305
 31
0.0
  0
LINE
  5
4AE7
330
18
100
AcDbEntity
  8
0
  6
HIDDEN
 62
     5
100
AcDbLine
 10
1092.998309085975
 20
1258.951421634305
 30
0.0
 11
1137.998309085975
 21
1258.951421634305
 31
0.0
  0
LINE
  5
4AE8
330
18
100
AcDbEntity
  8
0
  6
HIDDEN
 62
     5
100
AcDbLine
 10
1137.998309085975
 20
1258.951421634305
 30
0.0
 11
1137.998309085975
 21
1263.951421634305
 31
0.0
  0
LINE
  5
4AEA
330
18
100
AcDbEntity
  8
0
  6
HIDDEN
 62
     5
100
AcDbLine
 10
1542.998309085975
 20
1263.951421634305
 30
0.0
 11
1542.998309085975
 21
1258.951421634305
 31
0.0
  0
LINE
  5
4AEB
330
18
100
AcDbEntity
  8
0
  6
HIDDEN
 62
     5
100
AcDbLine
 10
1542.998309085975
 20
1258.951421634305
 30
0.0
 11
1587.998309085975
 21
1258.951421634305
 31
0.0
  0
LINE
  5
4AEC
330
18
100
AcDbEntity
  8
0
  6
HIDDEN
 62
     5
100
AcDbLine
 10
1587.998309085975
 20
1258.951421634305
 30
0.0
 11
1587.998309085975
 21
1263.951421634305
 31
0.0
  0
LINE
  5
4AED
330
18
100
AcDbEntity
  8
0
  6
HIDDEN
 62
     5
100
AcDbLine
 10
670.4983090859749
 20
1263.951421634305
 30
0.0
 11
670.4983090859749
 21
1258.951421634305
 31
0.0
  0
LINE
  5
4AEE
330
18
100
AcDbEntity
  8
0
  6
HIDDEN
 62
     5
100
AcDbLine
 10
670.4983090859749
 20
1258.951421634305
 30
0.0
 11
715.4983090859749
 21
1258.951421634305
 31
0.0
  0
LINE
  5
4AEF
330
18
100
AcDbEntity
  8
0
  6
HIDDEN
 62
     5
100
AcDbLine
 10
715.4983090859749
 20
1258.951421634305
 30
0.0
 11
715.4983090859749
 21
1263.951421634305
 31
0.0
  0
LINE
  5
4AF8
330
18
100
AcDbEntity
  8
0
  6
HIDDEN
 62
     5
100
AcDbLine
 10
2010.498309085975
 20
1263.951421634305
 30
0.0
 11
2010.498309085975
 21
1258.951421634305
 31
0.0
  0
LINE
  5
4AF9
330
18
100
AcDbEntity
  8
0
  6
HIDDEN
 62
     5
100
AcDbLine
 10
2010.498309085975
 20
1258.951421634305
 30
0.0
 11
1965.498309085975
 21
1258.951421634305
 31
0.0
  0
LINE
  5
4AFA
330
18
100
AcDbEntity
  8
0
  6
HIDDEN
 62
     5
100
AcDbLine
 10
1965.498309085975
 20
1258.951421634305
 30
0.0
 11
1965.498309085975
 21
1263.951421634305
 31
0.0
  0
DIMENSION
  5
4AFD
330
18
100
AcDbEntity
  8
0
  6
DIMENSION
 62
     7
100
AcDbDimension
280
     0
  2
*D6
 10
2040.498309085975
 20
1388.220780839874
 30
0.0
 11
1340.498309085975
 21
1408.220780839874
 31
0.0
 70
    32
  1
<>
 71
     5
 42
1400.0
 73
     0
 74
     0
 75
     0
  3
ASKSTANDARD
100
AcDbAlignedDimension
 13
640.498309085975
 23
1243.951421634305
 33
0.0
 14
2040.498309085975
 24
1243.951421634305
 34
0.0
100
AcDbRotatedDimension
1001
ACAD
1000
DSTYLE
1002
{
1070
     3
1000
<>
1070
    40
1040
10.0
1070
    41
1040
2.0
1070
    77
1070
     2
1002
}
  0
LINE
  5
4B0B
330
18
100
AcDbEntity
  8
0
  6
Continuous
 62
     7
100
AcDbLine
 10
324.7737584903771
 20
1243.951421634305
 30
0.0
 11
2552.883312356573
 21
1243.951421634305
 31
0.0
  0
TEXT
  5
4B13
330
18
100
AcDbEntity
  8
0
  6
Continuous
 62
     3
100
AcDbText
 10
2161.833440040213
 20
1248.218088300972
 30
0.0
 40
32.0
  1
▽GL（ダスト、土）
 11
2161.833440040213
 21
1243.951421634305
 31
0.0
100
AcDbText
 73
     1
  0
ARC
  5
4B7E
330
18
100
AcDbEntity
  8
0
  6
Continuous
 62
     7
100
AcDbCircle
 10
707.9983090859749
 20
1785.07609936243
 30
0.0
 40
7.5
100
AcDbArc
 50
270.0
 51
90.0
  0
ARC
  5
4B83
330
18
100
AcDbEntity
  8
0
  6
Continuous
 62
     7
100
AcDbCircle
 10
677.9983090859749
 20
1785.07609936243
 30
0.0
 40
7.5
100
AcDbArc
 50
90.0
 51
270.0
  0
LINE
  5
4B86
330
18
100
AcDbEntity
  8
0
  6
Continuous
 62
     7
100
AcDbLine
 10
677.9983090859749
 20
1792.57609936243
 30
0.0
 11
707.9983090859749
 21
1792.57609936243
 31
0.0
  0
LINE
  5
4B87
330
18
100
AcDbEntity
  8
0
  6
Continuous
 62
     7
100
AcDbLine
 10
707.9983090859749
 20
1777.57609936243
 30
0.0
 11
677.9983090859749
 21
1777.57609936243
 31
0.0
  0
ARC
  5
4B88
330
18
100
AcDbEntity
  8
0
  6
Continuous
 62
     7
100
AcDbCircle
 10
1130.498309085975
 20
1785.07609936243
 30
0.0
 40
7.5
100
AcDbArc
 50
270.0
 51
90.0
  0
ARC
  5
4B89
330
18
100
AcDbEntity
  8
0
  6
Continuous
 62
     7
100
AcDbCircle
 10
1100.498309085975
 20
1785.07609936243
 30
0.0
 40
7.5
100
AcDbArc
 50
90.0
 51
270.0
  0
LINE
  5
4B8A
330
18
100
AcDbEntity
  8
0
  6
Continuous
 62
     7
100
AcDbLine
 10
1100.498309085975
 20
1792.57609936243
 30
0.0
 11
1130.498309085975
 21
1792.57609936243
 31
0.0
  0
LINE
  5
4B8B
330
18
100
AcDbEntity
  8
0
  6
Continuous
 62
     7
100
AcDbLine
 10
1130.498309085975
 20
1777.57609936243
 30
0.0
 11
1100.498309085975
 21
1777.57609936243
 31
0.0
  0
ARC
  5
4B8E
330
18
100
AcDbEntity
  8
0
  6
Continuous
 62
     7
100
AcDbCircle
 10
1972.998309085975
 20
1785.07609936243
 30
0.0
 40
7.5
100
AcDbArc
 50
90.0
 51
270.0
  0
ARC
  5
4B8F
330
18
100
AcDbEntity
  8
0
  6
Continuous
 62
     7
100
AcDbCircle
 10
2002.998309085975
 20
1785.07609936243
 30
0.0
 40
7.5
100
AcDbArc
 50
270.0
 51
90.0
  0
LINE
  5
4B90
330
18
100
AcDbEntity
  8
0
  6
Continuous
 62
     7
100
AcDbLine
 10
2002.998309085975
 20
1792.57609936243
 30
0.0
 11
1972.998309085975
 21
1792.57609936243
 31
0.0
  0
LINE
  5
4B91
330
18
100
AcDbEntity
  8
0
  6
Continuous
 62
     7
100
AcDbLine
 10
1972.998309085975
 20
1777.57609936243
 30
0.0
 11
2002.998309085975
 21
1777.57609936243
 31
0.0
  0
ARC
  5
4B92
330
18
100
AcDbEntity
  8
0
  6
Continuous
 62
     7
100
AcDbCircle
 10
1550.498309085975
 20
1785.07609936243
 30
0.0
 40
7.5
100
AcDbArc
 50
90.0
 51
270.0
  0
ARC
  5
4B93
330
18
100
AcDbEntity
  8
0
  6
Continuous
 62
     7
100
AcDbCircle
 10
1580.498309085975
 20
1785.07609936243
 30
0.0
 40
7.5
100
AcDbArc
 50
270.0
 51
90.0
  0
LINE
  5
4B94
330
18
100
AcDbEntity
  8
0
  6
Continuous
 62
     7
100
AcDbLine
 10
1580.498309085975
 20
1792.57609936243
 30
0.0
 11
1550.498309085975
 21
1792.57609936243
 31
0.0
  0
LINE
  5
4B95
330
18
100
AcDbEntity
  8
0
  6
Continuous
 62
     7
100
AcDbLine
 10
1550.498309085975
 20
1777.57609936243
 30
0.0
 11
1580.498309085975
 21
1777.57609936243
 31
0.0
  0
ARC
  5
4B97
330
18
100
AcDbEntity
  8
0
  6
Continuous
 62
     7
100
AcDbCircle
 10
707.9983090859749
 20
2310.07609936243
 30
0.0
 40
7.5
100
AcDbArc
 50
270.0
 51
90.00000000000001
  0
ARC
  5
4B98
330
18
100
AcDbEntity
  8
0
  6
Continuous
 62
     7
100
AcDbCircle
 10
677.9983090859749
 20
2310.07609936243
 30
0.0
 40
7.5
100
AcDbArc
 50
90.00000000000001
 51
270.0
  0
LINE
  5
4B99
330
18
100
AcDbEntity
  8
0
  6
Continuous
 62
     7
100
AcDbLine
 10
677.9983090859749
 20
2302.57609936243
 30
0.0
 11
707.9983090859749
 21
2302.57609936243
 31
0.0
  0
LINE
  5
4B9A
330
18
100
AcDbEntity
  8
0
  6
Continuous
 62
     7
100
AcDbLine
 10
707.9983090859749
 20
2317.57609936243
 30
0.0
 11
677.9983090859749
 21
2317.57609936243
 31
0.0
  0
ARC
  5
4B9B
330
18
100
AcDbEntity
  8
0
  6
Continuous
 62
     7
100
AcDbCircle
 10
1130.498309085975
 20
2310.07609936243
 30
0.0
 40
7.5
100
AcDbArc
 50
270.0
 51
90.00000000000001
  0
ARC
  5
4B9C
330
18
100
AcDbEntity
  8
0
  6
Continuous
 62
     7
100
AcDbCircle
 10
1100.498309085975
 20
2310.07609936243
 30
0.0
 40
7.5
100
AcDbArc
 50
90.00000000000001
 51
270.0
  0
LINE
  5
4B9D
330
18
100
AcDbEntity
  8
0
  6
Continuous
 62
     7
100
AcDbLine
 10
1100.498309085975
 20
2302.57609936243
 30
0.0
 11
1130.498309085975
 21
2302.57609936243
 31
0.0
  0
LINE
  5
4B9E
330
18
100
AcDbEntity
  8
0
  6
Continuous
 62
     7
100
AcDbLine
 10
1130.498309085975
 20
2317.57609936243
 30
0.0
 11
1100.498309085975
 21
2317.57609936243
 31
0.0
  0
ARC
  5
4B9F
330
18
100
AcDbEntity
  8
0
  6
Continuous
 62
     7
100
AcDbCircle
 10
1972.998309085975
 20
2310.07609936243
 30
0.0
 40
7.5
100
AcDbArc
 50
90.00000000000001
 51
270.0
  0
ARC
  5
4BA0
330
18
100
AcDbEntity
  8
0
  6
Continuous
 62
     7
100
AcDbCircle
 10
2002.998309085975
 20
2310.07609936243
 30
0.0
 40
7.5
100
AcDbArc
 50
270.0
 51
90.00000000000001
  0
LINE
  5
4BA1
330
18
100
AcDbEntity
  8
0
  6
Continuous
 62
     7
100
AcDbLine
 10
2002.998309085975
 20
2302.57609936243
 30
0.0
 11
1972.998309085975
 21
2302.57609936243
 31
0.0
  0
LINE
  5
4BA2
330
18
100
AcDbEntity
  8
0
  6
Continuous
 62
     7
100
AcDbLine
 10
1972.998309085975
 20
2317.57609936243
 30
0.0
 11
2002.998309085975
 21
2317.57609936243
 31
0.0
  0
ARC
  5
4BA3
330
18
100
AcDbEntity
  8
0
  6
Continuous
 62
     7
100
AcDbCircle
 10
1550.498309085975
 20
2310.07609936243
 30
0.0
 40
7.5
100
AcDbArc
 50
90.00000000000001
 51
270.0
  0
ARC
  5
4BA4
330
18
100
AcDbEntity
  8
0
  6
Continuous
 62
     7
100
AcDbCircle
 10
1580.498309085975
 20
2310.07609936243
 30
0.0
 40
7.5
100
AcDbArc
 50
270.0
 51
90.00000000000001
  0
LINE
  5
4BA5
330
18
100
AcDbEntity
  8
0
  6
Continuous
 62
     7
100
AcDbLine
 10
1580.498309085975
 20
2302.57609936243
 30
0.0
 11
1550.498309085975
 21
2302.57609936243
 31
0.0
  0
LINE
  5
4BA6
330
18
100
AcDbEntity
  8
0
  6
Continuous
 62
     7
100
AcDbLine
 10
1550.498309085975
 20
2317.57609936243
 30
0.0
 11
1580.498309085975
 21
2317.57609936243
 31
0.0
  0
LINE
  5
4BAF
330
18
100
AcDbEntity
  8
0
  6
Continuous
 62
     7
100
AcDbLine
 10
2778.539607458377
 20
2010.93179587094
 30
0.0
 11
3525.882974632921
 21
2010.93179587094
 31
0.0
1001
ASKOBJSC
1000
1/2
1001
ASKDWGSC
1040
10.0
  0
LINE
  5
4BB0
330
18
100
AcDbEntity
  8
0
  6
Continuous
 62
     7
100
AcDbLine
 10
3525.882974632921
 20
2010.93179587094
 30
0.0
 11
3525.882974632921
 21
2438.687776343932
 31
0.0
1001
ASKOBJSC
1000
1/2
1001
ASKDWGSC
1040
10.0
  0
LINE
  5
4BB1
330
18
100
AcDbEntity
  8
0
  6
Continuous
 62
     7
100
AcDbLine
 10
2778.539607458377
 20
2085.93179587094
 30
0.0
 11
3450.882974632921
 21
2085.93179587094
 31
0.0
1001
ASKOBJSC
1000
1/2
1001
ASKDWGSC
1040
10.0
  0
LINE
  5
4BB2
330
18
100
AcDbEntity
  8
0
  6
Continuous
 62
     7
100
AcDbLine
 10
3450.882974632921
 20
2085.93179587094
 30
0.0
 11
3450.882974632921
 21
2438.687776343932
 31
0.0
1001
ASKOBJSC
1000
1/2
1001
ASKDWGSC
1040
10.0
  0
LINE
  5
4BB3
330
18
100
AcDbEntity
  8
0
  6
Continuous
 62
     7
100
AcDbLine
 10
3450.882974632921
 20
2085.93179587094
 30
0.0
 11
3525.882974632921
 21
2010.93179587094
 31
0.0
1001
ASKOBJSC
1000
1/2
1001
ASKDWGSC
1040
10.0
  0
ARC
  5
4BB4
330
18
100
AcDbEntity
  8
0
  6
Continuous
 62
     7
100
AcDbCircle
 10
3188.382974632921
 20
2198.43179587094
 30
0.0
 40
37.5
100
AcDbArc
 50
90.0
 51
270.0
1001
ASKOBJSC
1000
1/2
1001
ASKDWGSC
1040
10.0
  0
ARC
  5
4BB5
330
18
100
AcDbEntity
  8
0
  6
Continuous
 62
     7
100
AcDbCircle
 10
3338.382974632921
 20
2198.43179587094
 30
0.0
 40
37.5
100
AcDbArc
 50
270.0
 51
90.0
1001
ASKOBJSC
1000
1/2
1001
ASKDWGSC
1040
10.0
  0
LINE
  5
4BB6
330
18
100
AcDbEntity
  8
0
  6
Continuous
 62
     7
100
AcDbLine
 10
3338.382974632921
 20
2235.93179587094
 30
0.0
 11
3188.382974632921
 21
2235.93179587094
 31
0.0
1001
ASKOBJSC
1000
1/2
1001
ASKDWGSC
1040
10.0
  0
LINE
  5
4BB7
330
18
100
AcDbEntity
  8
0
  6
Continuous
 62
     7
100
AcDbLine
 10
3188.382974632921
 20
2160.93179587094
 30
0.0
 11
3338.382974632921
 21
2160.93179587094
 31
0.0
1001
ASKOBJSC
1000
1/2
1001
ASKDWGSC
1040
10.0
  0
LINE
  5
4BBF
330
18
100
AcDbEntity
  8
0
  6
Continuous
 62
     7
100
AcDbLine
 10
2778.539607458377
 20
1699.90901004893
 30
0.0
 11
3525.882974632921
 21
1699.90901004893
 31
0.0
1001
ASKOBJSC
1000
1/2
1001
ASKDWGSC
1040
10.0
  0
LINE
  5
4BC0
330
18
100
AcDbEntity
  8
0
  6
Continuous
 62
     7
100
AcDbLine
 10
2778.539607458377
 20
1799.90901004893
 30
0.0
 11
3450.882974632921
 21
1799.90901004893
 31
0.0
1001
ASKOBJSC
1000
1/2
1001
ASKDWGSC
1040
10.0
  0
LINE
  5
4BC1
330
18
100
AcDbEntity
  8
0
  6
Continuous
 62
     7
100
AcDbLine
 10
3450.882974632921
 20
1799.90901004893
 30
0.0
 11
3525.882974632921
 21
1699.90901004893
 31
0.0
1001
ASKOBJSC
1000
1/2
1001
ASKDWGSC
1040
10.0
  0
LINE
  5
4BCB
330
18
100
AcDbEntity
  8
0
  6
Continuous
 62
     7
100
AcDbLine
 10
3188.382974632921
 20
1749.90901004893
 30
0.0
 11
3188.382974632921
 21
892.8743601685919
 31
0.0
1001
ASKOBJSC
1000
1/2
1001
ASKDWGSC
1040
10.0
  0
LINE
  5
4BCC
330
18
100
AcDbEntity
  8
0
  6
Continuous
 62
     7
100
AcDbLine
 10
3208.382974632921
 20
1754.90901004893
 30
0.0
 11
3208.382974632921
 21
874.9090100489302
 31
0.0
1001
ASKOBJSC
1000
1/2
1001
ASKDWGSC
1040
10.0
  0
LINE
  5
4BCD
330
18
100
AcDbEntity
  8
0
  6
Continuous
 62
     7
100
AcDbLine
 10
3338.382974632921
 20
1749.909010048929
 30
0.0
 11
3338.382974632921
 21
892.8743601685912
 31
0.0
1001
ASKOBJSC
1000
1/2
1001
ASKDWGSC
1040
10.0
  0
LINE
  5
4BCE
330
18
100
AcDbEntity
  8
0
  6
Continuous
 62
     7
100
AcDbLine
 10
3318.382974632921
 20
1754.90901004893
 30
0.0
 11
3318.382974632921
 21
874.9090100489302
 31
0.0
1001
ASKOBJSC
1000
1/2
1001
ASKDWGSC
1040
10.0
  0
LINE
  5
4BD2
330
18
100
AcDbEntity
  8
0
  6
Continuous
 62
     7
100
AcDbLine
 10
3208.382974632921
 20
1754.90901004893
 30
0.0
 11
3318.382974632921
 21
1754.90901004893
 31
0.0
1001
ASKOBJSC
1000
1/2
1001
ASKDWGSC
1040
10.0
  0
LINE
  5
4BD8
102
{ACAD_REACTORS
330
4C41
102
}
330
18
100
AcDbEntity
  8
0
  6
Continuous
 62
     7
100
AcDbLine
 10
3150.882974632921
 20
1799.90901004893
 30
0.0
 11
3150.882974632921
 21
1774.90901004893
 31
0.0
1001
ASKOBJSC
1000
1/2
1001
ASKDWGSC
1040
10.0
  0
LINE
  5
4BD9
102
{ACAD_REACTORS
330
4C41
102
}
330
18
100
AcDbEntity
  8
0
  6
Continuous
 62
     7
100
AcDbLine
 10
3150.882974632921
 20
1774.90901004893
 30
0.0
 11
3375.882974632921
 21
1774.90901004893
 31
0.0
1001
ASKOBJSC
1000
1/2
1001
ASKDWGSC
1040
10.0
  0
LINE
  5
4BDA
102
{ACAD_REACTORS
330
4C41
102
}
330
18
100
AcDbEntity
  8
0
  6
Continuous
 62
     7
100
AcDbLine
 10
3375.882974632921
 20
1774.90901004893
 30
0.0
 11
3375.882974632921
 21
1799.90901004893
 31
0.0
1001
ASKOBJSC
1000
1/2
1001
ASKDWGSC
1040
10.0
  0
LINE
  5
4BDB
102
{ACAD_REACTORS
330
4C41
102
}
330
18
100
AcDbEntity
  8
0
  6
Continuous
 62
     7
100
AcDbLine
 10
3375.882974632921
 20
1799.90901004893
 30
0.0
 11
3150.882974632921
 21
1799.90901004893
 31
0.0
1001
ASKOBJSC
1000
1/2
1001
ASKDWGSC
1040
10.0
  0
ARC
  5
4BDE
330
18
100
AcDbEntity
  8
0
  6
Continuous
 62
     7
100
AcDbCircle
 10
3213.382974632922
 20
1749.90901004893
 30
0.0
 40
25.0
100
AcDbArc
 50
90.00000000000244
 51
180.0
1001
ASK_MEN_XD
1005
4BCB
1070
     0
1005
4BD9
1070
     0
1001
ASKOBJSC
1000
1/2
1001
ASKDWGSC
1040
10.0
  0
ARC
  5
4BE0
330
18
100
AcDbEntity
  8
0
  6
Continuous
 62
     7
100
AcDbCircle
 10
3313.38297463292
 20
1749.909010048929
 30
0.0
 40
25.0
100
AcDbArc
 50
0.0
 51
89.99999999999756
1001
ASK_MEN_XD
1005
4BD9
1070
     0
1005
4BCD
1070
     0
1001
ASKOBJSC
1000
1/2
1001
ASKDWGSC
1040
10.0
  0
LINE
  5
4BE2
330
18
100
AcDbEntity
  8
0
  6
Continuous
 62
     7
100
AcDbLine
 10
3208.382974632921
 20
874.9090100489302
 30
0.0
 11
3188.382974632921
 21
892.8743601685912
 31
0.0
1001
ASKOBJSC
1000
1/2
1001
ASKDWGSC
1040
10.0
  0
LINE
  5
4BE6
330
18
100
AcDbEntity
  8
0
  6
Continuous
 62
     7
100
AcDbLine
 10
3318.382974632921
 20
874.9090100489302
 30
0.0
 11
3338.382974632921
 21
892.8743601685912
 31
0.0
1001
ASKOBJSC
1000
1/2
1001
ASKDWGSC
1040
10.0
  0
ARC
  5
4BEB
330
18
100
AcDbEntity
  8
0
  6
Continuous
 62
     7
100
AcDbCircle
 10
3198.382974632921
 20
2198.43179587094
 30
0.0
 40
10.0
100
AcDbArc
 50
90.0
 51
270.0
1001
ASKOBJSC
1000
1/2
1001
ASKDWGSC
1040
10.0
  0
LINE
  5
4BEC
330
18
100
AcDbEntity
  8
0
  6
CENS
 62
     1
100
AcDbLine
 10
3263.382974632921
 20
2198.43179587094
 30
0.0
 11
3186.382974632921
 21
2198.43179587094
 31
0.0
1001
ASKOBJSC
1000
1/2
1001
ASKDWGSC
1040
10.0
  0
ARC
  5
4BEE
330
18
100
AcDbEntity
  8
0
  6
Continuous
 62
     7
100
AcDbCircle
 10
3328.382974632921
 20
2198.43179587094
 30
0.0
 40
10.0
100
AcDbArc
 50
270.0
 51
90.0
1001
ASKOBJSC
1000
1/2
1001
ASKDWGSC
1040
10.0
  0
LINE
  5
4BEF
330
18
100
AcDbEntity
  8
0
  6
CENS
 62
     1
100
AcDbLine
 10
3340.382974632921
 20
2198.43179587094
 30
0.0
 11
3263.382974632921
 21
2198.43179587094
 31
0.0
1001
ASKOBJSC
1000
1/2
1001
ASKDWGSC
1040
10.0
  0
LINE
  5
4BF4
330
18
100
AcDbEntity
  8
0
  6
Continuous
 62
     7
100
AcDbLine
 10
3198.382974632921
 20
2208.43179587094
 30
0.0
 11
3328.382974632921
 21
2208.43179587094
 31
0.0
1001
ASKOBJSC
1000
1/2
1001
ASKDWGSC
1040
10.0
  0
LINE
  5
4BF5
330
18
100
AcDbEntity
  8
0
  6
Continuous
 62
     7
100
AcDbLine
 10
3328.382974632921
 20
2188.43179587094
 30
0.0
 11
3198.382974632921
 21
2188.43179587094
 31
0.0
1001
ASKOBJSC
1000
1/2
1001
ASKDWGSC
1040
10.0
  0
LINE
  5
4BFA
330
18
100
AcDbEntity
  8
0
  6
Continuous
 62
     7
100
AcDbLine
 10
2778.539607458377
 20
1699.90901004893
 30
0.0
 11
4023.891970136759
 21
1699.90901004893
 31
0.0
1001
ASKOBJSC
1000
1/2
1001
ASKDWGSC
1040
10.0
  0
TEXT
  5
4BFB
330
18
100
AcDbEntity
  8
0
  6
Continuous
 62
     3
100
AcDbText
 10
3668.195131544278
 20
1702.001061267956
 30
0.0
 40
32.0
  1
▽GL（ダスト、土）
 11
3668.195131544278
 21
1697.73439460129
 31
0.0
100
AcDbText
 73
     1
1001
ASKOBJSC
1000
1/2
1001
ASKDWGSC
1040
10.0
  0
MTEXT
  5
4C12
330
18
100
AcDbEntity
  8
0
  6
DIMENSION
 62
     3
100
AcDbMText
 10
3057.785204913576
 20
1487.962079222914
 30
0.0
 40
20.0
 41
0.0
 46
0.0
 71
     9
 72
     5
  1
固定用U字ピン
  7
STD
 73
     1
 44
1.0
1001
ASKOBJSC
1000
1/2
1001
ASKDWGSC
1040
10.0
1001
ASKLEADERCHILD
1000
LEADER
1005
4C13
1000
MYHANDLE
1005
4C12
  0
LEADER
  5
4C13
330
18
100
AcDbEntity
  8
0
  6
DIMENSION
 62
     7
100
AcDbLeader
  3
ASKSTANDARD
 76
     3
 10
3188.024189246993
 20
1368.874401058343
 30
0.0
 10
3064.785204913576
 20
1477.962079222914
 30
0.0
 10
2894.785204913576
 20
1477.96207922292
 30
0.0
1001
ACAD
1000
DSTYLE
1002
{
1070
    41
1040
2.0
1070
    40
1040
10.0
1070
   176
1070
     3
1070
   341
1005
0
1002
}
1001
ASKOBJSC
1000
1/2
1001
ASKDWGSC
1040
10.0
1001
ASKLEADER
1000
MYHANDLE
1005
4C13
1000
FIRSTTEXT
1005
4C12
1000
SECONDTEXT
1005
0
1000
CHMFERLINE
1005
0
1000
CHMFERSUBLINE
1005
0
1000
BASEPOINT
1010
3188.024189246993
1020
1368.874401058343
1030
0.0
1000
SECONDBASEPOINT
1010
3064.785204913576
1020
1477.962079222914
1030
0.0
1000
SECONDPOINT
1010
164.5842300673706
1020
-0.0000000000000142
1030
0.0
1000
BEFOREPOINT
1010
164.5842300673706
1020
-0.0000000000000142
1030
0.0
1000
LASTPOINT
1010
291.8784874096788
1020
112.6772916237801
1030
0.0
1000
CHMSTTPOINT
1010
0.0
1020
0.0
1030
0.0
1000
CHMENDPOINT
1010
0.0
1020
0.0
1030
0.0
1000
TEXTPOINTLU
1010
2901.785204913576
1020
1487.962079222914
1030
0.0
1000
TEXTPOINTRU
1010
3057.785204913576
1020
1487.962079222914
1030
0.0
1000
TEXTPOINTLD
1010
0.0
1020
0.0
1030
0.0
1000
TEXTPOINTRD
1010
0.0
1020
0.0
1030
0.0
1000
LEADERTYPE
1000
LEADER_LEVEL
  0
MTEXT
  5
4C17
330
18
100
AcDbEntity
  8
0
  6
DIMENSION
 62
     3
100
AcDbMText
 10
3033.137400041793
 20
2339.549756636128
 30
0.0
 40
20.0
 41
0.0
 46
0.0
 71
     9
 72
     5
  1
カバーゴム　5t（接着剤止め）
  7
STD
 73
     1
 44
1.0
1001
ASKOBJSC
1000
1/2
1001
ASKDWGSC
1040
10.0
1001
ASKLEADERCHILD
1000
LEADER
1005
4C18
1000
MYHANDLE
1005
4C17
  0
LEADER
  5
4C18
330
18
100
AcDbEntity
  8
0
  6
DIMENSION
 62
     7
100
AcDbLeader
  3
ASKSTANDARD
 76
     3
 10
3163.376384375209
 20
2220.462078471557
 30
0.0
 10
3040.137400041793
 20
2329.549756636128
 30
0.0
 10
2691.470733375126
 20
2329.54975663612
 30
0.0
1001
ACAD
1000
DSTYLE
1002
{
1070
    41
1040
2.0
1070
    40
1040
10.0
1070
   176
1070
     3
1070
   341
1005
0
1002
}
1001
ASKOBJSC
1000
1/2
1001
ASKDWGSC
1040
10.0
1001
ASKLEADER
1000
MYHANDLE
1005
4C18
1000
FIRSTTEXT
1005
4C17
1000
SECONDTEXT
1005
0
1000
CHMFERLINE
1005
0
1000
CHMFERSUBLINE
1005
0
1000
BASEPOINT
1010
3163.376384375209
1020
2220.462078471557
1030
0.0
1000
SECONDBASEPOINT
1010
3040.137400041793
1020
2329.549756636128
1030
0.0
1000
SECONDPOINT
1010
164.5842300673706
1020
-0.0000000000000142
1030
0.0
1000
BEFOREPOINT
1010
164.5842300673706
1020
-0.0000000000000142
1030
0.0
1000
LASTPOINT
1010
425.6622559106
1020
231.0989157617282
1030
0.0
1000
CHMSTTPOINT
1010
0.0
1020
0.0
1030
0.0
1000
CHMENDPOINT
1010
0.0
1020
0.0
1030
0.0
1000
TEXTPOINTLU
1010
2698.470733375126
1020
2339.549756636128
1030
0.0
1000
TEXTPOINTRU
1010
3033.137400041793
1020
2339.549756636128
1030
0.0
1000
TEXTPOINTLD
1010
0.0
1020
0.0
1030
0.0
1000
TEXTPOINTRD
1010
0.0
1020
0.0
1030
0.0
1000
LEADERTYPE
1000
LEADER_LEVEL
  0
HATCH
  5
4C3A
330
18
100
AcDbEntity
  8
0
  6
Continuous
 62
     3
100
AcDbHatch
 10
0.0
 20
0.0
 30
0.0
210
0.0
220
0.0
230
1.0
  2
ANSI31
 70
     0
 71
     0
 91
        3
 92
        7
 72
     1
 73
     1
 93
        7
 10
3450.882974632921
 20
1799.90901004893
 42
0.0
 10
3375.882974632921
 20
1799.90901004893
 42
0.0
 10
3375.882974632921
 20
1774.90901004893
 42
0.0
 10
3313.38297463292
 20
1774.909010048929
 42
-0.4142135623730951
 10
3338.38297463292
 20
1749.909010048929
 42
0.0
 10
3338.38297463292
 20
1699.90901004893
 42
0.0
 10
3525.882974632921
 20
1699.90901004893
 42
0.0
 97
        0
 92
        7
 72
     0
 73
     1
 93
        4
 10
3318.382974632921
 20
1754.90901004893
 10
3208.382974632921
 20
1754.90901004893
 10
3208.382974632921
 20
1699.90901004893
 10
3318.382974632921
 20
1699.90901004893
 97
        0
 92
        7
 72
     1
 73
     1
 93
        7
 10
3188.382974632922
 20
1749.909010048929
 42
-0.4142135623730999
 10
3213.382974632922
 20
1774.90901004893
 42
0.0
 10
3150.882974632921
 20
1774.90901004893
 42
0.0
 10
3150.882974632921
 20
1799.90901004893
 42
0.0
 10
2778.539607458377
 20
1799.90901004893
 42
0.0
 10
2778.539607458377
 20
1699.90901004893
 42
0.0
 10
3188.382974632921
 20
1699.90901004893
 42
0.0
 97
        0
 75
     1
 76
     1
 52
0.0
 41
350.0
 77
     0
 78
     1
 53
45.0
 43
0.0
 44
316.7061605420367
 45
-30.93592167691145
 46
30.93592167691146
 79
     0
 47
1.359621551127236
 98
        3
 10
3418.197479041781
 20
1742.725531882403
 10
3291.675182676445
 20
1737.287049984989
 10
3088.967423126946
 20
1748.164023447869
1001
GradientColor1ACI
1070
     5
1001
GradientColor2ACI
1070
     2
1001
ACAD
1010
0.0
1020
0.0
1030
0.0
1001
ASKOBJSC
1000
1/2
1001
ASKDWGSC
1040
10.0
  0
HATCH
  5
4C41
330
18
100
AcDbEntity
  8
0
  6
Continuous
 62
     3
100
AcDbHatch
 10
0.0
 20
0.0
 30
0.0
210
0.0
220
0.0
230
1.0
  2
ANSI31
 70
     0
 71
     1
 91
        1
 92
        7
 72
     0
 73
     1
 93
        4
 10
3375.882974632921
 20
1774.90901004893
 10
3375.882974632921
 20
1799.90901004893
 10
3150.882974632921
 20
1799.90901004893
 10
3150.882974632921
 20
1774.90901004893
 97
        4
330
4BDB
330
4BD8
330
4BD9
330
4BDA
 75
     1
 76
     1
 52
0.0
 41
50.0
 77
     0
 78
     1
 53
45.0
 43
0.0
 44
316.7061605420367
 45
-4.419417382415921
 46
4.419417382415922
 79
     0
 47
1.359621551127236
 98
        1
 10
3253.582451084363
 20
1786.233425733928
1001
GradientColor1ACI
1070
     5
1001
GradientColor2ACI
1070
     2
1001
ACAD
1010
0.0
1020
0.0
1030
0.0
1001
ASKOBJSC
1000
1/2
1001
ASKDWGSC
1040
10.0
  0
DIMENSION
  5
4C47
330
18
100
AcDbEntity
  8
0
  6
DIMENSION
 62
     7
100
AcDbDimension
280
     0
  2
*D7
 10
3641.457894151798
 20
1699.90901004893
 30
0.0
 11
3618.257011217025
 21
1746.653458105246
 31
0.0
 70
   160
  1
<>
 71
     5
 42
20.0
 73
     0
 74
     0
 75
     0
  3
ASKSTANDARD
100
AcDbAlignedDimension
 13
3472.58738405785
 23
1799.90901004893
 33
0.0
 14
3547.58738405785
 24
1699.90901004893
 34
0.0
 50
90.0
100
AcDbRotatedDimension
1001
ASKOBJSC
1000
1/2
1001
ASKDWGSC
1040
10.0
1001
ACAD
1000
DSTYLE
1002
{
1070
     3
1000
<>
1070
    40
1040
10.0
1070
    41
1040
2.0
1070
    77
1070
     2
1070
   144
1040
0.2
1070
   279
1070
     2
1002
}
  0
DIMENSION
  5
4C5E
330
18
100
AcDbEntity
  8
0
  6
DIMENSION
 62
     7
100
AcDbDimension
280
     0
  2
*D8
 10
3641.457894151797
 20
874.9090100489302
 30
0.0
 11
3616.172302900894
 21
1287.409010048931
 31
0.0
 70
   160
  1
<>
 71
     5
 42
165.0
 73
     0
 74
     0
 75
     0
  3
ASKSTANDARD
100
AcDbAlignedDimension
 13
3557.58738405785
 23
1699.90901004893
 33
0.0
 14
3340.08738405785
 24
874.9090100489302
 34
0.0
 50
90.0
100
AcDbRotatedDimension
1001
ASKOBJSC
1000
1/2
1001
ASKDWGSC
1040
10.0
1001
ACAD
1000
DSTYLE
1002
{
1070
     3
1000
<>
1070
    40
1040
10.0
1070
    41
1040
2.0
1070
    77
1070
     2
1070
   144
1040
0.2
1070
   279
1070
     2
1002
}
  0
TEXT
  5
4CC0
330
18
100
AcDbEntity
  8
0
  6
Continuous
 62
     7
100
AcDbText
 10
1151.436498535402
 20
1590.022963845233
 30
0.0
 40
32.0
  1
平面図　Ｓ＝１：１０
  7
STYLE1
 72
     1
 11
1336.61831671722
 21
1583.477509104709
 31
0.0
100
AcDbText
 73
     1
1001
ASKOBJSC
1000
1/2
1001
ASKDWGSC
1040
10.0
  0
LINE
  5
4CC1
330
18
100
AcDbEntity
  8
0
  6
Continuous
 62
     7
100
AcDbLine
 10
1129.933142873819
 20
1578.252381763858
 30
0.0
 11
1538.382334941911
 21
1578.252381763858
 31
0.0
1001
ASKOBJSC
1000
1/2
1001
ASKDWGSC
1040
10.0
  0
TEXT
  5
4CC2
330
18
100
AcDbEntity
  8
0
  6
Continuous
 62
     7
100
AcDbText
 10
1151.436498535402
 20
1090.33101714493
 30
0.0
 40
32.0
  1
立面図　Ｓ＝１：１０
  7
STYLE1
 72
     1
 11
1336.61831671722
 21
1083.785562404406
 31
0.0
100
AcDbText
 73
     1
1001
ASKOBJSC
1000
1/2
1001
ASKDWGSC
1040
10.0
  0
LINE
  5
4CC3
330
18
100
AcDbEntity
  8
0
  6
Continuous
 62
     7
100
AcDbLine
 10
1129.933142873819
 20
1078.560435063555
 30
0.0
 11
1538.382334941911
 21
1078.560435063555
 31
0.0
1001
ASKOBJSC
1000
1/2
1001
ASKDWGSC
1040
10.0
  0
TEXT
  5
4CFA
330
18
100
AcDbEntity
  8
0
  6
Continuous
 62
     7
100
AcDbText
 10
2965.092807981262
 20
724.3594544964471
 30
0.0
 40
32.0
  1
固定方法詳細図　Ｓ＝１：２
  7
STYLE1
 72
     1
 11
3227.456444344898
 21
717.8139997559229
 31
0.0
100
AcDbText
 73
     1
1001
ASKOBJSC
1000
1/2
1001
ASKDWGSC
1040
10.0
  0
LINE
  5
4CFB
330
18
100
AcDbEntity
  8
0
  6
Continuous
 62
     7
100
AcDbLine
 10
2944.383342898522
 20
712.5888724150718
 30
0.0
 11
3525.263525221219
 21
712.5888724150718
 31
0.0
1001
ASKOBJSC
1000
1/2
1001
ASKDWGSC
1040
10.0
  0
INSERT
  5
4D28
330
18
100
AcDbEntity
  8
0
  6
Continuous
 62
     7
100
AcDbBlockReference
  2
上條判子
 10
1981.002261313723
 20
74.25
 30
0.0
1001
ASKOBJSC
1000
1/2
1001
ASKDWGSC
1040
10.0
  0
TEXT
  5
4D54
330
18
100
AcDbEntity
  8
9図面文字
  6
Continuous
 62
     7
100
AcDbText
 10
193.0462324986311
 20
85.34443797329573
 30
0.0
 40
27.33750000000004
  1
・本製品は、(一社)日本公園施設業協会(ＪＰＦＡ)が定める賠償責任保険加入製品とする。
  7
STYLE1
100
AcDbText
  0
POINT
  5
4DE2
330
18
100
AcDbEntity
  8
0
  6
Continuous
 62
     7
 60
     1
100
AcDbPoint
 10
0.0
 20
0.0
 30
0.0
  0
ENDSEC
  0
SECTION
  2
OBJECTS
  0
DICTIONARY
  5
C
330
0
100
AcDbDictionary
281
     1
  3
ACAD_COLOR
350
4A49
  3
ACAD_DETAILVIEWSTYLE
350
50BA
  3
ACAD_GROUP
350
D
  3
ACAD_LAYOUT
350
5DC
  3
ACAD_MATERIAL
350
4A17
  3
ACAD_MLEADERSTYLE
350
4A5E
  3
ACAD_MLINESTYLE
350
E
  3
ACAD_PLOTSETTINGS
350
5DD
  3
ACAD_PLOTSTYLENAME
350
5DA
  3
ACAD_SCALELIST
350
4A4C
  3
ACAD_SECTIONVIEWSTYLE
350
50BB
  3
ACAD_TABLESTYLE
350
4A4A
  3
ACAD_VISUALSTYLE
350
4A30
  3
AcAmCatalogState
350
23D7
  3
AcAsAppObject
350
2369
  3
ACASGREF_MASTER
350
23A0
  3
ACDB_RECOMPOSE_DATA
350
50BE
  3
ACDBVARIABLEDICTIONARY
350
3C4
  3
ACDMSYSVARMGR
350
2344
  3
ACGREF_MASTER
350
233E
  3
ACGREFACAD_MASTER
350
2366
  3
ACMDICTIONARY
350
3D0
  3
ACME_BOM_MANAGER_NAME
350
3CD
  3
ACME_COMMAND_HISTORY
350
3C2
  3
ACME_SCOPE_NAME
350
3C1
  3
ACMESTATEMGR
350
3C0
  3
ACMESYSVARMANAGER
350
3C6
  3
AD_APPL
350
23B6
  3
AD_GREF_MODULE
350
239E
  3
AD_HOLENOTE_REPOSITORY
350
23B8
  3
AD_MAPI_MODULE
350
23CF
  3
ADSYSVARMGR
350
23A8
  3
AEC_PROPERTY_SET_DEFS
350
4C05
  3
AmdtNamedDwgMgr
350
2361
  3
AMG
350
2333
  3
AMGSNAPSETTINGS
350
25D9
  3
AMI_MASTER
350
239F
  3
APPDATA
350
50B4
  3
ASKSYSVAR
350
B3C
  3
ASURF_STATIC_VARS
350
236A
  3
AUTOCAD_ASSEMBLIES_PROJECT
350
23C4
  3
AutoSurf_SysVars
350
236B
  3
Designer_Assemblies_SysVars
350
23BB
  3
GREFAM_MODULE
350
23A1
  0
DICTIONARY
  5
28C2
330
2
100
AcDbDictionary
280
     1
281
     1
  3
ACAD_LAYERFILTERS
360
28C3
  3
ACAD_LAYERSTATES
360
4BFF
  0
DICTIONARY
  5
4D5E
330
F
100
AcDbDictionary
280
     1
281
     1
  3
ADSK_XREC_LAYER_RECONCILED
360
4D5F
  0
DICTIONARY
  5
4D60
330
C7
100
AcDbDictionary
280
     1
281
     1
  3
ADSK_XREC_LAYER_RECONCILED
360
4D61
  0
DICTIONARY
  5
4D62
330
3F9
100
AcDbDictionary
280
     1
281
     1
  3
ADSK_XREC_LAYER_RECONCILED
360
4D63
  0
DICTIONARY
  5
4D64
330
3FB
100
AcDbDictionary
280
     1
281
     1
  3
ADSK_XREC_LAYER_RECONCILED
360
4D65
  0
DICTIONARY
  5
4D66
330
EE1
100
AcDbDictionary
280
     1
281
     1
  3
ADSK_XREC_LAYER_RECONCILED
360
4D67
  0
DICTIONARY
  5
4D68
330
2AE1
100
AcDbDictionary
280
     1
281
     1
  3
ADSK_XREC_LAYER_RECONCILED
360
4D69
  0
DICTIONARY
  5
4D6A
330
2AE2
100
AcDbDictionary
280
     1
281
     1
  3
ADSK_XREC_LAYER_RECONCILED
360
4D6B
  0
DICTIONARY
  5
4D6C
330
2AE4
100
AcDbDictionary
280
     1
281
     1
  3
ADSK_XREC_LAYER_RECONCILED
360
4D6D
  0
DICTIONARY
  5
4D3A
330
4D39
100
AcDbDictionary
280
     1
281
     1
  3
ADSK_XREC_LAYER_RECONCILED
360
4D6E
  0
DICTIONARY
  5
53B
330
18
100
AcDbDictionary
280
     1
281
     1
  3
ACAD_INDEX
360
289E
  3
ACAD_SORTENTS
360
4C1B
  0
DICTIONARY
  5
4D24
330
4D21
100
AcDbDictionary
280
     1
281
     1
  3
ACAD_SORTENTS
360
4D25
  0
DICTIONARY
  5
4A49
102
{ACAD_REACTORS
330
C
102
}
330
C
100
AcDbDictionary
281
     1
  0
DICTIONARY
  5
50BA
102
{ACAD_REACTORS
330
C
102
}
330
C
100
AcDbDictionary
281
     1
  0
DICTIONARY
  5
D
102
{ACAD_REACTORS
330
C
102
}
330
C
100
AcDbDictionary
281
     1
  0
DICTIONARY
  5
5DC
102
{ACAD_REACTORS
330
C
102
}
330
C
100
AcDbDictionary
281
     1
  3
Model
350
5DE
  3
ﾚｲｱｳﾄ1
350
5DF
  0
DICTIONARY
  5
4A17
102
{ACAD_REACTORS
330
C
102
}
330
C
100
AcDbDictionary
281
     1
  3
ByBlock
350
4A20
  3
ByLayer
350
4A18
  3
Global
350
4A28
  0
DICTIONARY
  5
4A5E
102
{ACAD_REACTORS
330
C
102
}
330
C
100
AcDbDictionary
281
     1
  3
Standard
350
4A5F
  0
DICTIONARY
  5
E
102
{ACAD_REACTORS
330
C
102
}
330
C
100
AcDbDictionary
281
     1
  3
STANDARD
350
1B
  0
DICTIONARY
  5
5DD
102
{ACAD_REACTORS
330
C
102
}
330
C
100
AcDbDictionary
281
     1
  3
DJ750C(A1)カラー
350
5FF
  3
DJ750C(A1)モノクロ
350
600
  3
DJ750C(A2)カラー
350
601
  3
DJ750C(A2)モノクロ
350
602
  3
LP8200(A3)
350
F00
  3
NEC(A3)
350
604
  3
NEC(A4)
350
605
  0
ACDBDICTIONARYWDFLT
  5
5DA
102
{ACAD_REACTORS
330
C
102
}
330
C
100
AcDbDictionary
281
     1
  3
Normal
350
5DB
100
AcDbDictionaryWithDefault
340
5DB
  0
DICTIONARY
  5
4A4C
102
{ACAD_REACTORS
330
C
102
}
330
C
100
AcDbDictionary
281
     1
  3
A0
350
4A4D
  3
A1
350
4A4E
  3
A2
350
4A4F
  3
A3
350
4A50
  3
A4
350
4A51
  3
A5
350
4A52
  3
A6
350
4A53
  3
A7
350
4A54
  3
A8
350
4A55
  3
A9
350
4A56
  3
B0
350
4A57
  3
B1
350
4A58
  3
B2
350
4A59
  3
B3
350
4A5A
  3
B4
350
4A5B
  3
B5
350
4A5C
  3
B6
350
4A5D
  0
DICTIONARY
  5
50BB
102
{ACAD_REACTORS
330
C
102
}
330
C
100
AcDbDictionary
281
     1
  0
DICTIONARY
  5
4A4A
102
{ACAD_REACTORS
330
C
102
}
330
C
100
AcDbDictionary
281
     1
  3
Standard
350
4A4B
  0
DICTIONARY
  5
4A30
102
{ACAD_REACTORS
330
C
102
}
330
C
100
AcDbDictionary
281
     1
  3
2dWireframe
350
4A36
  3
Basic
350
4A35
  3
Brighten
350
4A3C
  3
ColorChange
350
4A40
  3
Conceptual
350
4A39
  3
Dim
350
4A3B
  3
EdgeColorOff
350
4A48
  3
Facepattern
350
4A3F
  3
Flat
350
4A31
  3
FlatWithEdges
350
4A32
  3
Gouraud
350
4A33
  3
GouraudWithEdges
350
4A34
  3
Hidden
350
4A38
  3
JitterOff
350
4A46
  3
Linepattern
350
4A3E
  3
OverhangOff
350
4A47
  3
Realistic
350
4A3A
  3
Shaded
350
4A45
  3
Shaded with edges
350
4A44
  3
Shades of Gray
350
4A41
  3
Sketchy
350
4A42
  3
Thicken
350
4A3D
  3
Wireframe
350
4A37
  3
X-Ray
350
4A43
  0
ACAD_PROXY_OBJECT
  5
23D7
102
{ACAD_REACTORS
330
C
102
}
330
C
100
AcDbProxyObject
 90
      499
 91
      566
 95
   983063
 70
     0
161
               168
310
3FFFFFFFE00A028140284279D2E25ACA7AA2AC00AA
1001
ACAD
1000
AcRTDxfName
1000
CATALOGSTATE
1000
AcRTDxfName
1000
CATALOGSTATE
1000
AcRTDxfName
1000
CATALOGSTATE
1000
AcRTDxfName
1000
CATALOGSTATE
1000
AcRTDxfName
1000
CATALOGSTATE
1000
AcRTDxfName
1000
CATALOGSTATE
  0
ACAD_PROXY_OBJECT
  5
2369
102
{ACAD_REACTORS
330
C
102
}
330
C
100
AcDbProxyObject
 90
      499
 91
      535
 95
   983063
 70
     0
161
                10
310
4040
1001
ACAD
1000
AcRTDxfName
1000
ASAPP
1000
AcRTDxfName
1000
ASAPP
1000
AcRTDxfName
1000
ASAPP
1000
AcRTDxfName
1000
ASAPP
1000
AcRTDxfName
1000
ASAPP
1000
AcRTDxfName
1000
ASAPP
  0
ACAD_PROXY_OBJECT
  5
23A0
102
{ACAD_REACTORS
330
C
102
}
330
C
100
AcDbProxyObject
 90
      499
 91
      543
 95
   983063
 70
     0
161
                34
310
0100004040
1001
ACAD
1000
AcRTDxfName
1000
ACASGREFMASTER
1000
AcRTDxfName
1000
ACASGREFMASTER
1000
AcRTDxfName
1000
ACASGREFMASTER
1000
AcRTDxfName
1000
ACASGREFMASTER
1000
AcRTDxfName
1000
ACASGREFMASTER
1000
AcRTDxfName
1000
ACASGREFMASTER
  0
XRECORD
  5
50BE
102
{ACAD_REACTORS
330
C
102
}
330
C
100
AcDbXrecord
280
     1
 90
        1
330
4A4B
  0
DICTIONARY
  5
3C4
102
{ACAD_REACTORS
330
C
102
}
330
C
100
AcDbDictionary
281
     1
  3
CANNOSCALE
350
50B5
  3
CMLEADERSTYLE
350
4E8E
  3
CTABLESTYLE
350
4E8D
  3
DIMASSOC
350
4E90
  3
INDEXCTL
350
3C5
  3
MSLTSCALE
350
50B9
  3
SORTENTS
350
3D3
  3
XCLIPFRAME
350
50B3
  0
ACAD_PROXY_OBJECT
  5
2344
102
{ACAD_REACTORS
330
C
102
}
330
C
100
AcDbProxyObject
 90
      499
 91
      506
 95
   983063
 70
     0
161
               240
310
4C51A47A0000000000000000000000000000000000000000000000000000
330
2345
330
2346
330
2347
330
2348
330
2349
330
234A
330
234B
330
234C
330
234F
330
2350
330
2351
330
2352
330
2353
330
2354
330
2355
330
2356
330
2357
330
2358
330
2359
330
235A
330
235B
330
235C
330
235D
330
235E
330
235F
330
2360
 94
        0
1001
ACAD
1000
AcRTDxfName
1000
ACIMSYSVARMAN
1000
AcRTDxfName
1000
ACIMSYSVARMAN
1000
AcRTDxfName
1000
ACIMSYSVARMAN
1000
AcRTDxfName
1000
ACIMSYSVARMAN
1000
AcRTDxfName
1000
ACIMSYSVARMAN
1000
AcRTDxfName
1000
ACIMSYSVARMAN
  0
ACAD_PROXY_OBJECT
  5
233E
102
{ACAD_REACTORS
330
C
102
}
330
C
100
AcDbProxyObject
 90
      499
 91
      532
 95
   983063
 70
     0
161
                34
310
0400004280
1001
ACAD
1000
AcRTDxfName
1000
ACGREFMASTER
1000
AcRTDxfName
1000
ACGREFMASTER
1000
AcRTDxfName
1000
ACGREFMASTER
1000
AcRTDxfName
1000
ACGREFMASTER
1000
AcRTDxfName
1000
ACGREFMASTER
1000
AcRTDxfName
1000
ACGREFMASTER
  0
ACAD_PROXY_OBJECT
  5
2366
102
{ACAD_REACTORS
330
C
102
}
330
C
100
AcDbProxyObject
 90
      499
 91
      532
 95
   983063
 70
     0
161
               114
310
04000041C000000000000000000000
1001
ACAD
1000
AcRTDxfName
1000
ACGREFMASTER
1000
AcRTDxfName
1000
ACGREFMASTER
1000
AcRTDxfName
1000
ACGREFMASTER
1000
AcRTDxfName
1000
ACGREFMASTER
1000
AcRTDxfName
1000
ACGREFMASTER
1000
AcRTDxfName
1000
ACGREFMASTER
  0
DICTIONARY
  5
3D0
102
{ACAD_REACTORS
330
C
102
}
330
C
100
AcDbDictionary
281
     1
  3
ACMBOMDATA
350
3D1
  0
ACAD_PROXY_OBJECT
  5
3CD
102
{ACAD_REACTORS
330
C
102
}
330
C
100
AcDbProxyObject
 90
      499
 91
      509
 95
   983063
 70
     0
161
                52
310
00010040400060
330
0
330
0
330
3CE
 94
        0
1001
ACAD
1000
AcRTDxfName
1000
ACMEDRAWINGMAN
1000
AcRTDxfName
1000
ACMEDRAWINGMAN
1000
AcRTDxfName
1000
ACMEDRAWINGMAN
1000
AcRTDxfName
1000
ACMEDRAWINGMAN
1000
AcRTDxfName
1000
ACMEDRAWINGMAN
1000
AcRTDxfName
1000
ACMEDRAWINGMAN
  0
ACAD_PROXY_OBJECT
  5
3C2
102
{ACAD_REACTORS
330
C
102
}
330
C
100
AcDbProxyObject
 90
      499
 91
      503
 95
   983063
 70
     0
161
              3056
310
478050C41534B5F54455854454449548050C41534B5F5445585445444954805045A4F4F4D8050A41534B5F5442334A6F62805045A4F4F4D8050B41534B5F494E5041525453404050B4E202D202D494E534552540142D054D2D7D2539410549514E01431054D2D7D511561511511255201411693D3D3601421054D2D7D353D5
310
91504014213880B4815539113C05084E202D204D4F5645014213880B481353D591405084E202D20554E444F01429054D2D7D5108CD29BD8A01411693D3D3601425054D2D7D454D05591601415454D0559160142D054D2D7D4DD185C9D1518A014390535115149154D15511109353D1102014213880B4815539113C05084E20
310
2D20554E444F014115539113E014115539113E014115539113E014115539113E014115539113E014151549054D16014151549054D1601431054D2D7D511561511511255201431054D2D7D5115615115112552014151549054D1601429054D2D7D5108CD29BD8A01411693D3D3601425054D2D7D454D05591601415454D0559
310
16
1001
ACAD
1000
AcRTDxfName
1000
ACMECOMMANDHISTORY
1000
AcRTDxfName
1000
ACMECOMMANDHISTORY
1000
AcRTDxfName
1000
ACMECOMMANDHISTORY
1000
AcRTDxfName
1000
ACMECOMMANDHISTORY
1000
AcRTDxfName
1000
ACMECOMMANDHISTORY
1000
AcRTDxfName
1000
ACMECOMMANDHISTORY
  0
ACAD_PROXY_OBJECT
  5
3C1
102
{ACAD_REACTORS
330
C
102
}
330
C
100
AcDbProxyObject
 90
      499
 91
      502
 95
   983063
 70
     0
161
              1082
310
04000043C00000000000000000001725DA0000000000000000000000000000000000000000000000000000000000000000000000000000000000000000000000000000000000000000000000000000000000000000000000000000000000000000000000000000000000000000000000000000000000000000000000000000
310
00000000AAA406AA80
360
3C7
360
3C8
360
3C9
360
3CE
360
233F
360
2340
360
2341
360
2342
360
2345
360
2346
360
2347
360
2348
360
2349
360
234A
360
234B
360
234C
360
234F
360
2350
360
2351
360
2352
360
2353
360
2354
360
2355
360
2356
360
2357
360
2358
360
2359
360
235A
360
235B
360
235C
360
235D
360
235E
360
235F
360
2360
360
236C
360
236D
360
236E
360
236F
360
2370
360
2371
360
2372
360
2373
360
2374
360
2375
360
2376
360
2377
360
2378
360
2379
360
237A
360
237B
360
237C
360
237D
360
237E
360
237F
360
2380
360
2381
360
2382
360
2383
360
2384
360
2385
360
2386
360
2387
360
2388
360
2389
360
238A
360
238B
360
238C
360
238D
360
238E
360
238F
360
2390
360
2391
360
2392
360
2393
360
2394
360
2395
360
2396
360
2397
360
2398
360
2399
360
239A
360
23A4
360
23A5
360
23A6
360
23A7
360
23A9
360
23AA
360
23AB
360
23AC
360
23AD
360
23AE
360
23AF
360
23B0
360
23B1
360
23B2
360
23B3
360
23B4
360
23B5
360
23B7
360
23B9
360
23BC
360
23BD
360
23BE
360
23BF
360
23C0
360
23C1
360
23C2
360
23C3
360
23C8
360
23C9
360
23CA
360
23CB
360
23CC
360
23CD
 94
        0
1001
ACAD
1000
AcRTDxfName
1000
ACMESCOPE
1000
AcRTDxfName
1000
ACMESCOPE
1000
AcRTDxfName
1000
ACMESCOPE
1000
AcRTDxfName
1000
ACMESCOPE
1000
AcRTDxfName
1000
ACMESCOPE
1000
AcRTDxfName
1000
ACMESCOPE
  0
ACAD_PROXY_OBJECT
  5
3C0
102
{ACAD_REACTORS
330
C
102
}
330
C
100
AcDbProxyObject
 90
      499
 91
      501
 95
   983063
 70
     0
161
                50
310
04000040E41280
1001
ACAD
1000
AcRTDxfName
1000
ACMESTATEMGR
1000
AcRTDxfName
1000
ACMESTATEMGR
1000
AcRTDxfName
1000
ACMESTATEMGR
1000
AcRTDxfName
1000
ACMESTATEMGR
1000
AcRTDxfName
1000
ACMESTATEMGR
1000
AcRTDxfName
1000
ACMESTATEMGR
  0
ACAD_PROXY_OBJECT
  5
3C6
102
{ACAD_REACTORS
330
C
102
}
330
C
100
AcDbProxyObject
 90
      499
 91
      506
 95
   983063
 70
     0
161
                48
310
903412000000
330
3C7
330
3C8
330
3C9
 94
        0
1001
ACAD
1000
AcRTDxfName
1000
ACIMSYSVARMAN
1000
AcRTDxfName
1000
ACIMSYSVARMAN
1000
AcRTDxfName
1000
ACIMSYSVARMAN
1000
AcRTDxfName
1000
ACIMSYSVARMAN
1000
AcRTDxfName
1000
ACIMSYSVARMAN
1000
AcRTDxfName
1000
ACIMSYSVARMAN
  0
ACAD_PROXY_OBJECT
  5
23B6
102
{ACAD_REACTORS
330
C
102
}
330
C
100
AcDbProxyObject
 90
      499
 91
      551
 95
   983063
 70
     0
161
                42
310
000400004500
330
23A4
 94
        0
1001
ACAD
1000
AcRTDxfName
1000
NAMEDAPPL
1000
AcRTDxfName
1000
NAMEDAPPL
1000
AcRTDxfName
1000
NAMEDAPPL
1000
AcRTDxfName
1000
NAMEDAPPL
1000
AcRTDxfName
1000
NAMEDAPPL
1000
AcRTDxfName
1000
NAMEDAPPL
  0
ACAD_PROXY_OBJECT
  5
239E
102
{ACAD_REACTORS
330
C
102
}
330
C
100
AcDbProxyObject
 90
      499
 91
      541
 95
   983063
 70
     0
161
               114
310
000000438000000000000000000000
1001
ACAD
1000
AcRTDxfName
1000
ACADGREFMODULE
1000
AcRTDxfName
1000
ACADGREFMODULE
1000
AcRTDxfName
1000
ACADGREFMODULE
1000
AcRTDxfName
1000
ACADGREFMODULE
1000
AcRTDxfName
1000
ACADGREFMODULE
1000
AcRTDxfName
1000
ACADGREFMODULE
  0
ACAD_PROXY_OBJECT
  5
23B8
102
{ACAD_REACTORS
330
C
102
}
330
C
100
AcDbProxyObject
 90
      499
 91
      553
 95
   983063
 70
     0
161
                 8
310
00
330
23B7
 94
        0
1001
ACAD
1000
AcRTDxfName
1000
AM_HNTEMPLATE_MGR_NAME
1000
AcRTDxfName
1000
AM_HNTEMPLATE_MGR_NAME
1000
AcRTDxfName
1000
AM_HNTEMPLATE_MGR_NAME
1000
AcRTDxfName
1000
AM_HNTEMPLATE_MGR_NAME
1000
AcRTDxfName
1000
AM_HNTEMPLATE_MGR_NAME
1000
AcRTDxfName
1000
AM_HNTEMPLATE_MGR_NAME
  0
ACAD_PROXY_OBJECT
  5
23CF
102
{ACAD_REACTORS
330
C
102
}
330
C
100
AcDbProxyObject
 90
      499
 91
      562
 95
   983063
 70
     0
161
                34
310
0400004440
1001
ACAD
1000
AcRTDxfName
1000
MAPIADMODULE
1000
AcRTDxfName
1000
MAPIADMODULE
1000
AcRTDxfName
1000
MAPIADMODULE
1000
AcRTDxfName
1000
MAPIADMODULE
1000
AcRTDxfName
1000
MAPIADMODULE
1000
AcRTDxfName
1000
MAPIADMODULE
  0
ACAD_PROXY_OBJECT
  5
23A8
102
{ACAD_REACTORS
330
C
102
}
330
C
100
AcDbProxyObject
 90
      499
 91
      506
 95
   983063
 70
     0
161
               136
310
90E44A0000000000000000000000000000
330
23A9
330
23AA
330
23AB
330
23AC
330
23AD
330
23AE
330
23AF
330
23B0
330
23B1
330
23B2
330
23B3
330
23B4
330
23B5
330
23B9
 94
        0
1001
ACAD
1000
AcRTDxfName
1000
ACIMSYSVARMAN
1000
AcRTDxfName
1000
ACIMSYSVARMAN
1000
AcRTDxfName
1000
ACIMSYSVARMAN
1000
AcRTDxfName
1000
ACIMSYSVARMAN
1000
AcRTDxfName
1000
ACIMSYSVARMAN
1000
AcRTDxfName
1000
ACIMSYSVARMAN
  0
DICTIONARY
  5
4C05
102
{ACAD_REACTORS
330
C
102
}
330
C
100
AcDbDictionary
281
     1
  0
ACAD_PROXY_OBJECT
  5
2361
102
{ACAD_REACTORS
330
C
102
}
330
C
100
AcDbProxyObject
 90
      499
 91
      530
 95
   983063
 70
     0
161
                42
310
000100004FC0
330
233F
 94
        0
1001
ACAD
1000
AcRTDxfName
1000
AM_DWGMGR_NAME
1000
AcRTDxfName
1000
AM_DWGMGR_NAME
1000
AcRTDxfName
1000
AM_DWGMGR_NAME
1000
AcRTDxfName
1000
AM_DWGMGR_NAME
1000
AcRTDxfName
1000
AM_DWGMGR_NAME
1000
AcRTDxfName
1000
AM_DWGMGR_NAME
  0
DICTIONARY
  5
2333
102
{ACAD_REACTORS
330
C
102
}
330
C
100
AcDbDictionary
281
     1
  3
AcMgSettings
350
2334
  3
AMGLAYCFG
350
23D9
  0
DICTIONARY
  5
25D9
102
{ACAD_REACTORS
330
C
102
}
330
C
100
AcDbDictionary
281
     1
  3
DIMENSION
350
25DE
  3
FEA
350
25DD
  3
HATCH (1)
350
25DA
  3
HATCH (2)
350
25DB
  3
SYMBOLS
350
25DC
  0
ACAD_PROXY_OBJECT
  5
239F
102
{ACAD_REACTORS
330
C
102
}
330
C
100
AcDbProxyObject
 90
      499
 91
      542
 95
   983063
 70
     0
161
                34
310
0400004180
1001
ACAD
1000
AcRTDxfName
1000
AMIMASTER
1000
AcRTDxfName
1000
AMIMASTER
1000
AcRTDxfName
1000
AMIMASTER
1000
AcRTDxfName
1000
AMIMASTER
1000
AcRTDxfName
1000
AMIMASTER
1000
AcRTDxfName
1000
AMIMASTER
  0
DICTIONARY
  5
50B4
102
{ACAD_REACTORS
330
C
102
}
330
C
100
AcDbDictionary
281
     1
  0
DICTIONARY
  5
B3C
102
{ACAD_REACTORS
330
C
102
}
330
C
100
AcDbDictionary
281
     1
  3
ASK_SUMMARY
350
4E3D
  3
ASKCURSC
350
B3D
  3
ASKOBJVIS
350
E23
  0
ACAD_PROXY_OBJECT
  5
236A
102
{ACAD_REACTORS
330
C
102
}
330
C
100
AcDbProxyObject
 90
      499
 91
      536
 95
   983063
 70
     0
161
               272
310
4C51E48A000000000000000000000000000000000000000000000000000000000000
330
237D
330
237E
330
237F
330
2380
330
2381
330
2382
330
2383
330
2384
330
2385
330
2386
330
2387
330
2388
330
2389
330
238A
330
238B
330
238C
330
238D
330
238E
330
238F
330
2390
330
2391
330
2392
330
2393
330
2394
330
2395
330
2396
330
2397
330
2398
330
2399
330
239A
 94
        0
1001
ACAD
1000
AcRTDxfName
1000
IM_STATIC_MAN
1000
AcRTDxfName
1000
IM_STATIC_MAN
1000
AcRTDxfName
1000
IM_STATIC_MAN
1000
AcRTDxfName
1000
IM_STATIC_MAN
1000
AcRTDxfName
1000
IM_STATIC_MAN
1000
AcRTDxfName
1000
IM_STATIC_MAN
  0
ACAD_PROXY_OBJECT
  5
23C4
102
{ACAD_REACTORS
330
C
102
}
330
C
100
AcDbProxyObject
 90
      499
 91
      555
 95
   983063
 70
     0
161
                74
310
04000048400000000000
330
23CB
330
0
330
23CC
330
0
330
0
 94
        0
1001
ACAD
1000
AcRTDxfName
1000
ACAMPROJECT
1000
AcRTDxfName
1000
ACAMPROJECT
1000
AcRTDxfName
1000
ACAMPROJECT
1000
AcRTDxfName
1000
ACAMPROJECT
1000
AcRTDxfName
1000
ACAMPROJECT
1000
AcRTDxfName
1000
ACAMPROJECT
  0
ACAD_PROXY_OBJECT
  5
236B
102
{ACAD_REACTORS
330
C
102
}
330
C
100
AcDbProxyObject
 90
      499
 91
      506
 95
   983063
 70
     0
161
               168
310
4C5114560000000000000000000000000000000000
330
236C
330
236D
330
236E
330
236F
330
2370
330
2371
330
2372
330
2373
330
2374
330
2375
330
2376
330
2377
330
2378
330
2379
330
237A
330
237B
330
237C
 94
        0
1001
ACAD
1000
AcRTDxfName
1000
ACIMSYSVARMAN
1000
AcRTDxfName
1000
ACIMSYSVARMAN
1000
AcRTDxfName
1000
ACIMSYSVARMAN
1000
AcRTDxfName
1000
ACIMSYSVARMAN
1000
AcRTDxfName
1000
ACIMSYSVARMAN
1000
AcRTDxfName
1000
ACIMSYSVARMAN
  0
ACAD_PROXY_OBJECT
  5
23BB
102
{ACAD_REACTORS
330
C
102
}
330
C
100
AcDbProxyObject
 90
      499
 91
      506
 95
   983063
 70
     0
161
                88
310
9084320000000000000000
330
23BC
330
23BD
330
23BE
330
23BF
330
23C0
330
23C1
330
23C2
330
23C3
 94
        0
1001
ACAD
1000
AcRTDxfName
1000
ACIMSYSVARMAN
1000
AcRTDxfName
1000
ACIMSYSVARMAN
1000
AcRTDxfName
1000
ACIMSYSVARMAN
1000
AcRTDxfName
1000
ACIMSYSVARMAN
1000
AcRTDxfName
1000
ACIMSYSVARMAN
1000
AcRTDxfName
1000
ACIMSYSVARMAN
  0
ACAD_PROXY_OBJECT
  5
23A1
102
{ACAD_REACTORS
330
C
102
}
330
C
100
AcDbProxyObject
 90
      499
 91
      544
 95
   983063
 70
     0
161
                 8
310
02
1001
ACAD
1000
AcRTDxfName
1000
MAPIAMMOUDLE
1000
AcRTDxfName
1000
MAPIAMMOUDLE
1000
AcRTDxfName
1000
MAPIAMMOUDLE
1000
AcRTDxfName
1000
MAPIAMMOUDLE
1000
AcRTDxfName
1000
MAPIAMMOUDLE
1000
AcRTDxfName
1000
MAPIAMMOUDLE
  0
DICTIONARY
  5
28C3
102
{ACAD_REACTORS
330
28C2
102
}
330
28C2
100
AcDbDictionary
280
     1
281
     1
  3
×
360
28C4
  3
cyan
360
28C5
  3
off
360
28C6
  3
text
360
28C7
  3
yellow
360
28C8
  3
圏央道縦断図
360
28C9
  3
圏央道排水計画縦断図
360
28CA
  0
DICTIONARY
  5
4BFF
102
{ACAD_REACTORS
330
28C2
102
}
330
28C2
100
AcDbDictionary
281
     1
  0
XRECORD
  5
4D5F
102
{ACAD_REACTORS
330
4D5E
102
}
330
4D5E
100
AcDbXrecord
280
     1
290
     1
  0
XRECORD
  5
4D61
102
{ACAD_REACTORS
330
4D60
102
}
330
4D60
100
AcDbXrecord
280
     1
290
     1
  0
XRECORD
  5
4D63
102
{ACAD_REACTORS
330
4D62
102
}
330
4D62
100
AcDbXrecord
280
     1
290
     1
  0
XRECORD
  5
4D65
102
{ACAD_REACTORS
330
4D64
102
}
330
4D64
100
AcDbXrecord
280
     1
290
     1
  0
XRECORD
  5
4D67
102
{ACAD_REACTORS
330
4D66
102
}
330
4D66
100
AcDbXrecord
280
     1
290
     1
  0
XRECORD
  5
4D69
102
{ACAD_REACTORS
330
4D68
102
}
330
4D68
100
AcDbXrecord
280
     1
290
     1
  0
XRECORD
  5
4D6B
102
{ACAD_REACTORS
330
4D6A
102
}
330
4D6A
100
AcDbXrecord
280
     1
290
     1
  0
XRECORD
  5
4D6D
102
{ACAD_REACTORS
330
4D6C
102
}
330
4D6C
100
AcDbXrecord
280
     1
290
     1
  0
XRECORD
  5
4D6E
102
{ACAD_REACTORS
330
4D3A
102
}
330
4D3A
100
AcDbXrecord
280
     1
290
     1
  0
DICTIONARY
  5
289E
102
{ACAD_REACTORS
330
53B
102
}
330
53B
100
AcDbDictionary
281
     1
  3
*A1
350
289F
  0
SORTENTSTABLE
  5
4C1B
102
{ACAD_REACTORS
330
53B
102
}
330
53B
100
AcDbSortentsTable
330
18
331
56C
  5
56C
331
AD9
  5
AD9
331
ADA
  5
ADA
331
ADB
  5
ADB
331
ADC
  5
ADC
331
ADD
  5
ADD
331
ADE
  5
ADE
331
ADF
  5
ADF
331
AE0
  5
AE0
331
AE1
  5
AE1
331
AE2
  5
AE2
331
AE3
  5
AE3
331
AE4
  5
AE4
331
AE5
  5
AE5
331
AE6
  5
AE6
331
AE7
  5
AE7
331
AE8
  5
AE8
331
AE9
  5
AE9
331
B06
  5
B06
331
B07
  5
B07
331
B08
  5
B08
331
B09
  5
B09
331
B0A
  5
B0A
331
B0C
  5
B0C
331
B0D
  5
B0D
331
B10
  5
B10
331
B18
  5
B18
331
B19
  5
B19
331
B1C
  5
B1C
331
B1D
  5
B1D
331
B1E
  5
B1E
331
B1F
  5
B1F
331
B21
  5
B21
331
B22
  5
B22
331
C69
  5
C69
331
CFE
  5
CFE
331
D07
  5
D07
331
D87
  5
D87
331
D88
  5
D88
331
D89
  5
D89
331
D8B
  5
D8B
331
DF7
  5
DF7
331
E45
  5
E45
331
E46
  5
E46
331
E47
  5
E47
331
E48
  5
E48
331
E49
  5
E49
331
E4A
  5
E4A
331
E4B
  5
E4B
331
E4C
  5
E4C
331
E4E
  5
E4E
331
E4F
  5
E4F
331
E50
  5
E50
331
E51
  5
E51
331
E52
  5
E52
331
E53
  5
E53
331
E54
  5
E54
331
E56
  5
E56
331
E81
  5
E81
331
E84
  5
E84
331
E85
  5
E85
331
E88
  5
E88
331
E8C
  5
E8C
331
E96
  5
E96
331
E97
  5
E97
331
E98
  5
E98
331
EAE
  5
EAE
331
144F
  5
144F
331
1450
  5
1450
331
1451
  5
1451
331
1452
  5
1452
331
1453
  5
1453
331
1454
  5
1454
331
1455
  5
1455
331
1456
  5
1456
331
1457
  5
1457
331
1458
  5
1458
331
145A
  5
145A
331
145B
  5
145B
331
145C
  5
145C
331
145D
  5
145D
331
145E
  5
145E
331
145F
  5
145F
331
1460
  5
1460
331
1461
  5
1461
331
2235
  5
2235
331
4A74
  5
4A74
331
4A77
  5
4A77
331
4A78
  5
4A78
331
4A79
  5
4A79
331
4A7A
  5
4A7A
331
4A7B
  5
4A7B
331
4A7C
  5
4A7C
331
4A7D
  5
4A7D
331
4A7E
  5
4A7E
331
4A80
  5
4A80
331
4A81
  5
4A81
331
4A82
  5
4A82
331
4A86
  5
4A86
331
4A95
  5
4A95
331
4AA3
  5
4AA3
331
4AB1
  5
4AB1
331
4AC1
  5
4AC1
331
4AC2
  5
4AC2
331
4AC7
  5
4AC7
331
4AC8
  5
4AC8
331
4ACB
  5
4ACB
331
4AE6
  5
4AE6
331
4AE7
  5
4AE7
331
4AE8
  5
4AE8
331
4AEA
  5
4AEA
331
4AEB
  5
4AEB
331
4AEC
  5
4AEC
331
4AED
  5
4AED
331
4AEE
  5
4AEE
331
4AEF
  5
4AEF
331
4AF8
  5
4AF8
331
4AF9
  5
4AF9
331
4AFA
  5
4AFA
331
4AFD
  5
4AFD
331
4B0B
  5
4B0B
331
4B13
  5
4B13
331
4B7E
  5
4B7E
331
4B83
  5
4B83
331
4B86
  5
4B86
331
4B87
  5
4B87
331
4B88
  5
4B88
331
4B89
  5
4B89
331
4B8A
  5
4B8A
331
4B8B
  5
4B8B
331
4B8E
  5
4B8E
331
4B8F
  5
4B8F
331
4B90
  5
4B90
331
4B91
  5
4B91
331
4B92
  5
4B92
331
4B93
  5
4B93
331
4B94
  5
4B94
331
4B95
  5
4B95
331
4B97
  5
4B97
331
4B98
  5
4B98
331
4B99
  5
4B99
331
4B9A
  5
4B9A
331
4B9B
  5
4B9B
331
4B9C
  5
4B9C
331
4B9D
  5
4B9D
331
4B9E
  5
4B9E
331
4B9F
  5
4B9F
331
4BA0
  5
4BA0
331
4BA1
  5
4BA1
331
4BA2
  5
4BA2
331
4BA3
  5
4BA3
331
4BA4
  5
4BA4
331
4BA5
  5
4BA5
331
4BA6
  5
4BA6
331
4BAF
  5
4BAF
331
4BB0
  5
4BB0
331
4BB1
  5
4BB1
331
4BB2
  5
4BB2
331
4BB3
  5
4BB3
331
4BB4
  5
4BB4
331
4BB5
  5
4BB5
331
4BB6
  5
4BB6
331
4BB7
  5
4BB7
331
4BBF
  5
4BD2
331
4BC0
  5
4BD8
331
4BC1
  5
4BD9
331
4BCB
  5
4BDA
331
4BCC
  5
4BDB
331
4BCD
  5
4BDE
331
4BCE
  5
4BE0
331
4BD2
  5
4BE2
331
4BD8
  5
4BEB
331
4BD9
  5
4BEC
331
4BDA
  5
4BEE
331
4BDB
  5
4BEF
331
4BDE
  5
4BF4
331
4BE0
  5
4BF5
331
4BE2
  5
4BFA
331
4BE6
  5
4BFB
331
4BEB
  5
4C12
331
4BEC
  5
4C13
331
4BEE
  5
4C17
331
4BEF
  5
4C18
331
4BF4
  5
4C19
331
4BF5
  5
4C1A
331
4BFA
  5
4C1C
331
4BFB
  5
4C1D
331
4C12
  5
4C1E
331
4C13
  5
4C1F
331
4C17
  5
4C3B
331
4C18
  5
4C3C
331
4C3A
  5
4BCE
331
4C41
  5
4BE6
  0
SORTENTSTABLE
  5
4D25
102
{ACAD_REACTORS
330
4D24
102
}
330
4D24
100
AcDbSortentsTable
330
4D21
  0
LAYOUT
  5
5DE
102
{ACAD_REACTORS
330
5DC
102
}
330
5DC
100
AcDbPlotSettings
  1

  2
RICOH imagio MP C5000 RPCS
  4
A3
  6

 40
5.873749732971191
 41
5.873748779296875
 42
5.873748779296875
 43
5.873748779296875
 44
296.9259948730469
 45
419.9466552734375
 46
1.514248180389387
 47
4.599578857421847
 48
105.0
 49
74.25
140
4095.0
141
2895.75
142
1.0
143
10.0
 70
  3748
 72
     1
 73
     1
 74
     4
  7
モノクロ.ctb
 75
     0
 76
     1
 77
     2
 78
   300
147
0.1010733639414421
148
-105.0
149
-74.25
100
AcDbLayout
  1
Model
 70
     1
 71
     0
 10
0.0
 20
0.0
 11
12.0
 21
9.0
 12
0.0
 22
0.0
 32
0.0
 14
0.0
 24
0.0
 34
0.0
 15
0.0
 25
0.0
 35
0.0
146
0.0
 13
0.0
 23
0.0
 33
0.0
 16
1.0
 26
0.0
 36
0.0
 17
0.0
 27
1.0
 37
0.0
 76
     0
330
18
331
4A15
1001
ACAD_PSEXT
1000
RICOH imagio MP C5000 RPCS
1000
RICOH imagio MP C5000 RPCS
1000
IP_192.168.1.235
1000
RPCS Driver (Windows XP/2003/2008/Vista/7 64-bit)
1070
     0
  0
LAYOUT
  5
5DF
102
{ACAD_REACTORS
330
5DC
102
}
330
5DC
100
AcDbPlotSettings
  1

  2
EPSON LP-8200
  4

  6

 40
0.0
 41
0.0
 42
0.0
 43
0.0
 44
0.0
 45
0.0
 46
0.0
 47
0.0
 48
0.0
 49
0.0
140
0.0
141
0.0
142
1.0
143
1.0
 70
   688
 72
     0
 73
     0
 74
     5
  7

 75
    16
 76
     0
 77
     2
 78
   300
147
1.0
148
0.0
149
0.0
100
AcDbLayout
  1
ﾚｲｱｳﾄ1
 70
     0
 71
     1
 10
0.0
 20
0.0
 11
12.0
 21
9.0
 12
0.0
 22
0.0
 32
0.0
 14
1.000000000000000E+20
 24
1.000000000000000E+20
 34
1.000000000000000E+20
 15
-1.000000000000000E+20
 25
-1.000000000000000E+20
 35
-1.000000000000000E+20
146
0.0
 13
0.0
 23
0.0
 33
0.0
 16
1.0
 26
0.0
 36
0.0
 17
0.0
 27
1.0
 37
0.0
 76
     0
330
15
  0
MATERIAL
  5
4A20
102
{ACAD_REACTORS
330
4A17
102
}
330
4A17
100
AcDbMaterial
  1
ByBlock
 72
     0
 73
     2
 43
0.0208333333333333
 43
0.0
 43
0.0
 43
0.0
 43
0.0
 43
0.0208333333333333
 43
0.0
 43
0.0
 43
0.0
 43
0.0
 43
1.0
 43
0.0
 43
0.0
 43
0.0
 43
0.0
 43
1.0
 77
     0
 78
     2
 47
0.0208333333333333
 47
0.0
 47
0.0
 47
0.0
 47
0.0
 47
0.0208333333333333
 47
0.0
 47
0.0
 47
0.0
 47
0.0
 47
1.0
 47
0.0
 47
0.0
 47
0.0
 47
0.0
 47
1.0
171
     0
172
     2
 49
0.0208333333333333
 49
0.0
 49
0.0
 49
0.0
 49
0.0
 49
0.0208333333333333
 49
0.0
 49
0.0
 49
0.0
 49
0.0
 49
1.0
 49
0.0
 49
0.0
 49
0.0
 49
0.0
 49
1.0
175
     0
176
     2
142
0.0208333333333333
142
0.0
142
0.0
142
0.0
142
0.0
142
0.0208333333333333
142
0.0
142
0.0
142
0.0
142
0.0
142
1.0
142
0.0
142
0.0
142
0.0
142
0.0
142
1.0
179
     0
270
     2
144
0.0208333333333333
144
0.0
144
0.0
144
0.0
144
0.0
144
0.0208333333333333
144
0.0
144
0.0
144
0.0
144
0.0
144
1.0
144
0.0
144
0.0
144
0.0
144
0.0
144
1.0
274
     2
147
0.0208333333333333
147
0.0
147
0.0
147
0.0
147
0.0
147
0.0208333333333333
147
0.0
147
0.0
147
0.0
147
0.0
147
1.0
147
0.0
147
0.0
147
0.0
147
0.0
147
1.0
 94
      127
  0
MATERIAL
  5
4A18
102
{ACAD_REACTORS
330
4A17
102
}
330
4A17
100
AcDbMaterial
  1
ByLayer
 72
     0
 73
     2
 43
0.0208333333333333
 43
0.0
 43
0.0
 43
0.0
 43
0.0
 43
0.0208333333333333
 43
0.0
 43
0.0
 43
0.0
 43
0.0
 43
1.0
 43
0.0
 43
0.0
 43
0.0
 43
0.0
 43
1.0
 77
     0
 78
     2
 47
0.0208333333333333
 47
0.0
 47
0.0
 47
0.0
 47
0.0
 47
0.0208333333333333
 47
0.0
 47
0.0
 47
0.0
 47
0.0
 47
1.0
 47
0.0
 47
0.0
 47
0.0
 47
0.0
 47
1.0
171
     0
172
     2
 49
0.0208333333333333
 49
0.0
 49
0.0
 49
0.0
 49
0.0
 49
0.0208333333333333
 49
0.0
 49
0.0
 49
0.0
 49
0.0
 49
1.0
 49
0.0
 49
0.0
 49
0.0
 49
0.0
 49
1.0
175
     0
176
     2
142
0.0208333333333333
142
0.0
142
0.0
142
0.0
142
0.0
142
0.0208333333333333
142
0.0
142
0.0
142
0.0
142
0.0
142
1.0
142
0.0
142
0.0
142
0.0
142
0.0
142
1.0
179
     0
270
     2
144
0.0208333333333333
144
0.0
144
0.0
144
0.0
144
0.0
144
0.0208333333333333
144
0.0
144
0.0
144
0.0
144
0.0
144
1.0
144
0.0
144
0.0
144
0.0
144
0.0
144
1.0
274
     2
147
0.0208333333333333
147
0.0
147
0.0
147
0.0
147
0.0
147
0.0208333333333333
147
0.0
147
0.0
147
0.0
147
0.0
147
1.0
147
0.0
147
0.0
147
0.0
147
0.0
147
1.0
 94
      127
  0
MATERIAL
  5
4A28
102
{ACAD_REACTORS
330
4A17
102
}
330
4A17
100
AcDbMaterial
  1
Global
 72
     0
 73
     2
 43
0.0208333333333333
 43
0.0
 43
0.0
 43
0.0
 43
0.0
 43
0.0208333333333333
 43
0.0
 43
0.0
 43
0.0
 43
0.0
 43
1.0
 43
0.0
 43
0.0
 43
0.0
 43
0.0
 43
1.0
 77
     0
 78
     2
 47
0.0208333333333333
 47
0.0
 47
0.0
 47
0.0
 47
0.0
 47
0.0208333333333333
 47
0.0
 47
0.0
 47
0.0
 47
0.0
 47
1.0
 47
0.0
 47
0.0
 47
0.0
 47
0.0
 47
1.0
171
     0
172
     2
 49
0.0208333333333333
 49
0.0
 49
0.0
 49
0.0
 49
0.0
 49
0.0208333333333333
 49
0.0
 49
0.0
 49
0.0
 49
0.0
 49
1.0
 49
0.0
 49
0.0
 49
0.0
 49
0.0
 49
1.0
175
     0
176
     2
142
0.0208333333333333
142
0.0
142
0.0
142
0.0
142
0.0
142
0.0208333333333333
142
0.0
142
0.0
142
0.0
142
0.0
142
1.0
142
0.0
142
0.0
142
0.0
142
0.0
142
1.0
179
     0
270
     2
144
0.0208333333333333
144
0.0
144
0.0
144
0.0
144
0.0
144
0.0208333333333333
144
0.0
144
0.0
144
0.0
144
0.0
144
1.0
144
0.0
144
0.0
144
0.0
144
0.0
144
1.0
274
     2
147
0.0208333333333333
147
0.0
147
0.0
147
0.0
147
0.0
147
0.0208333333333333
147
0.0
147
0.0
147
0.0
147
0.0
147
1.0
147
0.0
147
0.0
147
0.0
147
0.0
147
1.0
 94
      127
  0
MLEADERSTYLE
  5
4A5F
102
{ACAD_REACTORS
330
4A5E
102
}
330
4A5E
100
AcDbMLeaderStyle
179
     2
170
     2
171
     1
172
     0
 90
        2
 40
0.0
 41
0.0
173
     1
 91
-1056964608
340
12
 92
       -2
290
     1
 42
0.09
291
     1
 43
0.36
  3
Standard
341
0
 44
0.18
300

342
10
174
     1
178
     6
175
     1
176
     0
 93
-1056964608
 45
0.18
292
     0
297
     0
 46
0.18
343
0
 94
-1056964608
 47
1.0
 49
1.0
140
1.0
293
     1
141
0.0
294
     1
177
     0
142
1.0
295
     0
296
     0
143
0.125
271
     0
272
     9
273
     9
  0
MLINESTYLE
  5
1B
102
{ACAD_REACTORS
330
E
102
}
330
E
100
AcDbMlineStyle
  2
STANDARD
 70
     0
  3

 62
     0
 51
90.0
 52
90.0
 71
     2
 49
0.5
 62
   256
  6
BYLAYER
 49
-0.5
 62
   256
  6
BYLAYER
  0
PLOTSETTINGS
  5
5FF
102
{ACAD_REACTORS
330
5DD
102
}
330
5DD
100
AcDbPlotSettings
  1
DJ750C(A1)カラー
  2
HP DesignJet 750C (C3195A)
  4
User267
  6
V0
 40
4.995333194732666
 41
16.93330574035645
 42
4.99530029296875
 43
16.933349609375
 44
593.9366455078125
 45
840.8246459960938
 46
0.0
 47
0.0
 48
0.0
 49
0.0
140
0.0
141
0.0
142
1.0
143
1.0
 70
  1712
 72
     1
 73
     1
 74
     2
  7
カラー.ctb
 75
    16
 76
     0
 77
     2
 78
   300
147
1.0
148
0.0
149
0.0
  0
PLOTSETTINGS
  5
600
102
{ACAD_REACTORS
330
5DD
102
}
330
5DD
100
AcDbPlotSettings
  1
DJ750C(A1)モノクロ
  2
HP DesignJet 750C (C3195A)
  4
User267
  6
V0
 40
4.995333194732666
 41
16.93330574035645
 42
4.99530029296875
 43
16.933349609375
 44
593.9366455078125
 45
840.8246459960938
 46
0.0
 47
0.0
 48
0.0
 49
0.0
140
0.0
141
0.0
142
1.0
143
1.0
 70
  1712
 72
     1
 73
     1
 74
     2
  7
モノクロ.ctb
 75
    16
 76
     0
 77
     2
 78
   300
147
1.0
148
0.0
149
0.0
  0
PLOTSETTINGS
  5
601
102
{ACAD_REACTORS
330
5DD
102
}
330
5DD
100
AcDbPlotSettings
  1
DJ750C(A2)カラー
  2
HP DesignJet 750C (C3195A)
  4
User1290
  6
V0
 40
4.995333194732666
 41
16.93333625793457
 42
4.99530029296875
 43
16.93331909179688
 44
593.9366455078125
 45
419.8619995117188
 46
0.0
 47
0.0
 48
0.0
 49
0.0
140
0.0
141
0.0
142
1.0
143
1.0
 70
  1712
 72
     1
 73
     0
 74
     2
  7
カラー.ctb
 75
    16
 76
     0
 77
     2
 78
   300
147
1.0
148
0.0
149
0.0
  0
PLOTSETTINGS
  5
602
102
{ACAD_REACTORS
330
5DD
102
}
330
5DD
100
AcDbPlotSettings
  1
DJ750C(A2)モノクロ
  2
HP DesignJet 750C (C3195A)
  4
User1290
  6
V0
 40
4.995333194732666
 41
16.93333625793457
 42
4.99530029296875
 43
16.93331909179688
 44
593.9366455078125
 45
419.8619995117188
 46
0.0
 47
0.0
 48
0.0
 49
0.0
140
0.0
141
0.0
142
1.0
143
1.0
 70
  1712
 72
     1
 73
     0
 74
     2
  7
モノクロ.ctb
 75
    16
 76
     0
 77
     2
 78
   300
147
1.0
148
0.0
149
0.0
  0
PLOTSETTINGS
  5
F00
102
{ACAD_REACTORS
330
5DD
102
}
330
5DD
100
AcDbPlotSettings
  1
LP8200(A3)
  2
EPSON LP-8200.pc3
  4
A3
  6
V0
 40
5.873749732971191
 41
5.873747825622559
 42
5.873748779296875
 43
5.873748779296875
 44
419.9466552734375
 45
297.0106506347656
 46
0.0
 47
0.0
 48
0.0
 49
0.0
140
0.0
141
0.0
142
1.0
143
1.0
 70
  1712
 72
     1
 73
     0
 74
     2
  7
モノクロ.ctb
 75
    16
 76
     0
 77
     2
 78
   300
147
1.0
148
0.0
149
0.0
  0
PLOTSETTINGS
  5
604
102
{ACAD_REACTORS
330
5DD
102
}
330
5DD
100
AcDbPlotSettings
  1
NEC(A3)
  2
NEC PICTY4000 Printer
  4
A3
  6
V0
 40
5.873749732971191
 41
13.7477388381958
 42
5.450408935546875
 43
3.757080078125
 44
296.9259948730469
 45
419.9466552734375
 46
0.0
 47
0.0
 48
0.0
 49
0.0
140
0.0
141
0.0
142
1.0
143
1.0
 70
  1712
 72
     1
 73
     1
 74
     2
  7
カラー.ctb
 75
    16
 76
     0
 77
     2
 78
   300
147
1.0
148
0.0
149
0.0
  0
PLOTSETTINGS
  5
605
102
{ACAD_REACTORS
330
5DD
102
}
330
5DD
100
AcDbPlotSettings
  1
NEC(A4)
  2
NEC PICTY4000 Printer
  4
A4
  6
V0
 40
4.180416584014893
 41
13.7477388381958
 42
4.180404663085938
 43
3.757080078125
 44
209.9733276367188
 45
296.9259948730469
 46
0.0
 47
0.0
 48
0.0
 49
0.0
140
0.0
141
0.0
142
1.0
143
1.0
 70
  1712
 72
     1
 73
     1
 74
     2
  7
カラー.ctb
 75
    16
 76
     0
 77
     2
 78
   300
147
1.0
148
0.0
149
0.0
  0
ACDBPLACEHOLDER
  5
5DB
102
{ACAD_REACTORS
330
5DA
102
}
330
5DA
  0
SCALE
  5
4A4D
102
{ACAD_REACTORS
330
4A4C
102
}
330
4A4C
100
AcDbScale
 70
     0
300
1:1
140
1.0
141
1.0
290
     1
  0
SCALE
  5
4A4E
102
{ACAD_REACTORS
330
4A4C
102
}
330
4A4C
100
AcDbScale
 70
     0
300
1/128" = 1'-0"
140
0.0078125
141
12.0
290
     0
  0
SCALE
  5
4A4F
102
{ACAD_REACTORS
330
4A4C
102
}
330
4A4C
100
AcDbScale
 70
     0
300
1/64" = 1'-0"
140
0.015625
141
12.0
290
     0
  0
SCALE
  5
4A50
102
{ACAD_REACTORS
330
4A4C
102
}
330
4A4C
100
AcDbScale
 70
     0
300
1/32" = 1'-0"
140
0.03125
141
12.0
290
     0
  0
SCALE
  5
4A51
102
{ACAD_REACTORS
330
4A4C
102
}
330
4A4C
100
AcDbScale
 70
     0
300
1/16" = 1'-0"
140
0.0625
141
12.0
290
     0
  0
SCALE
  5
4A52
102
{ACAD_REACTORS
330
4A4C
102
}
330
4A4C
100
AcDbScale
 70
     0
300
3/32" = 1'-0"
140
0.09375
141
12.0
290
     0
  0
SCALE
  5
4A53
102
{ACAD_REACTORS
330
4A4C
102
}
330
4A4C
100
AcDbScale
 70
     0
300
1/8" = 1'-0"
140
0.125
141
12.0
290
     0
  0
SCALE
  5
4A54
102
{ACAD_REACTORS
330
4A4C
102
}
330
4A4C
100
AcDbScale
 70
     0
300
3/16" = 1'-0"
140
0.1875
141
12.0
290
     0
  0
SCALE
  5
4A55
102
{ACAD_REACTORS
330
4A4C
102
}
330
4A4C
100
AcDbScale
 70
     0
300
1/4" = 1'-0"
140
0.25
141
12.0
290
     0
  0
SCALE
  5
4A56
102
{ACAD_REACTORS
330
4A4C
102
}
330
4A4C
100
AcDbScale
 70
     0
300
3/8" = 1'-0"
140
0.375
141
12.0
290
     0
  0
SCALE
  5
4A57
102
{ACAD_REACTORS
330
4A4C
102
}
330
4A4C
100
AcDbScale
 70
     0
300
1/2" = 1'-0"
140
0.5
141
12.0
290
     0
  0
SCALE
  5
4A58
102
{ACAD_REACTORS
330
4A4C
102
}
330
4A4C
100
AcDbScale
 70
     0
300
3/4" = 1'-0"
140
0.75
141
12.0
290
     0
  0
SCALE
  5
4A59
102
{ACAD_REACTORS
330
4A4C
102
}
330
4A4C
100
AcDbScale
 70
     0
300
1" = 1'-0"
140
1.0
141
12.0
290
     0
  0
SCALE
  5
4A5A
102
{ACAD_REACTORS
330
4A4C
102
}
330
4A4C
100
AcDbScale
 70
     0
300
1-1/2" = 1'-0"
140
1.5
141
12.0
290
     0
  0
SCALE
  5
4A5B
102
{ACAD_REACTORS
330
4A4C
102
}
330
4A4C
100
AcDbScale
 70
     0
300
3" = 1'-0"
140
3.0
141
12.0
290
     0
  0
SCALE
  5
4A5C
102
{ACAD_REACTORS
330
4A4C
102
}
330
4A4C
100
AcDbScale
 70
     0
300
6" = 1'-0"
140
6.0
141
12.0
290
     0
  0
SCALE
  5
4A5D
102
{ACAD_REACTORS
330
4A4C
102
}
330
4A4C
100
AcDbScale
 70
     0
300
1'-0" = 1'-0"
140
12.0
141
12.0
290
     0
  0
TABLESTYLE
  5
4A4B
102
{ACAD_REACTORS
330
4A4A
102
}
102
{ACAD_XDICTIONARY
360
50BC
102
}
330
4A4A
100
AcDbTableStyle
  3
Standard
 70
     0
 71
     0
 40
0.06
 41
0.06
280
     0
281
     0
  7
STANDARD
140
0.18
170
     2
 62
     0
 63
   257
283
     0
 90
      512
 91
        0
  1

274
    -2
284
     1
 64
     0
275
    -2
285
     1
 65
     0
276
    -2
286
     1
 66
     0
277
    -2
287
     1
 67
     0
278
    -2
288
     1
 68
     0
279
    -2
289
     1
 69
     0
  7
STANDARD
140
0.25
170
     5
 62
     0
 63
   257
283
     0
 90
      512
 91
        0
  1

274
    -2
284
     1
 64
     0
275
    -2
285
     1
 65
     0
276
    -2
286
     1
 66
     0
277
    -2
287
     1
 67
     0
278
    -2
288
     1
 68
     0
279
    -2
289
     1
 69
     0
  7
STANDARD
140
0.18
170
     5
 62
     0
 63
   257
283
     0
 90
      512
 91
        0
  1

274
    -2
284
     1
 64
     0
275
    -2
285
     1
 65
     0
276
    -2
286
     1
 66
     0
277
    -2
287
     1
 67
     0
278
    -2
288
     1
 68
     0
279
    -2
289
     1
 69
     0
  0
VISUALSTYLE
  5
4A36
102
{ACAD_REACTORS
330
4A30
102
}
330
4A30
100
AcDbVisualStyle
  2
2dWireframe
 70
     4
177
     2
291
     0
 71
     0
176
     1
 72
     2
176
     1
 73
     0
176
     1
 90
        0
176
     1
 40
-0.6
176
     1
 41
-30.0
176
     1
 62
     5
 63
     7
176
     1
 74
     1
176
     1
 91
        4
176
     1
 64
     7
176
     1
 65
   257
176
     1
 75
     1
176
     1
175
     1
176
     1
 42
1.0
176
     1
 92
        0
176
     1
 66
   257
176
     1
 43
1.0
176
     1
 76
     1
176
     1
 77
     6
176
     1
 78
     2
176
     1
 67
     7
176
     1
 79
     5
176
     1
170
     0
176
     1
171
     0
176
     1
290
     0
176
     1
 93
        1
176
     1
 44
0.0
176
     1
173
     0
176
     1
  0
VISUALSTYLE
  5
4A35
102
{ACAD_REACTORS
330
4A30
102
}
330
4A30
100
AcDbVisualStyle
  2
Basic
 70
     7
177
     2
291
     1
 71
     1
176
     1
 72
     0
176
     1
 73
     1
176
     1
 90
        0
176
     1
 40
-0.6
176
     1
 41
-30.0
176
     1
 62
     5
 63
     7
176
     1
 74
     0
176
     1
 91
        4
176
     1
 64
     7
176
     1
 65
   257
176
     1
 75
     1
176
     1
175
     1
176
     1
 42
1.0
176
     1
 92
        8
176
     1
 66
     7
176
     1
 43
1.0
176
     1
 76
     1
176
     1
 77
     6
176
     1
 78
     2
176
     1
 67
     7
176
     1
 79
     5
176
     1
170
     0
176
     1
171
     0
176
     1
290
     0
176
     1
 93
        1
176
     1
 44
0.0
176
     1
173
     0
176
     1
  0
VISUALSTYLE
  5
4A3C
102
{ACAD_REACTORS
330
4A30
102
}
330
4A30
100
AcDbVisualStyle
  2
Brighten
 70
    12
177
     2
291
     1
 71
     2
176
     1
 72
     2
176
     1
 73
     0
176
     1
 90
        0
176
     1
 40
-0.6
176
     1
 41
-30.0
176
     1
 62
     5
 63
     7
176
     1
 74
     1
176
     1
 91
        4
176
     1
 64
     7
176
     1
 65
   257
176
     1
 75
     1
176
     1
175
     1
176
     1
 42
1.0
176
     1
 92
        8
176
     1
 66
     7
176
     1
 43
1.0
176
     1
 76
     1
176
     1
 77
     6
176
     1
 78
     2
176
     1
 67
     7
176
     1
 79
     5
176
     1
170
     0
176
     1
171
     0
176
     1
290
     0
176
     1
 93
        1
176
     1
 44
50.0
176
     1
173
     0
176
     1
  0
VISUALSTYLE
  5
4A40
102
{ACAD_REACTORS
330
4A30
102
}
330
4A30
100
AcDbVisualStyle
  2
ColorChange
 70
    16
177
     2
291
     1
 71
     2
176
     1
 72
     2
176
     1
 73
     3
176
     1
 90
        0
176
     1
 40
-0.6
176
     1
 41
-30.0
176
     1
 62
     5
 63
     8
176
     1
 74
     1
176
     1
 91
        4
176
     1
 64
     7
176
     1
 65
   257
176
     1
 75
     1
176
     1
175
     1
176
     1
 42
1.0
176
     1
 92
        8
176
     1
 66
     8
176
     1
 43
1.0
176
     1
 76
     1
176
     1
 77
     6
176
     1
 78
     2
176
     1
 67
     7
176
     1
 79
     5
176
     1
170
     0
176
     1
171
     0
176
     1
290
     0
176
     1
 93
        1
176
     1
 44
0.0
176
     1
173
     0
176
     1
  0
VISUALSTYLE
  5
4A39
102
{ACAD_REACTORS
330
4A30
102
}
330
4A30
100
AcDbVisualStyle
  2
Conceptual
 70
     9
177
     2
291
     0
 71
     3
176
     1
 72
     2
176
     1
 73
     0
176
     1
 90
        0
176
     1
 40
-0.6
176
     1
 41
-30.0
176
     1
 62
     5
 63
     7
176
     1
 74
     2
176
     1
 91
        2
176
     1
 64
     7
176
     1
 65
   257
176
     1
 75
     1
176
     1
175
     1
176
     1
 42
179.0
176
     1
 92
        8
176
     1
 66
     7
176
     1
 43
1.0
176
     1
 76
     1
176
     1
 77
     6
176
     1
 78
     2
176
     1
 67
     7
176
     1
 79
     3
176
     1
170
     0
176
     1
171
     0
176
     1
290
     0
176
     1
 93
        1
176
     1
 44
0.0
176
     1
173
     0
176
     1
  0
VISUALSTYLE
  5
4A3B
102
{ACAD_REACTORS
330
4A30
102
}
330
4A30
100
AcDbVisualStyle
  2
Dim
 70
    11
177
     2
291
     1
 71
     2
176
     1
 72
     2
176
     1
 73
     0
176
     1
 90
        0
176
     1
 40
-0.6
176
     1
 41
-30.0
176
     1
 62
     5
 63
     7
176
     1
 74
     1
176
     1
 91
        4
176
     1
 64
     7
176
     1
 65
   257
176
     1
 75
     1
176
     1
175
     1
176
     1
 42
1.0
176
     1
 92
        8
176
     1
 66
     7
176
     1
 43
1.0
176
     1
 76
     1
176
     1
 77
     6
176
     1
 78
     2
176
     1
 67
     7
176
     1
 79
     5
176
     1
170
     0
176
     1
171
     0
176
     1
290
     0
176
     1
 93
        1
176
     1
 44
-50.0
176
     1
173
     0
176
     1
  0
VISUALSTYLE
  5
4A48
102
{ACAD_REACTORS
330
4A30
102
}
330
4A30
100
AcDbVisualStyle
  2
EdgeColorOff
 70
    22
177
     2
291
     1
 71
     2
176
     0
 72
     2
176
     0
 73
     0
176
     0
 90
        0
176
     0
 40
-0.6
176
     0
 41
-30.0
176
     0
 62
     5
 63
     7
176
     0
 74
     1
176
     0
 91
        4
176
     0
 64
     7
176
     0
 65
   257
176
     0
 75
     1
176
     0
175
     1
176
     0
 42
1.0
176
     0
 92
        8
176
     2
 66
     7
176
     0
 43
1.0
176
     0
 76
     1
176
     0
 77
     6
176
     0
 78
     2
176
     0
 67
     7
176
     0
 79
     5
176
     0
170
     0
176
     0
171
     0
176
     0
290
     0
176
     0
 93
        1
176
     0
 44
0.0
176
     0
173
     0
176
     0
  0
VISUALSTYLE
  5
4A3F
102
{ACAD_REACTORS
330
4A30
102
}
330
4A30
100
AcDbVisualStyle
  2
Facepattern
 70
    15
177
     2
291
     1
 71
     2
176
     1
 72
     2
176
     1
 73
     0
176
     1
 90
        0
176
     1
 40
-0.6
176
     1
 41
-30.0
176
     1
 62
     5
 63
     7
176
     1
 74
     1
176
     1
 91
        4
176
     1
 64
     7
176
     1
 65
   257
176
     1
 75
     1
176
     1
175
     1
176
     1
 42
1.0
176
     1
 92
        8
176
     1
 66
     7
176
     1
 43
1.0
176
     1
 76
     1
176
     1
 77
     6
176
     1
 78
     2
176
     1
 67
     7
176
     1
 79
     5
176
     1
170
     0
176
     1
171
     0
176
     1
290
     0
176
     1
 93
        1
176
     1
 44
0.0
176
     1
173
     0
176
     1
  0
VISUALSTYLE
  5
4A31
102
{ACAD_REACTORS
330
4A30
102
}
330
4A30
100
AcDbVisualStyle
  2
Flat
 70
     0
177
     2
291
     1
 71
     2
176
     1
 72
     1
176
     1
 73
     1
176
     1
 90
        2
176
     1
 40
-0.6
176
     1
 41
30.0
176
     1
 62
     5
 63
     7
176
     1
 74
     0
176
     1
 91
        0
176
     1
 64
     7
176
     1
 65
   257
176
     1
 75
     1
176
     1
175
     1
176
     1
 42
1.0
176
     1
 92
        8
176
     1
 66
     7
176
     1
 43
1.0
176
     1
 76
     1
176
     1
 77
     6
176
     1
 78
     2
176
     1
 67
     7
176
     1
 79
     5
176
     1
170
     0
176
     1
171
     0
176
     1
290
     0
176
     1
 93
       13
176
     1
 44
0.0
176
     1
173
     0
176
     1
  0
VISUALSTYLE
  5
4A32
102
{ACAD_REACTORS
330
4A30
102
}
330
4A30
100
AcDbVisualStyle
  2
FlatWithEdges
 70
     1
177
     2
291
     1
 71
     2
176
     1
 72
     1
176
     1
 73
     1
176
     1
 90
        2
176
     1
 40
-0.6
176
     1
 41
30.0
176
     1
 62
     5
 63
     7
176
     1
 74
     1
176
     1
 91
        0
176
     1
 64
     7
176
     1
 65
   257
176
     1
 75
     1
176
     1
175
     1
176
     1
 42
1.0
176
     1
 92
        0
176
     1
 66
   257
176
     1
 43
1.0
176
     1
 76
     1
176
     1
 77
     6
176
     1
 78
     2
176
     1
 67
     7
176
     1
 79
     5
176
     1
170
     0
176
     1
171
     0
176
     1
290
     0
176
     1
 93
       13
176
     1
 44
0.0
176
     1
173
     0
176
     1
  0
VISUALSTYLE
  5
4A33
102
{ACAD_REACTORS
330
4A30
102
}
330
4A30
100
AcDbVisualStyle
  2
Gouraud
 70
     2
177
     2
291
     1
 71
     2
176
     1
 72
     2
176
     1
 73
     1
176
     1
 90
        2
176
     1
 40
-0.6
176
     1
 41
30.0
176
     1
 62
     5
 63
     7
176
     1
 74
     0
176
     1
 91
        0
176
     1
 64
     7
176
     1
 65
   257
176
     1
 75
     1
176
     1
175
     1
176
     1
 42
1.0
176
     1
 92
        0
176
     1
 66
     7
176
     1
 43
1.0
176
     1
 76
     1
176
     1
 77
     6
176
     1
 78
     2
176
     1
 67
     7
176
     1
 79
     5
176
     1
170
     0
176
     1
171
     0
176
     1
290
     0
176
     1
 93
       13
176
     1
 44
0.0
176
     1
173
     0
176
     1
  0
VISUALSTYLE
  5
4A34
102
{ACAD_REACTORS
330
4A30
102
}
330
4A30
100
AcDbVisualStyle
  2
GouraudWithEdges
 70
     3
177
     2
291
     1
 71
     2
176
     1
 72
     2
176
     1
 73
     1
176
     1
 90
        2
176
     1
 40
-0.6
176
     1
 41
30.0
176
     1
 62
     5
 63
     7
176
     1
 74
     1
176
     1
 91
        0
176
     1
 64
     7
176
     1
 65
   257
176
     1
 75
     1
176
     1
175
     1
176
     1
 42
1.0
176
     1
 92
        0
176
     1
 66
   257
176
     1
 43
1.0
176
     1
 76
     1
176
     1
 77
     6
176
     1
 78
     2
176
     1
 67
     7
176
     1
 79
     5
176
     1
170
     0
176
     1
171
     0
176
     1
290
     0
176
     1
 93
       13
176
     1
 44
0.0
176
     1
173
     0
176
     1
  0
VISUALSTYLE
  5
4A38
102
{ACAD_REACTORS
330
4A30
102
}
330
4A30
100
AcDbVisualStyle
  2
Hidden
 70
     6
177
     2
291
     0
 71
     1
176
     1
 72
     2
176
     1
 73
     2
176
     1
 90
        0
176
     1
 40
-0.6
176
     1
 41
-30.0
176
     1
 62
     5
 63
     7
176
     1
 74
     2
176
     1
 91
        2
176
     1
 64
     7
176
     1
 65
   257
176
     1
 75
     2
176
     1
175
     1
176
     1
 42
40.0
176
     1
 92
        0
176
     1
 66
   257
176
     1
 43
1.0
176
     1
 76
     1
176
     1
 77
     6
176
     1
 78
     2
176
     1
 67
     7
176
     1
 79
     3
176
     1
170
     0
176
     1
171
     0
176
     1
290
     0
176
     1
 93
        1
176
     1
 44
0.0
176
     1
173
     0
176
     1
  0
VISUALSTYLE
  5
4A46
102
{ACAD_REACTORS
330
4A30
102
}
330
4A30
100
AcDbVisualStyle
  2
JitterOff
 70
    20
177
     2
291
     1
 71
     2
176
     0
 72
     2
176
     0
 73
     0
176
     0
 90
        0
176
     0
 40
-0.6
176
     0
 41
-30.0
176
     0
 62
     5
 63
     7
176
     0
 74
     1
176
     0
 91
        4
176
     0
 64
     7
176
     0
 65
   257
176
     0
 75
     1
176
     0
175
     1
176
     0
 42
1.0
176
     0
 92
       10
176
     2
 66
     7
176
     0
 43
1.0
176
     0
 76
     1
176
     0
 77
     6
176
     0
 78
     2
176
     0
 67
     7
176
     0
 79
     5
176
     0
170
     0
176
     0
171
     0
176
     0
290
     0
176
     0
 93
        1
176
     0
 44
0.0
176
     0
173
     0
176
     0
  0
VISUALSTYLE
  5
4A3E
102
{ACAD_REACTORS
330
4A30
102
}
330
4A30
100
AcDbVisualStyle
  2
Linepattern
 70
    14
177
     2
291
     1
 71
     2
176
     1
 72
     2
176
     1
 73
     0
176
     1
 90
        0
176
     1
 40
-0.6
176
     1
 41
-30.0
176
     1
 62
     5
 63
     7
176
     1
 74
     1
176
     1
 91
        4
176
     1
 64
     7
176
     1
 65
   257
176
     1
 75
     7
176
     1
175
     7
176
     1
 42
1.0
176
     1
 92
        8
176
     1
 66
     7
176
     1
 43
1.0
176
     1
 76
     1
176
     1
 77
     6
176
     1
 78
     2
176
     1
 67
     7
176
     1
 79
     5
176
     1
170
     0
176
     1
171
     0
176
     1
290
     0
176
     1
 93
        1
176
     1
 44
0.0
176
     1
173
     0
176
     1
  0
VISUALSTYLE
  5
4A47
102
{ACAD_REACTORS
330
4A30
102
}
330
4A30
100
AcDbVisualStyle
  2
OverhangOff
 70
    21
177
     2
291
     1
 71
     2
176
     0
 72
     2
176
     0
 73
     0
176
     0
 90
        0
176
     0
 40
-0.6
176
     0
 41
-30.0
176
     0
 62
     5
 63
     7
176
     0
 74
     1
176
     0
 91
        4
176
     0
 64
     7
176
     0
 65
   257
176
     0
 75
     1
176
     0
175
     1
176
     0
 42
1.0
176
     0
 92
        9
176
     2
 66
     7
176
     0
 43
1.0
176
     0
 76
     1
176
     0
 77
     6
176
     0
 78
     2
176
     0
 67
     7
176
     0
 79
     5
176
     0
170
     0
176
     0
171
     0
176
     0
290
     0
176
     0
 93
        1
176
     0
 44
0.0
176
     0
173
     0
176
     0
  0
VISUALSTYLE
  5
4A3A
102
{ACAD_REACTORS
330
4A30
102
}
330
4A30
100
AcDbVisualStyle
  2
Realistic
 70
     8
177
     2
291
     0
 71
     2
176
     1
 72
     2
176
     1
 73
     0
176
     1
 90
        2
176
     1
 40
-0.6
176
     1
 41
30.0
176
     1
 62
     5
 63
     7
176
     1
 74
     0
176
     1
 91
        0
176
     1
 64
     7
176
     1
 65
   257
176
     1
 75
     1
176
     1
175
     1
176
     1
 42
1.0
176
     1
 92
        8
176
     1
 66
   257
176
     1
 43
1.0
176
     1
 76
     1
176
     1
 77
     6
176
     1
 78
     2
176
     1
 67
     7
176
     1
 79
     3
176
     1
170
     0
176
     1
171
     0
176
     1
290
     0
176
     1
 93
       13
176
     1
 44
0.0
176
     1
173
     0
176
     1
  0
VISUALSTYLE
  5
4A45
102
{ACAD_REACTORS
330
4A30
102
}
330
4A30
100
AcDbVisualStyle
  2
Shaded
 70
    27
177
     2
291
     0
 71
     2
176
     1
 72
     2
176
     1
 73
     1
176
     1
 90
        2
176
     1
 40
-0.6
176
     1
 41
30.0
176
     1
 62
     5
 63
     7
176
     1
 74
     0
176
     1
 91
        4
176
     1
 64
     7
176
     1
 65
   257
176
     1
 75
     1
176
     1
175
     1
176
     1
 42
1.0
176
     1
 92
        8
176
     1
 66
   257
176
     1
 43
1.0
176
     1
 76
     1
176
     1
 77
     6
176
     1
 78
     2
176
     1
 67
     8
176
     1
 79
     3
176
     1
170
     0
176
     1
171
     0
176
     1
290
     0
176
     1
 93
        5
176
     1
 44
0.0
176
     1
173
     0
176
     1
  0
VISUALSTYLE
  5
4A44
102
{ACAD_REACTORS
330
4A30
102
}
330
4A30
100
AcDbVisualStyle
  2
Shaded with edges
 70
    26
177
     2
291
     0
 71
     2
176
     1
 72
     2
176
     1
 73
     1
176
     1
 90
        2
176
     1
 40
-0.6
176
     1
 41
30.0
176
     1
 62
     5
 63
     7
176
     1
 74
     1
176
     1
 91
       10
176
     1
 64
     7
176
     1
 65
   257
176
     1
 75
     2
176
     1
175
     1
176
     1
 42
1.0
176
     1
 92
        8
176
     1
 66
   257
176
     1
 43
1.0
176
     1
 76
     1
176
     1
 77
     6
176
     1
 78
     2
176
     1
 67
     7
176
     1
 79
     3
176
     1
170
     0
176
     1
171
     0
176
     1
290
     0
176
     1
 93
        5
176
     1
 44
0.0
176
     1
173
     0
176
     1
  0
VISUALSTYLE
  5
4A41
102
{ACAD_REACTORS
330
4A30
102
}
330
4A30
100
AcDbVisualStyle
  2
Shades of Gray
 70
    23
177
     2
291
     0
 71
     2
176
     1
 72
     2
176
     1
 73
     3
176
     1
 90
        0
176
     1
 40
-0.6
176
     1
 41
-30.0
176
     1
 62
     5
 63
     7
176
     1
 74
     2
176
     1
 91
        2
176
     1
 64
     7
176
     1
 65
     7
176
     1
 75
     1
176
     1
175
     1
176
     1
 42
40.0
176
     1
 92
        8
176
     1
 66
     7
176
     1
 43
1.0
176
     1
 76
     1
176
     1
 77
     6
176
     1
 78
     2
176
     1
 67
     7
176
     1
 79
     3
176
     1
170
     0
176
     1
171
     0
176
     1
290
     0
176
     1
 93
        1
176
     1
 44
0.0
176
     1
173
     0
176
     1
  0
VISUALSTYLE
  5
4A42
102
{ACAD_REACTORS
330
4A30
102
}
330
4A30
100
AcDbVisualStyle
  2
Sketchy
 70
    24
177
     2
291
     0
 71
     1
176
     1
 72
     2
176
     1
 73
     2
176
     1
 90
        0
176
     1
 40
-0.6
176
     1
 41
-30.0
176
     1
 62
     5
 63
     7
176
     1
 74
     2
176
     1
 91
        2
176
     1
 64
     7
176
     1
 65
     7
176
     1
 75
     1
176
     1
175
     1
176
     1
 42
40.0
176
     1
 92
       11
176
     1
 66
     7
176
     1
 43
1.0
176
     1
 76
     1
176
     1
 77
     6
176
     1
 78
     2
176
     1
 67
     7
176
     1
 79
     6
176
     1
170
     0
176
     1
171
     0
176
     1
290
     0
176
     1
 93
        1
176
     1
 44
0.0
176
     1
173
     0
176
     1
  0
VISUALSTYLE
  5
4A3D
102
{ACAD_REACTORS
330
4A30
102
}
330
4A30
100
AcDbVisualStyle
  2
Thicken
 70
    13
177
     2
291
     1
 71
     2
176
     1
 72
     2
176
     1
 73
     0
176
     1
 90
        0
176
     1
 40
-0.6
176
     1
 41
-30.0
176
     1
 62
     5
 63
     7
176
     1
 74
     1
176
     1
 91
        4
176
     1
 64
     7
176
     1
 65
   257
176
     1
 75
     1
176
     1
175
     1
176
     1
 42
1.0
176
     1
 92
       12
176
     1
 66
     7
176
     1
 43
1.0
176
     1
 76
     1
176
     1
 77
     6
176
     1
 78
     2
176
     1
 67
     7
176
     1
 79
     5
176
     1
170
     0
176
     1
171
     0
176
     1
290
     0
176
     1
 93
        1
176
     1
 44
0.0
176
     1
173
     0
176
     1
  0
VISUALSTYLE
  5
4A37
102
{ACAD_REACTORS
330
4A30
102
}
330
4A30
100
AcDbVisualStyle
  2
Wireframe
 70
     5
177
     2
291
     0
 71
     0
176
     1
 72
     2
176
     1
 73
     0
176
     1
 90
        0
176
     1
 40
-0.6
176
     1
 41
-30.0
176
     1
 62
     5
 63
     7
176
     1
 74
     1
176
     1
 91
        4
176
     1
 64
     7
176
     1
 65
   257
176
     1
 75
     1
176
     1
175
     1
176
     1
 42
1.0
176
     1
 92
        0
176
     1
 66
   257
176
     1
 43
1.0
176
     1
 76
     1
176
     1
 77
     6
176
     1
 78
     2
176
     1
 67
     7
176
     1
 79
     3
176
     1
170
     0
176
     1
171
     0
176
     1
290
     0
176
     1
 93
        1
176
     1
 44
0.0
176
     1
173
     0
176
     1
  0
VISUALSTYLE
  5
4A43
102
{ACAD_REACTORS
330
4A30
102
}
330
4A30
100
AcDbVisualStyle
  2
X-Ray
 70
    25
177
     2
291
     0
 71
     2
176
     1
 72
     2
176
     1
 73
     1
176
     1
 90
        1
176
     1
 40
0.5
176
     1
 41
-30.0
176
     1
 62
     5
 63
     7
176
     1
 74
     1
176
     1
 91
        0
176
     1
 64
     7
176
     1
 65
   257
176
     1
 75
     1
176
     1
175
     1
176
     1
 42
1.0
176
     1
 92
        8
176
     1
 66
     7
176
     1
 43
1.0
176
     1
 76
     1
176
     1
 77
     6
176
     1
 78
     2
176
     1
 67
     7
176
     1
 79
     3
176
     1
170
     0
176
     1
171
     0
176
     1
290
     0
176
     1
 93
       13
176
     1
 44
0.0
176
     1
173
     0
176
     1
  0
DICTIONARYVAR
  5
50B5
102
{ACAD_REACTORS
330
3C4
102
}
330
3C4
100
DictionaryVariables
280
     0
  1
1:1
  0
DICTIONARYVAR
  5
4E8E
102
{ACAD_REACTORS
330
3C4
102
}
330
3C4
100
DictionaryVariables
280
     0
  1
Standard
  0
DICTIONARYVAR
  5
4E8D
102
{ACAD_REACTORS
330
3C4
102
}
330
3C4
100
DictionaryVariables
280
     0
  1
Standard
  0
DICTIONARYVAR
  5
4E90
102
{ACAD_REACTORS
330
3C4
102
}
330
3C4
100
DictionaryVariables
280
     0
  1
1
  0
DICTIONARYVAR
  5
3C5
102
{ACAD_REACTORS
330
3C4
102
}
330
3C4
100
DictionaryVariables
280
     0
  1
1
  0
DICTIONARYVAR
  5
50B9
102
{ACAD_REACTORS
330
3C4
102
}
330
3C4
100
DictionaryVariables
280
     0
  1
0
  0
DICTIONARYVAR
  5
3D3
102
{ACAD_REACTORS
330
3C4
102
}
330
3C4
100
DictionaryVariables
280
     0
  1
99
  0
DICTIONARYVAR
  5
50B3
102
{ACAD_REACTORS
330
3C4
102
}
330
3C4
100
DictionaryVariables
280
     0
  1
2
  0
ACAD_PROXY_OBJECT
  5
3D1
102
{ACAD_REACTORS
330
3D0
102
}
330
3D0
100
AcDbProxyObject
 90
      499
 91
      512
 95
   983063
 70
     0
161
               118
310
405010040CA904C415CD5B074D5028
350
3D2
 94
        0
1001
ACAD
1000
AcRTDxfName
1000
ACMDATADICTIONARY
1000
AcRTDxfName
1000
ACMDATADICTIONARY
1000
AcRTDxfName
1000
ACMDATADICTIONARY
1000
AcRTDxfName
1000
ACMDATADICTIONARY
1000
AcRTDxfName
1000
ACMDATADICTIONARY
1000
AcRTDxfName
1000
ACMDATADICTIONARY
  0
ACAD_PROXY_OBJECT
  5
3C7
330
3C1
100
AcDbProxyObject
 90
      499
 91
      507
 95
   983063
 70
     0
161
               156
310
00010143D050D351505391D5531054925390D490
330
3C1
 94
        0
1001
ACAD
1000
AcRTDxfName
1000
ACIMREALSYSVAR
1000
AcRTDxfName
1000
ACIMREALSYSVAR
1000
AcRTDxfName
1000
ACIMREALSYSVAR
1000
AcRTDxfName
1000
ACIMREALSYSVAR
1000
AcRTDxfName
1000
ACIMREALSYSVAR
1000
AcRTDxfName
1000
ACIMREALSYSVAR
  0
ACAD_PROXY_OBJECT
  5
3C8
330
3C1
100
AcDbProxyObject
 90
      499
 91
      507
 95
   983063
 70
     0
161
               148
310
000101439050D351531253915054925390D490
330
3C1
 94
        0
1001
ACAD
1000
AcRTDxfName
1000
ACIMREALSYSVAR
1000
AcRTDxfName
1000
ACIMREALSYSVAR
1000
AcRTDxfName
1000
ACIMREALSYSVAR
1000
AcRTDxfName
1000
ACIMREALSYSVAR
1000
AcRTDxfName
1000
ACIMREALSYSVAR
1000
AcRTDxfName
1000
ACIMREALSYSVAR
  0
ACAD_PROXY_OBJECT
  5
3C9
330
3C1
100
AcDbProxyObject
 90
      499
 91
      508
 95
   983063
 70
     0
161
               156
310
000101439050D35154D6535093D314D256915080
330
3C1
 94
        0
1001
ACAD
1000
AcRTDxfName
1000
ACIMINTSYSVAR
1000
AcRTDxfName
1000
ACIMINTSYSVAR
1000
AcRTDxfName
1000
ACIMINTSYSVAR
1000
AcRTDxfName
1000
ACIMINTSYSVAR
1000
AcRTDxfName
1000
ACIMINTSYSVAR
1000
AcRTDxfName
1000
ACIMINTSYSVAR
  0
ACAD_PROXY_OBJECT
  5
3CE
330
3C1
100
AcDbProxyObject
 90
      499
 91
      510
 95
   983063
 70
     0
161
                88
310
000101411093D34C402B00
330
3C1
330
0
330
0
 94
        0
1001
ACAD
1000
AcRTDxfName
1000
ACMEVIEW
1000
AcRTDxfName
1000
ACMEVIEW
1000
AcRTDxfName
1000
ACMEVIEW
1000
AcRTDxfName
1000
ACMEVIEW
1000
AcRTDxfName
1000
ACMEVIEW
1000
AcRTDxfName
1000
ACMEVIEW
  0
ACAD_PROXY_OBJECT
  5
233F
330
3C1
100
AcDbProxyObject
 90
      499
 91
      526
 95
   983063
 70
     0
161
               414
310
0001014124FEA55D00507342E312E332E35014124FEA55D00507342E312E332E35405010000411113D514E000000000000165018
330
3C1
330
2340
330
2344
 94
        0
1001
ACAD
1000
AcRTDxfName
1000
AM_DRAWING_MGR
1000
AcRTDxfName
1000
AM_DRAWING_MGR
1000
AcRTDxfName
1000
AM_DRAWING_MGR
1000
AcRTDxfName
1000
AM_DRAWING_MGR
1000
AcRTDxfName
1000
AM_DRAWING_MGR
1000
AcRTDxfName
1000
AM_DRAWING_MGR
  0
ACAD_PROXY_OBJECT
  5
2340
330
3C1
100
AcDbProxyObject
 90
      499
 91
      527
 95
   983063
 70
     0
161
                48
310
000190140A00
330
3C1
330
2341
 94
        0
1001
ACAD
1000
AcRTDxfName
1000
AM_DWG_DOCUMENT
1000
AcRTDxfName
1000
AM_DWG_DOCUMENT
1000
AcRTDxfName
1000
AM_DWG_DOCUMENT
1000
AcRTDxfName
1000
AM_DWG_DOCUMENT
1000
AcRTDxfName
1000
AM_DWG_DOCUMENT
1000
AcRTDxfName
1000
AM_DWG_DOCUMENT
  0
ACAD_PROXY_OBJECT
  5
2341
330
3C1
100
AcDbProxyObject
 90
      499
 91
      528
 95
   983063
 70
     0
161
                48
310
0001AA000000
330
3C1
330
5DF
330
2342
330
0
 94
        0
1001
ACAD
1000
AcRTDxfName
1000
AM_DWG_SHEET
1000
AcRTDxfName
1000
AM_DWG_SHEET
1000
AcRTDxfName
1000
AM_DWG_SHEET
1000
AcRTDxfName
1000
AM_DWG_SHEET
1000
AcRTDxfName
1000
AM_DWG_SHEET
1000
AcRTDxfName
1000
AM_DWG_SHEET
  0
ACAD_PROXY_OBJECT
  5
2342
330
3C1
100
AcDbProxyObject
 90
      499
 91
      529
 95
   983063
 70
     0
161
                28
310
0001AAA0
330
3C1
 94
        0
1001
ACAD
1000
AcRTDxfName
1000
AM_VIEWDIMPARMAP
1000
AcRTDxfName
1000
AM_VIEWDIMPARMAP
1000
AcRTDxfName
1000
AM_VIEWDIMPARMAP
1000
AcRTDxfName
1000
AM_VIEWDIMPARMAP
1000
AcRTDxfName
1000
AM_VIEWDIMPARMAP
1000
AcRTDxfName
1000
AM_VIEWDIMPARMAP
  0
ACAD_PROXY_OBJECT
  5
2345
330
3C1
100
AcDbProxyObject
 90
      499
 91
      508
 95
   983063
 70
     0
161
               108
310
000101421053521310D05310D010
330
3C1
 94
        0
1001
ACAD
1000
AcRTDxfName
1000
ACIMINTSYSVAR
1000
AcRTDxfName
1000
ACIMINTSYSVAR
1000
AcRTDxfName
1000
ACIMINTSYSVAR
1000
AcRTDxfName
1000
ACIMINTSYSVAR
1000
AcRTDxfName
1000
ACIMINTSYSVAR
1000
AcRTDxfName
1000
ACIMINTSYSVAR
  0
ACAD_PROXY_OBJECT
  5
2346
330
3C1
100
AcDbProxyObject
 90
      499
 91
      508
 95
   983063
 70
     0
161
               124
310
000101429053541493D2951654115010
330
3C1
 94
        0
1001
ACAD
1000
AcRTDxfName
1000
ACIMINTSYSVAR
1000
AcRTDxfName
1000
ACIMINTSYSVAR
1000
AcRTDxfName
1000
ACIMINTSYSVAR
1000
AcRTDxfName
1000
ACIMINTSYSVAR
1000
AcRTDxfName
1000
ACIMINTSYSVAR
1000
AcRTDxfName
1000
ACIMINTSYSVAR
  0
ACAD_PROXY_OBJECT
  5
2347
330
3C1
100
AcDbProxyObject
 90
      499
 91
      508
 95
   983063
 70
     0
161
               124
310
00010142905354915554D15112535010
330
3C1
 94
        0
1001
ACAD
1000
AcRTDxfName
1000
ACIMINTSYSVAR
1000
AcRTDxfName
1000
ACIMINTSYSVAR
1000
AcRTDxfName
1000
ACIMINTSYSVAR
1000
AcRTDxfName
1000
ACIMINTSYSVAR
1000
AcRTDxfName
1000
ACIMINTSYSVAR
1000
AcRTDxfName
1000
ACIMINTSYSVAR
  0
ACAD_PROXY_OBJECT
  5
2348
330
3C1
100
AcDbProxyObject
 90
      499
 91
      508
 95
   983063
 70
     0
161
               132
310
00010143105354D150D51253D391125360
330
3C1
 94
        0
1001
ACAD
1000
AcRTDxfName
1000
ACIMINTSYSVAR
1000
AcRTDxfName
1000
ACIMINTSYSVAR
1000
AcRTDxfName
1000
ACIMINTSYSVAR
1000
AcRTDxfName
1000
ACIMINTSYSVAR
1000
AcRTDxfName
1000
ACIMINTSYSVAR
1000
AcRTDxfName
1000
ACIMINTSYSVAR
  0
ACAD_PROXY_OBJECT
  5
2349
330
3C1
100
AcDbProxyObject
 90
      499
 91
      508
 95
   983063
 70
     0
161
               124
310
00010142905355941093D49111549010
330
3C1
 94
        0
1001
ACAD
1000
AcRTDxfName
1000
ACIMINTSYSVAR
1000
AcRTDxfName
1000
ACIMINTSYSVAR
1000
AcRTDxfName
1000
ACIMINTSYSVAR
1000
AcRTDxfName
1000
ACIMINTSYSVAR
1000
AcRTDxfName
1000
ACIMINTSYSVAR
1000
AcRTDxfName
1000
ACIMINTSYSVAR
  0
ACAD_PROXY_OBJECT
  5
234A
330
3C1
100
AcDbProxyObject
 90
      499
 91
      508
 95
   983063
 70
     0
161
               116
310
0001014290535115D1D0D3D313D4A0
330
3C1
 94
        0
1001
ACAD
1000
AcRTDxfName
1000
ACIMINTSYSVAR
1000
AcRTDxfName
1000
ACIMINTSYSVAR
1000
AcRTDxfName
1000
ACIMINTSYSVAR
1000
AcRTDxfName
1000
ACIMINTSYSVAR
1000
AcRTDxfName
1000
ACIMINTSYSVAR
1000
AcRTDxfName
1000
ACIMINTSYSVAR
  0
ACAD_PROXY_OBJECT
  5
234B
330
3C1
100
AcDbProxyObject
 90
      499
 91
      508
 95
   983063
 70
     0
161
               148
310
00010143505355925155D49151949154D21010
330
3C1
 94
        0
1001
ACAD
1000
AcRTDxfName
1000
ACIMINTSYSVAR
1000
AcRTDxfName
1000
ACIMINTSYSVAR
1000
AcRTDxfName
1000
ACIMINTSYSVAR
1000
AcRTDxfName
1000
ACIMINTSYSVAR
1000
AcRTDxfName
1000
ACIMINTSYSVAR
1000
AcRTDxfName
1000
ACIMINTSYSVAR
  0
ACAD_PROXY_OBJECT
  5
234C
330
3C1
100
AcDbProxyObject
 90
      499
 91
      508
 95
   983063
 70
     0
161
               172
310
00010144105350539393D51154149154D15495915010
330
3C1
 94
        0
1001
ACAD
1000
AcRTDxfName
1000
ACIMINTSYSVAR
1000
AcRTDxfName
1000
ACIMINTSYSVAR
1000
AcRTDxfName
1000
ACIMINTSYSVAR
1000
AcRTDxfName
1000
ACIMINTSYSVAR
1000
AcRTDxfName
1000
ACIMINTSYSVAR
1000
AcRTDxfName
1000
ACIMINTSYSVAR
  0
ACAD_PROXY_OBJECT
  5
234F
330
3C1
100
AcDbProxyObject
 90
      499
 91
      508
 95
   983063
 70
     0
161
               108
310
00010142105354D51114D0D51060
330
3C1
 94
        0
1001
ACAD
1000
AcRTDxfName
1000
ACIMINTSYSVAR
1000
AcRTDxfName
1000
ACIMINTSYSVAR
1000
AcRTDxfName
1000
ACIMINTSYSVAR
1000
AcRTDxfName
1000
ACIMINTSYSVAR
1000
AcRTDxfName
1000
ACIMINTSYSVAR
1000
AcRTDxfName
1000
ACIMINTSYSVAR
  0
ACAD_PROXY_OBJECT
  5
2350
330
3C1
100
AcDbProxyObject
 90
      499
 91
      508
 95
   983063
 70
     0
161
               108
310
00010142105354D5111510541060
330
3C1
 94
        0
1001
ACAD
1000
AcRTDxfName
1000
ACIMINTSYSVAR
1000
AcRTDxfName
1000
ACIMINTSYSVAR
1000
AcRTDxfName
1000
ACIMINTSYSVAR
1000
AcRTDxfName
1000
ACIMINTSYSVAR
1000
AcRTDxfName
1000
ACIMINTSYSVAR
1000
AcRTDxfName
1000
ACIMINTSYSVAR
  0
ACAD_PROXY_OBJECT
  5
2351
330
3C1
100
AcDbProxyObject
 90
      499
 91
      508
 95
   983063
 70
     0
161
               108
310
00010142105354D5111115131060
330
3C1
 94
        0
1001
ACAD
1000
AcRTDxfName
1000
ACIMINTSYSVAR
1000
AcRTDxfName
1000
ACIMINTSYSVAR
1000
AcRTDxfName
1000
ACIMINTSYSVAR
1000
AcRTDxfName
1000
ACIMINTSYSVAR
1000
AcRTDxfName
1000
ACIMINTSYSVAR
1000
AcRTDxfName
1000
ACIMINTSYSVAR
  0
ACAD_PROXY_OBJECT
  5
2352
330
3C1
100
AcDbProxyObject
 90
      499
 91
      507
 95
   983063
 70
     0
161
               148
310
00010141905350D310D34295C8FC2F528BC3F0
330
3C1
 94
        0
1001
ACAD
1000
AcRTDxfName
1000
ACIMREALSYSVAR
1000
AcRTDxfName
1000
ACIMREALSYSVAR
1000
AcRTDxfName
1000
ACIMREALSYSVAR
1000
AcRTDxfName
1000
ACIMREALSYSVAR
1000
AcRTDxfName
1000
ACIMREALSYSVAR
1000
AcRTDxfName
1000
ACIMREALSYSVAR
  0
ACAD_PROXY_OBJECT
  5
2353
330
3C1
100
AcDbProxyObject
 90
      499
 91
      507
 95
   983063
 70
     0
161
               156
310
00010141D05350D311D05402B8716D9CEF7C33F0
330
3C1
 94
        0
1001
ACAD
1000
AcRTDxfName
1000
ACIMREALSYSVAR
1000
AcRTDxfName
1000
ACIMREALSYSVAR
1000
AcRTDxfName
1000
ACIMREALSYSVAR
1000
AcRTDxfName
1000
ACIMREALSYSVAR
1000
AcRTDxfName
1000
ACIMREALSYSVAR
1000
AcRTDxfName
1000
ACIMREALSYSVAR
  0
ACAD_PROXY_OBJECT
  5
2354
330
3C1
100
AcDbProxyObject
 90
      499
 91
      507
 95
   983063
 70
     0
161
               164
310
00010142105350D313D4D2150295C8FC2F528BC3F0
330
3C1
 94
        0
1001
ACAD
1000
AcRTDxfName
1000
ACIMREALSYSVAR
1000
AcRTDxfName
1000
ACIMREALSYSVAR
1000
AcRTDxfName
1000
ACIMREALSYSVAR
1000
AcRTDxfName
1000
ACIMREALSYSVAR
1000
AcRTDxfName
1000
ACIMREALSYSVAR
1000
AcRTDxfName
1000
ACIMREALSYSVAR
  0
ACAD_PROXY_OBJECT
  5
2355
330
3C1
100
AcDbProxyObject
 90
      499
 91
      508
 95
   983063
 70
     0
161
               100
310
00010141D05350D31410549010
330
3C1
 94
        0
1001
ACAD
1000
AcRTDxfName
1000
ACIMINTSYSVAR
1000
AcRTDxfName
1000
ACIMINTSYSVAR
1000
AcRTDxfName
1000
ACIMINTSYSVAR
1000
AcRTDxfName
1000
ACIMINTSYSVAR
1000
AcRTDxfName
1000
ACIMINTSYSVAR
1000
AcRTDxfName
1000
ACIMINTSYSVAR
  0
ACAD_PROXY_OBJECT
  5
2356
330
3C1
100
AcDbProxyObject
 90
      499
 91
      508
 95
   983063
 70
     0
161
               100
310
0001014210535590539254D220
330
3C1
 94
        0
1001
ACAD
1000
AcRTDxfName
1000
ACIMINTSYSVAR
1000
AcRTDxfName
1000
ACIMINTSYSVAR
1000
AcRTDxfName
1000
ACIMINTSYSVAR
1000
AcRTDxfName
1000
ACIMINTSYSVAR
1000
AcRTDxfName
1000
ACIMINTSYSVAR
1000
AcRTDxfName
1000
ACIMINTSYSVAR
  0
ACAD_PROXY_OBJECT
  5
2357
330
3C1
100
AcDbProxyObject
 90
      499
 91
      507
 95
   983063
 70
     0
161
               188
310
00010142D0535312539155121250D2C295C8FC2F5289C3F0
330
3C1
 94
        0
1001
ACAD
1000
AcRTDxfName
1000
ACIMREALSYSVAR
1000
AcRTDxfName
1000
ACIMREALSYSVAR
1000
AcRTDxfName
1000
ACIMREALSYSVAR
1000
AcRTDxfName
1000
ACIMREALSYSVAR
1000
AcRTDxfName
1000
ACIMREALSYSVAR
1000
AcRTDxfName
1000
ACIMREALSYSVAR
  0
ACAD_PROXY_OBJECT
  5
2358
330
3C1
100
AcDbProxyObject
 90
      499
 91
      508
 95
   983063
 70
     0
161
               172
310
00010144105350555513D11253505494905391D15010
330
3C1
 94
        0
1001
ACAD
1000
AcRTDxfName
1000
ACIMINTSYSVAR
1000
AcRTDxfName
1000
ACIMINTSYSVAR
1000
AcRTDxfName
1000
ACIMINTSYSVAR
1000
AcRTDxfName
1000
ACIMINTSYSVAR
1000
AcRTDxfName
1000
ACIMINTSYSVAR
1000
AcRTDxfName
1000
ACIMINTSYSVAR
  0
ACAD_PROXY_OBJECT
  5
2359
330
3C1
100
AcDbProxyObject
 90
      499
 91
      508
 95
   983063
 70
     0
161
               124
310
00010142D05351561514915191125360
330
3C1
 94
        0
1001
ACAD
1000
AcRTDxfName
1000
ACIMINTSYSVAR
1000
AcRTDxfName
1000
ACIMINTSYSVAR
1000
AcRTDxfName
1000
ACIMINTSYSVAR
1000
AcRTDxfName
1000
ACIMINTSYSVAR
1000
AcRTDxfName
1000
ACIMINTSYSVAR
1000
AcRTDxfName
1000
ACIMINTSYSVAR
  0
ACAD_PROXY_OBJECT
  5
235A
330
3C1
100
AcDbProxyObject
 90
      499
 91
      508
 95
   983063
 70
     0
161
               132
310
00010142D05355105410539393D5115010
330
3C1
 94
        0
1001
ACAD
1000
AcRTDxfName
1000
ACIMINTSYSVAR
1000
AcRTDxfName
1000
ACIMINTSYSVAR
1000
AcRTDxfName
1000
ACIMINTSYSVAR
1000
AcRTDxfName
1000
ACIMINTSYSVAR
1000
AcRTDxfName
1000
ACIMINTSYSVAR
1000
AcRTDxfName
1000
ACIMINTSYSVAR
  0
ACAD_PROXY_OBJECT
  5
235B
330
3C1
100
AcDbProxyObject
 90
      499
 91
      508
 95
   983063
 70
     0
161
               108
310
00010142105350555513D0D31010
330
3C1
 94
        0
1001
ACAD
1000
AcRTDxfName
1000
ACIMINTSYSVAR
1000
AcRTDxfName
1000
ACIMINTSYSVAR
1000
AcRTDxfName
1000
ACIMINTSYSVAR
1000
AcRTDxfName
1000
ACIMINTSYSVAR
1000
AcRTDxfName
1000
ACIMINTSYSVAR
1000
AcRTDxfName
1000
ACIMINTSYSVAR
  0
ACAD_PROXY_OBJECT
  5
235C
330
3C1
100
AcDbProxyObject
 90
      499
 91
      508
 95
   983063
 70
     0
161
               108
310
00010142105350D3119150551050
330
3C1
 94
        0
1001
ACAD
1000
AcRTDxfName
1000
ACIMINTSYSVAR
1000
AcRTDxfName
1000
ACIMINTSYSVAR
1000
AcRTDxfName
1000
ACIMINTSYSVAR
1000
AcRTDxfName
1000
ACIMINTSYSVAR
1000
AcRTDxfName
1000
ACIMINTSYSVAR
1000
AcRTDxfName
1000
ACIMINTSYSVAR
  0
ACAD_PROXY_OBJECT
  5
235D
330
3C1
100
AcDbProxyObject
 90
      499
 91
      508
 95
   983063
 70
     0
161
               108
310
00010142105350D315925155D3F0
330
3C1
 94
        0
1001
ACAD
1000
AcRTDxfName
1000
ACIMINTSYSVAR
1000
AcRTDxfName
1000
ACIMINTSYSVAR
1000
AcRTDxfName
1000
ACIMINTSYSVAR
1000
AcRTDxfName
1000
ACIMINTSYSVAR
1000
AcRTDxfName
1000
ACIMINTSYSVAR
1000
AcRTDxfName
1000
ACIMINTSYSVAR
  0
ACAD_PROXY_OBJECT
  5
235E
330
3C1
100
AcDbProxyObject
 90
      499
 91
      508
 95
   983063
 70
     0
161
               148
310
0001014350535212511156915493D112535010
330
3C1
 94
        0
1001
ACAD
1000
AcRTDxfName
1000
ACIMINTSYSVAR
1000
AcRTDxfName
1000
ACIMINTSYSVAR
1000
AcRTDxfName
1000
ACIMINTSYSVAR
1000
AcRTDxfName
1000
ACIMINTSYSVAR
1000
AcRTDxfName
1000
ACIMINTSYSVAR
1000
AcRTDxfName
1000
ACIMINTSYSVAR
  0
ACAD_PROXY_OBJECT
  5
235F
330
3C1
100
AcDbProxyObject
 90
      499
 91
      508
 95
   983063
 70
     0
161
               116
310
00010142905352105510D21254D3E0
330
3C1
 94
        0
1001
ACAD
1000
AcRTDxfName
1000
ACIMINTSYSVAR
1000
AcRTDxfName
1000
ACIMINTSYSVAR
1000
AcRTDxfName
1000
ACIMINTSYSVAR
1000
AcRTDxfName
1000
ACIMINTSYSVAR
1000
AcRTDxfName
1000
ACIMINTSYSVAR
1000
AcRTDxfName
1000
ACIMINTSYSVAR
  0
ACAD_PROXY_OBJECT
  5
2360
330
3C1
100
AcDbProxyObject
 90
      499
 91
      508
 95
   983063
 70
     0
161
               148
310
00010143905354D25391D31152105513105660
330
3C1
 94
        0
1001
ACAD
1000
AcRTDxfName
1000
ACIMINTSYSVAR
1000
AcRTDxfName
1000
ACIMINTSYSVAR
1000
AcRTDxfName
1000
ACIMINTSYSVAR
1000
AcRTDxfName
1000
ACIMINTSYSVAR
1000
AcRTDxfName
1000
ACIMINTSYSVAR
1000
AcRTDxfName
1000
ACIMINTSYSVAR
  0
ACAD_PROXY_OBJECT
  5
236C
330
3C1
100
AcDbProxyObject
 90
      499
 91
      508
 95
   983063
 70
     0
161
               116
310
000101425053541051D15311539190
330
3C1
 94
        0
1001
ACAD
1000
AcRTDxfName
1000
ACIMINTSYSVAR
1000
AcRTDxfName
1000
ACIMINTSYSVAR
1000
AcRTDxfName
1000
ACIMINTSYSVAR
1000
AcRTDxfName
1000
ACIMINTSYSVAR
1000
AcRTDxfName
1000
ACIMINTSYSVAR
1000
AcRTDxfName
1000
ACIMINTSYSVAR
  0
ACAD_PROXY_OBJECT
  5
236D
330
3C1
100
AcDbProxyObject
 90
      499
 91
      508
 95
   983063
 70
     0
161
               108
310
000101421053555312539154D050
330
3C1
 94
        0
1001
ACAD
1000
AcRTDxfName
1000
ACIMINTSYSVAR
1000
AcRTDxfName
1000
ACIMINTSYSVAR
1000
AcRTDxfName
1000
ACIMINTSYSVAR
1000
AcRTDxfName
1000
ACIMINTSYSVAR
1000
AcRTDxfName
1000
ACIMINTSYSVAR
1000
AcRTDxfName
1000
ACIMINTSYSVAR
  0
ACAD_PROXY_OBJECT
  5
236E
330
3C1
100
AcDbProxyObject
 90
      499
 91
      508
 95
   983063
 70
     0
161
               108
310
000101421053559312539154D030
330
3C1
 94
        0
1001
ACAD
1000
AcRTDxfName
1000
ACIMINTSYSVAR
1000
AcRTDxfName
1000
ACIMINTSYSVAR
1000
AcRTDxfName
1000
ACIMINTSYSVAR
1000
AcRTDxfName
1000
ACIMINTSYSVAR
1000
AcRTDxfName
1000
ACIMINTSYSVAR
1000
AcRTDxfName
1000
ACIMINTSYSVAR
  0
ACAD_PROXY_OBJECT
  5
236F
330
3C1
100
AcDbProxyObject
 90
      499
 91
      508
 95
   983063
 70
     0
161
               140
310
00010143105354D1911254D41353D1115010
330
3C1
 94
        0
1001
ACAD
1000
AcRTDxfName
1000
ACIMINTSYSVAR
1000
AcRTDxfName
1000
ACIMINTSYSVAR
1000
AcRTDxfName
1000
ACIMINTSYSVAR
1000
AcRTDxfName
1000
ACIMINTSYSVAR
1000
AcRTDxfName
1000
ACIMINTSYSVAR
1000
AcRTDxfName
1000
ACIMINTSYSVAR
  0
ACAD_PROXY_OBJECT
  5
2370
330
3C1
100
AcDbProxyObject
 90
      499
 91
      507
 95
   983063
 70
     0
161
               172
310
00010142505354119255105391C1C052DC9A6F104400
330
3C1
 94
        0
1001
ACAD
1000
AcRTDxfName
1000
ACIMREALSYSVAR
1000
AcRTDxfName
1000
ACIMREALSYSVAR
1000
AcRTDxfName
1000
ACIMREALSYSVAR
1000
AcRTDxfName
1000
ACIMREALSYSVAR
1000
AcRTDxfName
1000
ACIMREALSYSVAR
1000
AcRTDxfName
1000
ACIMREALSYSVAR
  0
ACAD_PROXY_OBJECT
  5
2371
330
3C1
100
AcDbProxyObject
 90
      499
 91
      507
 95
   983063
 70
     0
161
               164
310
000101421053559150D05551C000000000000E03F0
330
3C1
 94
        0
1001
ACAD
1000
AcRTDxfName
1000
ACIMREALSYSVAR
1000
AcRTDxfName
1000
ACIMREALSYSVAR
1000
AcRTDxfName
1000
ACIMREALSYSVAR
1000
AcRTDxfName
1000
ACIMREALSYSVAR
1000
AcRTDxfName
1000
ACIMREALSYSVAR
1000
AcRTDxfName
1000
ACIMREALSYSVAR
  0
ACAD_PROXY_OBJECT
  5
2372
330
3C1
100
AcDbProxyObject
 90
      499
 91
      507
 95
   983063
 70
     0
161
               180
310
00010142905350931153911513D307B14AE47E17A843F0
330
3C1
 94
        0
1001
ACAD
1000
AcRTDxfName
1000
ACIMREALSYSVAR
1000
AcRTDxfName
1000
ACIMREALSYSVAR
1000
AcRTDxfName
1000
ACIMREALSYSVAR
1000
AcRTDxfName
1000
ACIMREALSYSVAR
1000
AcRTDxfName
1000
ACIMREALSYSVAR
1000
AcRTDxfName
1000
ACIMREALSYSVAR
  0
ACAD_PROXY_OBJECT
  5
2373
330
3C1
100
AcDbProxyObject
 90
      499
 91
      507
 95
   983063
 70
     0
161
               172
310
0001014250535293D25391D05407B14AE47E17A843F0
330
3C1
 94
        0
1001
ACAD
1000
AcRTDxfName
1000
ACIMREALSYSVAR
1000
AcRTDxfName
1000
ACIMREALSYSVAR
1000
AcRTDxfName
1000
ACIMREALSYSVAR
1000
AcRTDxfName
1000
ACIMREALSYSVAR
1000
AcRTDxfName
1000
ACIMREALSYSVAR
1000
AcRTDxfName
1000
ACIMREALSYSVAR
  0
ACAD_PROXY_OBJECT
  5
2374
330
3C1
100
AcDbProxyObject
 90
      499
 91
      507
 95
   983063
 70
     0
161
               172
310
000101425053541192551311538000000FC83D797410
330
3C1
 94
        0
1001
ACAD
1000
AcRTDxfName
1000
ACIMREALSYSVAR
1000
AcRTDxfName
1000
ACIMREALSYSVAR
1000
AcRTDxfName
1000
ACIMREALSYSVAR
1000
AcRTDxfName
1000
ACIMREALSYSVAR
1000
AcRTDxfName
1000
ACIMREALSYSVAR
1000
AcRTDxfName
1000
ACIMREALSYSVAR
  0
ACAD_PROXY_OBJECT
  5
2375
330
3C1
100
AcDbProxyObject
 90
      499
 91
      507
 95
   983063
 70
     0
161
               156
310
00010141D053559150D4D18000000000000E03F0
330
3C1
 94
        0
1001
ACAD
1000
AcRTDxfName
1000
ACIMREALSYSVAR
1000
AcRTDxfName
1000
ACIMREALSYSVAR
1000
AcRTDxfName
1000
ACIMREALSYSVAR
1000
AcRTDxfName
1000
ACIMREALSYSVAR
1000
AcRTDxfName
1000
ACIMREALSYSVAR
1000
AcRTDxfName
1000
ACIMREALSYSVAR
  0
ACAD_PROXY_OBJECT
  5
2376
330
3C1
100
AcDbProxyObject
 90
      499
 91
      507
 95
   983063
 70
     0
161
               156
310
00010141D05354D19513D30FCA9F1D24D62503F0
330
3C1
 94
        0
1001
ACAD
1000
AcRTDxfName
1000
ACIMREALSYSVAR
1000
AcRTDxfName
1000
ACIMREALSYSVAR
1000
AcRTDxfName
1000
ACIMREALSYSVAR
1000
AcRTDxfName
1000
ACIMREALSYSVAR
1000
AcRTDxfName
1000
ACIMREALSYSVAR
1000
AcRTDxfName
1000
ACIMREALSYSVAR
  0
ACAD_PROXY_OBJECT
  5
2377
330
3C1
100
AcDbProxyObject
 90
      499
 91
      507
 95
   983063
 70
     0
161
               172
310
000101425053541192551513D307B14AE47E17A843F0
330
3C1
 94
        0
1001
ACAD
1000
AcRTDxfName
1000
ACIMREALSYSVAR
1000
AcRTDxfName
1000
ACIMREALSYSVAR
1000
AcRTDxfName
1000
ACIMREALSYSVAR
1000
AcRTDxfName
1000
ACIMREALSYSVAR
1000
AcRTDxfName
1000
ACIMREALSYSVAR
1000
AcRTDxfName
1000
ACIMREALSYSVAR
  0
ACAD_PROXY_OBJECT
  5
2378
330
3C1
100
AcDbProxyObject
 90
      499
 91
      507
 95
   983063
 70
     0
161
               188
310
00010142D05354D151D192551513D307B14AE47E17A843F0
330
3C1
 94
        0
1001
ACAD
1000
AcRTDxfName
1000
ACIMREALSYSVAR
1000
AcRTDxfName
1000
ACIMREALSYSVAR
1000
AcRTDxfName
1000
ACIMREALSYSVAR
1000
AcRTDxfName
1000
ACIMREALSYSVAR
1000
AcRTDxfName
1000
ACIMREALSYSVAR
1000
AcRTDxfName
1000
ACIMREALSYSVAR
  0
ACAD_PROXY_OBJECT
  5
2379
330
3C1
100
AcDbProxyObject
 90
      499
 91
      507
 95
   983063
 70
     0
161
               148
310
000101419053541311538000000FC83D797410
330
3C1
 94
        0
1001
ACAD
1000
AcRTDxfName
1000
ACIMREALSYSVAR
1000
AcRTDxfName
1000
ACIMREALSYSVAR
1000
AcRTDxfName
1000
ACIMREALSYSVAR
1000
AcRTDxfName
1000
ACIMREALSYSVAR
1000
AcRTDxfName
1000
ACIMREALSYSVAR
1000
AcRTDxfName
1000
ACIMREALSYSVAR
  0
ACAD_PROXY_OBJECT
  5
237A
330
3C1
100
AcDbProxyObject
 90
      499
 91
      507
 95
   983063
 70
     0
161
               172
310
00010142505354105391D513D301C052DC9A6F104400
330
3C1
 94
        0
1001
ACAD
1000
AcRTDxfName
1000
ACIMREALSYSVAR
1000
AcRTDxfName
1000
ACIMREALSYSVAR
1000
AcRTDxfName
1000
ACIMREALSYSVAR
1000
AcRTDxfName
1000
ACIMREALSYSVAR
1000
AcRTDxfName
1000
ACIMREALSYSVAR
1000
AcRTDxfName
1000
ACIMREALSYSVAR
  0
ACAD_PROXY_OBJECT
  5
237B
330
3C1
100
AcDbProxyObject
 90
      499
 91
      507
 95
   983063
 70
     0
161
               132
310
0001014114D25691400000000000024400
330
3C1
 94
        0
1001
ACAD
1000
AcRTDxfName
1000
ACIMREALSYSVAR
1000
AcRTDxfName
1000
ACIMREALSYSVAR
1000
AcRTDxfName
1000
ACIMREALSYSVAR
1000
AcRTDxfName
1000
ACIMREALSYSVAR
1000
AcRTDxfName
1000
ACIMREALSYSVAR
1000
AcRTDxfName
1000
ACIMREALSYSVAR
  0
ACAD_PROXY_OBJECT
  5
237C
330
3C1
100
AcDbProxyObject
 90
      499
 91
      537
 95
   983063
 70
     0
161
               156
310
00010142905351D4941491519256005034153470
330
3C1
 94
        0
1001
ACAD
1000
AcRTDxfName
1000
ACIMSTRSYSVAR
1000
AcRTDxfName
1000
ACIMSTRSYSVAR
1000
AcRTDxfName
1000
ACIMSTRSYSVAR
1000
AcRTDxfName
1000
ACIMSTRSYSVAR
1000
AcRTDxfName
1000
ACIMSTRSYSVAR
1000
AcRTDxfName
1000
ACIMSTRSYSVAR
  0
ACAD_PROXY_OBJECT
  5
237D
330
3C1
100
AcDbProxyObject
 90
      499
 91
      538
 95
   983063
 70
     0
161
               314
310
00014080509646973745363616C650000000000003C2FC000000000000F0BF0000003F20F5E5D040
330
3C1
 94
        0
1001
ACAD
1000
AcRTDxfName
1000
ACIMDBLSTATICVAR
1000
AcRTDxfName
1000
ACIMDBLSTATICVAR
1000
AcRTDxfName
1000
ACIMDBLSTATICVAR
1000
AcRTDxfName
1000
ACIMDBLSTATICVAR
1000
AcRTDxfName
1000
ACIMDBLSTATICVAR
1000
AcRTDxfName
1000
ACIMDBLSTATICVAR
  0
ACAD_PROXY_OBJECT
  5
237E
330
3C1
100
AcDbProxyObject
 90
      499
 91
      538
 95
   983063
 70
     0
161
               322
310
0001408050A65646175526F74617465060B51153EC87E4FC182D4454FB2119C0060B51153EC8465000
330
3C1
 94
        0
1001
ACAD
1000
AcRTDxfName
1000
ACIMDBLSTATICVAR
1000
AcRTDxfName
1000
ACIMDBLSTATICVAR
1000
AcRTDxfName
1000
ACIMDBLSTATICVAR
1000
AcRTDxfName
1000
ACIMDBLSTATICVAR
1000
AcRTDxfName
1000
ACIMDBLSTATICVAR
1000
AcRTDxfName
1000
ACIMDBLSTATICVAR
  0
ACAD_PROXY_OBJECT
  5
237F
330
3C1
100
AcDbProxyObject
 90
      499
 91
      538
 95
   983063
 70
     0
161
               314
310
00014080509656461755477697374060B51153EC846500000000FC83D797C10000003F20F5E5D040
330
3C1
 94
        0
1001
ACAD
1000
AcRTDxfName
1000
ACIMDBLSTATICVAR
1000
AcRTDxfName
1000
ACIMDBLSTATICVAR
1000
AcRTDxfName
1000
ACIMDBLSTATICVAR
1000
AcRTDxfName
1000
ACIMDBLSTATICVAR
1000
AcRTDxfName
1000
ACIMDBLSTATICVAR
1000
AcRTDxfName
1000
ACIMDBLSTATICVAR
  0
ACAD_PROXY_OBJECT
  5
2380
330
3C1
100
AcDbProxyObject
 90
      499
 91
      539
 95
   983063
 70
     0
161
               294
310
000140C050A656467654F75747075740144F3B7F635ECB74A140A4817D41BDB1E5B1A5B994
330
3C1
 94
        0
1001
ACAD
1000
AcRTDxfName
1000
ACIMSTRSTATICVAR
1000
AcRTDxfName
1000
ACIMSTRSTATICVAR
1000
AcRTDxfName
1000
ACIMSTRSTATICVAR
1000
AcRTDxfName
1000
ACIMSTRSTATICVAR
1000
AcRTDxfName
1000
ACIMSTRSTATICVAR
1000
AcRTDxfName
1000
ACIMSTRSTATICVAR
  0
ACAD_PROXY_OBJECT
  5
2381
330
3C1
100
AcDbProxyObject
 90
      499
 91
      540
 95
   983063
 70
     0
161
               154
310
0001404050B65646974507265766965774064040
330
3C1
 94
        0
1001
ACAD
1000
AcRTDxfName
1000
ACIMINTSTATICVAR
1000
AcRTDxfName
1000
ACIMINTSTATICVAR
1000
AcRTDxfName
1000
ACIMINTSTATICVAR
1000
AcRTDxfName
1000
ACIMINTSTATICVAR
1000
AcRTDxfName
1000
ACIMINTSTATICVAR
1000
AcRTDxfName
1000
ACIMINTSTATICVAR
  0
ACAD_PROXY_OBJECT
  5
2382
330
3C1
100
AcDbProxyObject
 90
      499
 91
      540
 95
   983063
 70
     0
161
               170
310
0001404050A666C6F77556C696E657342A3A00C00000
330
3C1
 94
        0
1001
ACAD
1000
AcRTDxfName
1000
ACIMINTSTATICVAR
1000
AcRTDxfName
1000
ACIMINTSTATICVAR
1000
AcRTDxfName
1000
ACIMINTSTATICVAR
1000
AcRTDxfName
1000
ACIMINTSTATICVAR
1000
AcRTDxfName
1000
ACIMINTSTATICVAR
1000
AcRTDxfName
1000
ACIMINTSTATICVAR
  0
ACAD_PROXY_OBJECT
  5
2383
330
3C1
100
AcDbProxyObject
 90
      499
 91
      540
 95
   983063
 70
     0
161
               170
310
0001404050A666C6F77566C696E657342A3A00C00000
330
3C1
 94
        0
1001
ACAD
1000
AcRTDxfName
1000
ACIMINTSTATICVAR
1000
AcRTDxfName
1000
ACIMINTSTATICVAR
1000
AcRTDxfName
1000
ACIMINTSTATICVAR
1000
AcRTDxfName
1000
ACIMINTSTATICVAR
1000
AcRTDxfName
1000
ACIMINTSTATICVAR
1000
AcRTDxfName
1000
ACIMINTSTATICVAR
  0
ACAD_PROXY_OBJECT
  5
2384
330
3C1
100
AcDbProxyObject
 90
      499
 91
      538
 95
   983063
 70
     0
161
               322
310
0001408050A666C7366456E645261640000000000003C2FC000000000000F0BF0000003F20F5E5D040
330
3C1
 94
        0
1001
ACAD
1000
AcRTDxfName
1000
ACIMDBLSTATICVAR
1000
AcRTDxfName
1000
ACIMDBLSTATICVAR
1000
AcRTDxfName
1000
ACIMDBLSTATICVAR
1000
AcRTDxfName
1000
ACIMDBLSTATICVAR
1000
AcRTDxfName
1000
ACIMDBLSTATICVAR
1000
AcRTDxfName
1000
ACIMDBLSTATICVAR
  0
ACAD_PROXY_OBJECT
  5
2385
330
3C1
100
AcDbProxyObject
 90
      499
 91
      539
 95
   983063
 70
     0
161
               246
310
000140C05086A6E33644D6F64650143E3BA24EB8A134A4817D3585B9D585B0
330
3C1
 94
        0
1001
ACAD
1000
AcRTDxfName
1000
ACIMSTRSTATICVAR
1000
AcRTDxfName
1000
ACIMSTRSTATICVAR
1000
AcRTDxfName
1000
ACIMSTRSTATICVAR
1000
AcRTDxfName
1000
ACIMSTRSTATICVAR
1000
AcRTDxfName
1000
ACIMSTRSTATICVAR
1000
AcRTDxfName
1000
ACIMSTRSTATICVAR
  0
ACAD_PROXY_OBJECT
  5
2386
330
3C1
100
AcDbProxyObject
 90
      499
 91
      539
 95
   983063
 70
     0
161
               294
310
000140C050A6A6E33644F75747075740144F3B7F635ECB74A140A4817D41BDB1E5B1A5B994
330
3C1
 94
        0
1001
ACAD
1000
AcRTDxfName
1000
ACIMSTRSTATICVAR
1000
AcRTDxfName
1000
ACIMSTRSTATICVAR
1000
AcRTDxfName
1000
ACIMSTRSTATICVAR
1000
AcRTDxfName
1000
ACIMSTRSTATICVAR
1000
AcRTDxfName
1000
ACIMSTRSTATICVAR
1000
AcRTDxfName
1000
ACIMSTRSTATICVAR
  0
ACAD_PROXY_OBJECT
  5
2387
330
3C1
100
AcDbProxyObject
 90
      499
 91
      538
 95
   983063
 70
     0
161
               306
310
000140805086C656E675065726300000000002016D002D431CEBE2361A3F0000003F20F5E5D040
330
3C1
 94
        0
1001
ACAD
1000
AcRTDxfName
1000
ACIMDBLSTATICVAR
1000
AcRTDxfName
1000
ACIMDBLSTATICVAR
1000
AcRTDxfName
1000
ACIMDBLSTATICVAR
1000
AcRTDxfName
1000
ACIMDBLSTATICVAR
1000
AcRTDxfName
1000
ACIMDBLSTATICVAR
1000
AcRTDxfName
1000
ACIMDBLSTATICVAR
  0
ACAD_PROXY_OBJECT
  5
2388
330
3C1
100
AcDbProxyObject
 90
      499
 91
      538
 95
   983063
 70
     0
161
               266
310
0001408050B6D61737344656E7369747942D431CEBE2361A3F0000003F20F5E5D040
330
3C1
 94
        0
1001
ACAD
1000
AcRTDxfName
1000
ACIMDBLSTATICVAR
1000
AcRTDxfName
1000
ACIMDBLSTATICVAR
1000
AcRTDxfName
1000
ACIMDBLSTATICVAR
1000
AcRTDxfName
1000
ACIMDBLSTATICVAR
1000
AcRTDxfName
1000
ACIMDBLSTATICVAR
1000
AcRTDxfName
1000
ACIMDBLSTATICVAR
  0
ACAD_PROXY_OBJECT
  5
2389
330
3C1
100
AcDbProxyObject
 90
      499
 91
      538
 95
   983063
 70
     0
161
               186
310
000140805096D617373546869636BA0000003F20F5E5D040
330
3C1
 94
        0
1001
ACAD
1000
AcRTDxfName
1000
ACIMDBLSTATICVAR
1000
AcRTDxfName
1000
ACIMDBLSTATICVAR
1000
AcRTDxfName
1000
ACIMDBLSTATICVAR
1000
AcRTDxfName
1000
ACIMDBLSTATICVAR
1000
AcRTDxfName
1000
ACIMDBLSTATICVAR
1000
AcRTDxfName
1000
ACIMDBLSTATICVAR
  0
ACAD_PROXY_OBJECT
  5
238A
330
3C1
100
AcDbProxyObject
 90
      499
 91
      539
 95
   983063
 70
     0
161
               230
310
000140C05086D6173735479706501436F2AB64A14CA4817D4DA195B1B0
330
3C1
 94
        0
1001
ACAD
1000
AcRTDxfName
1000
ACIMSTRSTATICVAR
1000
AcRTDxfName
1000
ACIMSTRSTATICVAR
1000
AcRTDxfName
1000
ACIMSTRSTATICVAR
1000
AcRTDxfName
1000
ACIMSTRSTATICVAR
1000
AcRTDxfName
1000
ACIMSTRSTATICVAR
1000
AcRTDxfName
1000
ACIMSTRSTATICVAR
  0
ACAD_PROXY_OBJECT
  5
238B
330
3C1
100
AcDbProxyObject
 90
      499
 91
      538
 95
   983063
 70
     0
161
               242
310
000140805086F667366446973744000000FC83D797C10000003F20F5E5D040
330
3C1
 94
        0
1001
ACAD
1000
AcRTDxfName
1000
ACIMDBLSTATICVAR
1000
AcRTDxfName
1000
ACIMDBLSTATICVAR
1000
AcRTDxfName
1000
ACIMDBLSTATICVAR
1000
AcRTDxfName
1000
ACIMDBLSTATICVAR
1000
AcRTDxfName
1000
ACIMDBLSTATICVAR
1000
AcRTDxfName
1000
ACIMDBLSTATICVAR
  0
ACAD_PROXY_OBJECT
  5
238C
330
3C1
100
AcDbProxyObject
 90
      499
 91
      538
 95
   983063
 70
     0
161
               258
310
0001408050A7072696D52616469757342D431CEBE2361A3F0000003F20F5E5D040
330
3C1
 94
        0
1001
ACAD
1000
AcRTDxfName
1000
ACIMDBLSTATICVAR
1000
AcRTDxfName
1000
ACIMDBLSTATICVAR
1000
AcRTDxfName
1000
ACIMDBLSTATICVAR
1000
AcRTDxfName
1000
ACIMDBLSTATICVAR
1000
AcRTDxfName
1000
ACIMDBLSTATICVAR
1000
AcRTDxfName
1000
ACIMDBLSTATICVAR
  0
ACAD_PROXY_OBJECT
  5
238D
330
3C1
100
AcDbProxyObject
 90
      499
 91
      538
 95
   983063
 70
     0
161
               194
310
0001408050A7072696D546F70526164A0000003F20F5E5D040
330
3C1
 94
        0
1001
ACAD
1000
AcRTDxfName
1000
ACIMDBLSTATICVAR
1000
AcRTDxfName
1000
ACIMDBLSTATICVAR
1000
AcRTDxfName
1000
ACIMDBLSTATICVAR
1000
AcRTDxfName
1000
ACIMDBLSTATICVAR
1000
AcRTDxfName
1000
ACIMDBLSTATICVAR
1000
AcRTDxfName
1000
ACIMDBLSTATICVAR
  0
ACAD_PROXY_OBJECT
  5
238E
330
3C1
100
AcDbProxyObject
 90
      499
 91
      538
 95
   983063
 70
     0
161
               266
310
0001408050B7072696D5475626552616442D431CEBE2361A3F0000003F20F5E5D040
330
3C1
 94
        0
1001
ACAD
1000
AcRTDxfName
1000
ACIMDBLSTATICVAR
1000
AcRTDxfName
1000
ACIMDBLSTATICVAR
1000
AcRTDxfName
1000
ACIMDBLSTATICVAR
1000
AcRTDxfName
1000
ACIMDBLSTATICVAR
1000
AcRTDxfName
1000
ACIMDBLSTATICVAR
1000
AcRTDxfName
1000
ACIMDBLSTATICVAR
  0
ACAD_PROXY_OBJECT
  5
238F
330
3C1
100
AcDbProxyObject
 90
      499
 91
      538
 95
   983063
 70
     0
161
               258
310
0001408050A7072696D4865696768744000000FC83D797C10000003F20F5E5D040
330
3C1
 94
        0
1001
ACAD
1000
AcRTDxfName
1000
ACIMDBLSTATICVAR
1000
AcRTDxfName
1000
ACIMDBLSTATICVAR
1000
AcRTDxfName
1000
ACIMDBLSTATICVAR
1000
AcRTDxfName
1000
ACIMDBLSTATICVAR
1000
AcRTDxfName
1000
ACIMDBLSTATICVAR
1000
AcRTDxfName
1000
ACIMDBLSTATICVAR
  0
ACAD_PROXY_OBJECT
  5
2390
330
3C1
100
AcDbProxyObject
 90
      499
 91
      538
 95
   983063
 70
     0
161
               250
310
000140805097072696D5374416E678182D4454FB2119C0060B51153EC8465000
330
3C1
 94
        0
1001
ACAD
1000
AcRTDxfName
1000
ACIMDBLSTATICVAR
1000
AcRTDxfName
1000
ACIMDBLSTATICVAR
1000
AcRTDxfName
1000
ACIMDBLSTATICVAR
1000
AcRTDxfName
1000
ACIMDBLSTATICVAR
1000
AcRTDxfName
1000
ACIMDBLSTATICVAR
1000
AcRTDxfName
1000
ACIMDBLSTATICVAR
  0
ACAD_PROXY_OBJECT
  5
2391
330
3C1
100
AcDbProxyObject
 90
      499
 91
      538
 95
   983063
 70
     0
161
               322
310
0001408050A7072696D456E64416E67060B51153EC846500182D4454FB2119C0060B51153EC8465000
330
3C1
 94
        0
1001
ACAD
1000
AcRTDxfName
1000
ACIMDBLSTATICVAR
1000
AcRTDxfName
1000
ACIMDBLSTATICVAR
1000
AcRTDxfName
1000
ACIMDBLSTATICVAR
1000
AcRTDxfName
1000
ACIMDBLSTATICVAR
1000
AcRTDxfName
1000
ACIMDBLSTATICVAR
1000
AcRTDxfName
1000
ACIMDBLSTATICVAR
  0
ACAD_PROXY_OBJECT
  5
2392
330
3C1
100
AcDbProxyObject
 90
      499
 91
      538
 95
   983063
 70
     0
161
               242
310
000140805087265765374416E678182D4454FB2119C0060B51153EC8465000
330
3C1
 94
        0
1001
ACAD
1000
AcRTDxfName
1000
ACIMDBLSTATICVAR
1000
AcRTDxfName
1000
ACIMDBLSTATICVAR
1000
AcRTDxfName
1000
ACIMDBLSTATICVAR
1000
AcRTDxfName
1000
ACIMDBLSTATICVAR
1000
AcRTDxfName
1000
ACIMDBLSTATICVAR
1000
AcRTDxfName
1000
ACIMDBLSTATICVAR
  0
ACAD_PROXY_OBJECT
  5
2393
330
3C1
100
AcDbProxyObject
 90
      499
 91
      538
 95
   983063
 70
     0
161
               314
310
00014080509726576456E64416E67060B51153EC846500182D4454FB2119C0060B51153EC8465000
330
3C1
 94
        0
1001
ACAD
1000
AcRTDxfName
1000
ACIMDBLSTATICVAR
1000
AcRTDxfName
1000
ACIMDBLSTATICVAR
1000
AcRTDxfName
1000
ACIMDBLSTATICVAR
1000
AcRTDxfName
1000
ACIMDBLSTATICVAR
1000
AcRTDxfName
1000
ACIMDBLSTATICVAR
1000
AcRTDxfName
1000
ACIMDBLSTATICVAR
  0
ACAD_PROXY_OBJECT
  5
2394
330
3C1
100
AcDbProxyObject
 90
      499
 91
      540
 95
   983063
 70
     0
161
               194
310
0001404050C7266736655706174636865734290139C0C00000
330
3C1
 94
        0
1001
ACAD
1000
AcRTDxfName
1000
ACIMINTSTATICVAR
1000
AcRTDxfName
1000
ACIMINTSTATICVAR
1000
AcRTDxfName
1000
ACIMINTSTATICVAR
1000
AcRTDxfName
1000
ACIMINTSTATICVAR
1000
AcRTDxfName
1000
ACIMINTSTATICVAR
1000
AcRTDxfName
1000
ACIMINTSTATICVAR
  0
ACAD_PROXY_OBJECT
  5
2395
330
3C1
100
AcDbProxyObject
 90
      499
 91
      540
 95
   983063
 70
     0
161
               194
310
0001404050C7266736656706174636865734290139C0C00000
330
3C1
 94
        0
1001
ACAD
1000
AcRTDxfName
1000
ACIMINTSTATICVAR
1000
AcRTDxfName
1000
ACIMINTSTATICVAR
1000
AcRTDxfName
1000
ACIMINTSTATICVAR
1000
AcRTDxfName
1000
ACIMINTSTATICVAR
1000
AcRTDxfName
1000
ACIMINTSTATICVAR
1000
AcRTDxfName
1000
ACIMINTSTATICVAR
  0
ACAD_PROXY_OBJECT
  5
2396
330
3C1
100
AcDbProxyObject
 90
      499
 91
      539
 95
   983063
 70
     0
161
               246
310
000140C0508747562654D6F64650143E3BA24EB8A134A4817D3585B9D585B0
330
3C1
 94
        0
1001
ACAD
1000
AcRTDxfName
1000
ACIMSTRSTATICVAR
1000
AcRTDxfName
1000
ACIMSTRSTATICVAR
1000
AcRTDxfName
1000
ACIMSTRSTATICVAR
1000
AcRTDxfName
1000
ACIMSTRSTATICVAR
1000
AcRTDxfName
1000
ACIMSTRSTATICVAR
1000
AcRTDxfName
1000
ACIMSTRSTATICVAR
  0
ACAD_PROXY_OBJECT
  5
2397
330
3C1
100
AcDbProxyObject
 90
      499
 91
      538
 95
   983063
 70
     0
161
               274
310
0001408050C747562654469616D6574657242D431CEBE2361A3F0000003F20F5E5D040
330
3C1
 94
        0
1001
ACAD
1000
AcRTDxfName
1000
ACIMDBLSTATICVAR
1000
AcRTDxfName
1000
ACIMDBLSTATICVAR
1000
AcRTDxfName
1000
ACIMDBLSTATICVAR
1000
AcRTDxfName
1000
ACIMDBLSTATICVAR
1000
AcRTDxfName
1000
ACIMDBLSTATICVAR
1000
AcRTDxfName
1000
ACIMDBLSTATICVAR
  0
ACAD_PROXY_OBJECT
  5
2398
330
3C1
100
AcDbProxyObject
 90
      499
 91
      538
 95
   983063
 70
     0
161
               314
310
00014080509626C656E644261636B0000000000000D1002D431CEBE2361A3F000000000000165000
330
3C1
 94
        0
1001
ACAD
1000
AcRTDxfName
1000
ACIMDBLSTATICVAR
1000
AcRTDxfName
1000
ACIMDBLSTATICVAR
1000
AcRTDxfName
1000
ACIMDBLSTATICVAR
1000
AcRTDxfName
1000
ACIMDBLSTATICVAR
1000
AcRTDxfName
1000
ACIMDBLSTATICVAR
1000
AcRTDxfName
1000
ACIMDBLSTATICVAR
  0
ACAD_PROXY_OBJECT
  5
2399
330
3C1
100
AcDbProxyObject
 90
      499
 91
      540
 95
   983063
 70
     0
161
               130
310
00014040509696E746572506F6C79A4040
330
3C1
 94
        0
1001
ACAD
1000
AcRTDxfName
1000
ACIMINTSTATICVAR
1000
AcRTDxfName
1000
ACIMINTSTATICVAR
1000
AcRTDxfName
1000
ACIMINTSTATICVAR
1000
AcRTDxfName
1000
ACIMINTSTATICVAR
1000
AcRTDxfName
1000
ACIMINTSTATICVAR
1000
AcRTDxfName
1000
ACIMINTSTATICVAR
  0
ACAD_PROXY_OBJECT
  5
239A
330
3C1
100
AcDbProxyObject
 90
      499
 91
      540
 95
   983063
 70
     0
161
               146
310
0001404050A70726F6A4F757470757440A4080
330
3C1
 94
        0
1001
ACAD
1000
AcRTDxfName
1000
ACIMINTSTATICVAR
1000
AcRTDxfName
1000
ACIMINTSTATICVAR
1000
AcRTDxfName
1000
ACIMINTSTATICVAR
1000
AcRTDxfName
1000
ACIMINTSTATICVAR
1000
AcRTDxfName
1000
ACIMINTSTATICVAR
1000
AcRTDxfName
1000
ACIMINTSTATICVAR
  0
ACAD_PROXY_OBJECT
  5
23A4
330
3C1
100
AcDbProxyObject
 90
      499
 91
      547
 95
   983063
 70
     0
161
               666
310
0001000000009AA6A9AA40518576564204D61792031342031353A32383A3539203230303301420D0B8C4B8CCB8C4C00518576564204D61792031342031353A34343A3539203230303301420D0B8C4B8CCB8C4C00
330
3C1
330
23A5
330
23A6
330
23A8
330
0
 94
        0
1001
ACAD
1000
AcRTDxfName
1000
ADAPPL
1000
AcRTDxfName
1000
ADAPPL
1000
AcRTDxfName
1000
ADAPPL
1000
AcRTDxfName
1000
ADAPPL
1000
AcRTDxfName
1000
ADAPPL
1000
AcRTDxfName
1000
ADAPPL
  0
ACAD_PROXY_OBJECT
  5
23A5
330
3C1
100
AcDbProxyObject
 90
      499
 91
      548
 95
   983063
 70
     0
161
                70
310
0001AAA80820000000
330
3C1
330
23A5
330
23A5
 94
        0
1001
ACAD
1000
AcRTDxfName
1000
DEPMGR
1000
AcRTDxfName
1000
DEPMGR
1000
AcRTDxfName
1000
DEPMGR
1000
AcRTDxfName
1000
DEPMGR
1000
AcRTDxfName
1000
DEPMGR
1000
AcRTDxfName
1000
DEPMGR
  0
ACAD_PROXY_OBJECT
  5
23A6
330
3C1
100
AcDbProxyObject
 90
      499
 91
      549
 95
   983063
 70
     0
161
                48
310
000100000000
330
3C1
330
0
330
23A7
330
0
330
0
 94
        0
1001
ACAD
1000
AcRTDxfName
1000
PARAMMGR
1000
AcRTDxfName
1000
PARAMMGR
1000
AcRTDxfName
1000
PARAMMGR
1000
AcRTDxfName
1000
PARAMMGR
1000
AcRTDxfName
1000
PARAMMGR
1000
AcRTDxfName
1000
PARAMMGR
  0
ACAD_PROXY_OBJECT
  5
23A7
330
3C1
100
AcDbProxyObject
 90
      499
 91
      550
 95
   983063
 70
     0
161
                40
310
000100AAAA
330
3C1
330
0
 94
        0
1001
ACAD
1000
AcRTDxfName
1000
PARAMSCOPE
1000
AcRTDxfName
1000
PARAMSCOPE
1000
AcRTDxfName
1000
PARAMSCOPE
1000
AcRTDxfName
1000
PARAMSCOPE
1000
AcRTDxfName
1000
PARAMSCOPE
1000
AcRTDxfName
1000
PARAMSCOPE
  0
ACAD_PROXY_OBJECT
  5
23A9
330
3C1
100
AcDbProxyObject
 90
      499
 91
      508
 95
   983063
 70
     0
161
               124
310
00010142905350D3D39114D414D69050
330
3C1
 94
        0
1001
ACAD
1000
AcRTDxfName
1000
ACIMINTSYSVAR
1000
AcRTDxfName
1000
ACIMINTSYSVAR
1000
AcRTDxfName
1000
ACIMINTSYSVAR
1000
AcRTDxfName
1000
ACIMINTSYSVAR
1000
AcRTDxfName
1000
ACIMINTSYSVAR
1000
AcRTDxfName
1000
ACIMINTSYSVAR
  0
ACAD_PROXY_OBJECT
  5
23AA
330
3C1
100
AcDbProxyObject
 90
      499
 91
      508
 95
   983063
 70
     0
161
               124
310
000101429053549553115353D1115010
330
3C1
 94
        0
1001
ACAD
1000
AcRTDxfName
1000
ACIMINTSYSVAR
1000
AcRTDxfName
1000
ACIMINTSYSVAR
1000
AcRTDxfName
1000
ACIMINTSYSVAR
1000
AcRTDxfName
1000
ACIMINTSYSVAR
1000
AcRTDxfName
1000
ACIMINTSYSVAR
1000
AcRTDxfName
1000
ACIMINTSYSVAR
  0
ACAD_PROXY_OBJECT
  5
23AB
330
3C1
100
AcDbProxyObject
 90
      499
 91
      508
 95
   983063
 70
     0
161
               108
310
00010142105354D2D353D1115010
330
3C1
 94
        0
1001
ACAD
1000
AcRTDxfName
1000
ACIMINTSYSVAR
1000
AcRTDxfName
1000
ACIMINTSYSVAR
1000
AcRTDxfName
1000
ACIMINTSYSVAR
1000
AcRTDxfName
1000
ACIMINTSYSVAR
1000
AcRTDxfName
1000
ACIMINTSYSVAR
1000
AcRTDxfName
1000
ACIMINTSYSVAR
  0
ACAD_PROXY_OBJECT
  5
23AC
330
3C1
100
AcDbProxyObject
 90
      499
 91
      508
 95
   983063
 70
     0
161
               140
310
000101435053511253511254D41353D11160
330
3C1
 94
        0
1001
ACAD
1000
AcRTDxfName
1000
ACIMINTSYSVAR
1000
AcRTDxfName
1000
ACIMINTSYSVAR
1000
AcRTDxfName
1000
ACIMINTSYSVAR
1000
AcRTDxfName
1000
ACIMINTSYSVAR
1000
AcRTDxfName
1000
ACIMINTSYSVAR
1000
AcRTDxfName
1000
ACIMINTSYSVAR
  0
ACAD_PROXY_OBJECT
  5
23AD
330
3C1
100
AcDbProxyObject
 90
      499
 91
      507
 95
   983063
 70
     0
161
               180
310
00010142905354D2D05391D513D3000000000000010400
330
3C1
 94
        0
1001
ACAD
1000
AcRTDxfName
1000
ACIMREALSYSVAR
1000
AcRTDxfName
1000
ACIMREALSYSVAR
1000
AcRTDxfName
1000
ACIMREALSYSVAR
1000
AcRTDxfName
1000
ACIMREALSYSVAR
1000
AcRTDxfName
1000
ACIMREALSYSVAR
1000
AcRTDxfName
1000
ACIMREALSYSVAR
  0
ACAD_PROXY_OBJECT
  5
23AE
330
3C1
100
AcDbProxyObject
 90
      499
 91
      537
 95
   983063
 70
     0
161
               164
310
00010142505354D2D4D516531140505434F4E542A0
330
3C1
 94
        0
1001
ACAD
1000
AcRTDxfName
1000
ACIMSTRSYSVAR
1000
AcRTDxfName
1000
ACIMSTRSYSVAR
1000
AcRTDxfName
1000
ACIMSTRSYSVAR
1000
AcRTDxfName
1000
ACIMSTRSYSVAR
1000
AcRTDxfName
1000
ACIMSTRSYSVAR
1000
AcRTDxfName
1000
ACIMSTRSYSVAR
  0
ACAD_PROXY_OBJECT
  5
23AF
330
3C1
100
AcDbProxyObject
 90
      499
 91
      508
 95
   983063
 70
     0
161
               108
310
00010142105350D3511112535010
330
3C1
 94
        0
1001
ACAD
1000
AcRTDxfName
1000
ACIMINTSYSVAR
1000
AcRTDxfName
1000
ACIMINTSYSVAR
1000
AcRTDxfName
1000
ACIMINTSYSVAR
1000
AcRTDxfName
1000
ACIMINTSYSVAR
1000
AcRTDxfName
1000
ACIMINTSYSVAR
1000
AcRTDxfName
1000
ACIMINTSYSVAR
  0
ACAD_PROXY_OBJECT
  5
23B0
330
3C1
100
AcDbProxyObject
 90
      499
 91
      508
 95
   983063
 70
     0
161
               108
310
00010142105350D3D35414D59010
330
3C1
 94
        0
1001
ACAD
1000
AcRTDxfName
1000
ACIMINTSYSVAR
1000
AcRTDxfName
1000
ACIMINTSYSVAR
1000
AcRTDxfName
1000
ACIMINTSYSVAR
1000
AcRTDxfName
1000
ACIMINTSYSVAR
1000
AcRTDxfName
1000
ACIMINTSYSVAR
1000
AcRTDxfName
1000
ACIMINTSYSVAR
  0
ACAD_PROXY_OBJECT
  5
23B1
330
3C1
100
AcDbProxyObject
 90
      499
 91
      537
 95
   983063
 70
     0
161
               164
310
0001014290535410549514D4119600504504152540
330
3C1
 94
        0
1001
ACAD
1000
AcRTDxfName
1000
ACIMSTRSYSVAR
1000
AcRTDxfName
1000
ACIMSTRSYSVAR
1000
AcRTDxfName
1000
ACIMSTRSYSVAR
1000
AcRTDxfName
1000
ACIMSTRSYSVAR
1000
AcRTDxfName
1000
ACIMSTRSYSVAR
1000
AcRTDxfName
1000
ACIMSTRSYSVAR
  0
ACAD_PROXY_OBJECT
  5
23B2
330
3C1
100
AcDbProxyObject
 90
      499
 91
      537
 95
   983063
 70
     0
161
               220
310
0001014350535513D3D31093D11654119600508544F4F4C424F44590
330
3C1
 94
        0
1001
ACAD
1000
AcRTDxfName
1000
ACIMSTRSYSVAR
1000
AcRTDxfName
1000
ACIMSTRSYSVAR
1000
AcRTDxfName
1000
ACIMSTRSYSVAR
1000
AcRTDxfName
1000
ACIMSTRSYSVAR
1000
AcRTDxfName
1000
ACIMSTRSYSVAR
1000
AcRTDxfName
1000
ACIMSTRSYSVAR
  0
ACAD_PROXY_OBJECT
  5
23B3
330
3C1
100
AcDbProxyObject
 90
      499
 91
      508
 95
   983063
 70
     0
161
               116
310
000101425053511254D410D3D39010
330
3C1
 94
        0
1001
ACAD
1000
AcRTDxfName
1000
ACIMINTSYSVAR
1000
AcRTDxfName
1000
ACIMINTSYSVAR
1000
AcRTDxfName
1000
ACIMINTSYSVAR
1000
AcRTDxfName
1000
ACIMINTSYSVAR
1000
AcRTDxfName
1000
ACIMINTSYSVAR
1000
AcRTDxfName
1000
ACIMINTSYSVAR
  0
ACAD_PROXY_OBJECT
  5
23B4
330
3C1
100
AcDbProxyObject
 90
      499
 91
      508
 95
   983063
 70
     0
161
               108
310
00010142105350D3D39114D41010
330
3C1
 94
        0
1001
ACAD
1000
AcRTDxfName
1000
ACIMINTSYSVAR
1000
AcRTDxfName
1000
ACIMINTSYSVAR
1000
AcRTDxfName
1000
ACIMINTSYSVAR
1000
AcRTDxfName
1000
ACIMINTSYSVAR
1000
AcRTDxfName
1000
ACIMINTSYSVAR
1000
AcRTDxfName
1000
ACIMINTSYSVAR
  0
ACAD_PROXY_OBJECT
  5
23B5
330
3C1
100
AcDbProxyObject
 90
      499
 91
      508
 95
   983063
 70
     0
161
               124
310
0001014290535490511114D414D69190
330
3C1
 94
        0
1001
ACAD
1000
AcRTDxfName
1000
ACIMINTSYSVAR
1000
AcRTDxfName
1000
ACIMINTSYSVAR
1000
AcRTDxfName
1000
ACIMINTSYSVAR
1000
AcRTDxfName
1000
ACIMINTSYSVAR
1000
AcRTDxfName
1000
ACIMINTSYSVAR
1000
AcRTDxfName
1000
ACIMINTSYSVAR
  0
ACAD_PROXY_OBJECT
  5
23B7
330
3C1
100
AcDbProxyObject
 90
      499
 91
      552
 95
   983063
 70
     0
161
              3196
310
0001419078050A544852555F4452494C4C0142D09312539117D1149253130050A544852555F43424F52450142D09312539117D0D093D4914050A544852555F4353494E4B0142D09312539117D0D4D25392D0641E01459EC94958C8094950535112504815121493D551D20B9F4051C7B252563202525414D444941205820252
310
5414D44455020444545507D014F5EC94958C8094950535112504815121493D551D20B9F57141ED0D093D49148094958C80949505350D112504816080949505350D091115408111151541F405437B252563202525414D4449412058202525414D44455020444545507D5C507B43424F524520252563202525414D4344494120
310
58202525414D434244455020444545507D014EDEC94958C8094950535112504815121493D551D20B9F57141ED0D4D25392C8094958C80949505350D112504816080949505350D4D05391C949591F405417B252563202525414D4449412058202525414D44455020444545507D5C507B4353494E4B20252563202525414D434
310
449412058202525414D4353414E472525647D0
330
3C1
 94
        0
1001
ACAD
1000
AcRTDxfName
1000
ADHNTMPLT
1000
AcRTDxfName
1000
ADHNTMPLT
1000
AcRTDxfName
1000
ADHNTMPLT
1000
AcRTDxfName
1000
ADHNTMPLT
1000
AcRTDxfName
1000
ADHNTMPLT
1000
AcRTDxfName
1000
ADHNTMPLT
  0
ACAD_PROXY_OBJECT
  5
23B9
330
3C1
100
AcDbProxyObject
 90
      499
 91
      508
 95
   983063
 70
     0
161
               140
310
00010143105354D554141490D3D313D49060
330
3C1
 94
        0
1001
ACAD
1000
AcRTDxfName
1000
ACIMINTSYSVAR
1000
AcRTDxfName
1000
ACIMINTSYSVAR
1000
AcRTDxfName
1000
ACIMINTSYSVAR
1000
AcRTDxfName
1000
ACIMINTSYSVAR
1000
AcRTDxfName
1000
ACIMINTSYSVAR
1000
AcRTDxfName
1000
ACIMINTSYSVAR
  0
ACAD_PROXY_OBJECT
  5
23BC
330
3C1
100
AcDbProxyObject
 90
      499
 91
      508
 95
   983063
 70
     0
161
               132
310
00010142D05050555513D4D3D315915010
330
3C1
 94
        0
1001
ACAD
1000
AcRTDxfName
1000
ACIMINTSYSVAR
1000
AcRTDxfName
1000
ACIMINTSYSVAR
1000
AcRTDxfName
1000
ACIMINTSYSVAR
1000
AcRTDxfName
1000
ACIMINTSYSVAR
1000
AcRTDxfName
1000
ACIMINTSYSVAR
1000
AcRTDxfName
1000
ACIMINTSYSVAR
  0
ACAD_PROXY_OBJECT
  5
23BD
330
3C1
100
AcDbProxyObject
 90
      499
 91
      508
 95
   983063
 70
     0
161
               156
310
00010143905050555513D054D4D1535093115010
330
3C1
 94
        0
1001
ACAD
1000
AcRTDxfName
1000
ACIMINTSYSVAR
1000
AcRTDxfName
1000
ACIMINTSYSVAR
1000
AcRTDxfName
1000
ACIMINTSYSVAR
1000
AcRTDxfName
1000
ACIMINTSYSVAR
1000
AcRTDxfName
1000
ACIMINTSYSVAR
1000
AcRTDxfName
1000
ACIMINTSYSVAR
  0
ACAD_PROXY_OBJECT
  5
23BE
330
3C1
100
AcDbProxyObject
 90
      499
 91
      508
 95
   983063
 70
     0
161
               148
310
00010143505055925155D49154D513D4915010
330
3C1
 94
        0
1001
ACAD
1000
AcRTDxfName
1000
ACIMINTSYSVAR
1000
AcRTDxfName
1000
ACIMINTSYSVAR
1000
AcRTDxfName
1000
ACIMINTSYSVAR
1000
AcRTDxfName
1000
ACIMINTSYSVAR
1000
AcRTDxfName
1000
ACIMINTSYSVAR
1000
AcRTDxfName
1000
ACIMINTSYSVAR
  0
ACAD_PROXY_OBJECT
  5
23BF
330
3C1
100
AcDbProxyObject
 90
      499
 91
      508
 95
   983063
 70
     0
161
               124
310
00010142D050525394D15495105094E0
330
3C1
 94
        0
1001
ACAD
1000
AcRTDxfName
1000
ACIMINTSYSVAR
1000
AcRTDxfName
1000
ACIMINTSYSVAR
1000
AcRTDxfName
1000
ACIMINTSYSVAR
1000
AcRTDxfName
1000
ACIMINTSYSVAR
1000
AcRTDxfName
1000
ACIMINTSYSVAR
1000
AcRTDxfName
1000
ACIMINTSYSVAR
  0
ACAD_PROXY_OBJECT
  5
23C0
330
3C1
100
AcDbProxyObject
 90
      499
 91
      508
 95
   983063
 70
     0
161
               148
310
00010143505054D0D153915554111055115010
330
3C1
 94
        0
1001
ACAD
1000
AcRTDxfName
1000
ACIMINTSYSVAR
1000
AcRTDxfName
1000
ACIMINTSYSVAR
1000
AcRTDxfName
1000
ACIMINTSYSVAR
1000
AcRTDxfName
1000
ACIMINTSYSVAR
1000
AcRTDxfName
1000
ACIMINTSYSVAR
1000
AcRTDxfName
1000
ACIMINTSYSVAR
  0
ACAD_PROXY_OBJECT
  5
23C1
330
3C1
100
AcDbProxyObject
 90
      499
 91
      537
 95
   983063
 70
     0
161
               172
310
00010143105054D5509054D4D3541196005035355420
330
3C1
 94
        0
1001
ACAD
1000
AcRTDxfName
1000
ACIMSTRSYSVAR
1000
AcRTDxfName
1000
ACIMSTRSYSVAR
1000
AcRTDxfName
1000
ACIMSTRSYSVAR
1000
AcRTDxfName
1000
ACIMSTRSYSVAR
1000
AcRTDxfName
1000
ACIMSTRSYSVAR
1000
AcRTDxfName
1000
ACIMSTRSYSVAR
  0
ACAD_PROXY_OBJECT
  5
23C2
330
3C1
100
AcDbProxyObject
 90
      499
 91
      537
 95
   983063
 70
     0
161
               172
310
00010142905054D0D15391541196005055343454E450
330
3C1
 94
        0
1001
ACAD
1000
AcRTDxfName
1000
ACIMSTRSYSVAR
1000
AcRTDxfName
1000
ACIMSTRSYSVAR
1000
AcRTDxfName
1000
ACIMSTRSYSVAR
1000
AcRTDxfName
1000
ACIMSTRSYSVAR
1000
AcRTDxfName
1000
ACIMSTRSYSVAR
1000
AcRTDxfName
1000
ACIMSTRSYSVAR
  0
ACAD_PROXY_OBJECT
  5
23C3
330
3C1
100
AcDbProxyObject
 90
      499
 91
      508
 95
   983063
 70
     0
161
               148
310
00010143505350555513D313D0D2D4D0D39010
330
3C1
 94
        0
1001
ACAD
1000
AcRTDxfName
1000
ACIMINTSYSVAR
1000
AcRTDxfName
1000
ACIMINTSYSVAR
1000
AcRTDxfName
1000
ACIMINTSYSVAR
1000
AcRTDxfName
1000
ACIMINTSYSVAR
1000
AcRTDxfName
1000
ACIMINTSYSVAR
1000
AcRTDxfName
1000
ACIMINTSYSVAR
  0
ACAD_PROXY_OBJECT
  5
23C8
330
3C1
100
AcDbProxyObject
 90
      499
 91
      556
 95
   983063
 70
     0
161
                32
310
00010000
330
3C1
340
23C5
330
23CA
330
23C5
 94
        0
1001
ACAD
1000
AcRTDxfName
1000
ACAMGRCOMPDEF
1000
AcRTDxfName
1000
ACAMGRCOMPDEF
1000
AcRTDxfName
1000
ACAMGRCOMPDEF
1000
AcRTDxfName
1000
ACAMGRCOMPDEF
1000
AcRTDxfName
1000
ACAMGRCOMPDEF
1000
AcRTDxfName
1000
ACAMGRCOMPDEF
  0
ACAD_PROXY_OBJECT
  5
23C9
330
3C1
100
AcDbProxyObject
 90
      499
 91
      557
 95
   983063
 70
     0
161
                18
310
000180
330
3C1
 94
        0
1001
ACAD
1000
AcRTDxfName
1000
ACCMCONTEXT
1000
AcRTDxfName
1000
ACCMCONTEXT
1000
AcRTDxfName
1000
ACCMCONTEXT
1000
AcRTDxfName
1000
ACCMCONTEXT
1000
AcRTDxfName
1000
ACCMCONTEXT
1000
AcRTDxfName
1000
ACCMCONTEXT
  0
ACAD_PROXY_OBJECT
  5
23CA
330
3C1
100
AcDbProxyObject
 90
      499
 91
      558
 95
   983063
 70
     0
161
               119
310
0001014191504CCC4C14D050055400
330
3C1
330
23C8
330
23C9
 94
        0
1001
ACAD
1000
AcRTDxfName
1000
ACAMCOMPDEF
1000
AcRTDxfName
1000
ACAMCOMPDEF
1000
AcRTDxfName
1000
ACAMCOMPDEF
1000
AcRTDxfName
1000
ACAMCOMPDEF
1000
AcRTDxfName
1000
ACAMCOMPDEF
1000
AcRTDxfName
1000
ACAMCOMPDEF
  0
ACAD_PROXY_OBJECT
  5
23CB
330
3C1
100
AcDbProxyObject
 90
      499
 91
      559
 95
   983063
 70
     0
161
                40
310
000100AAAA
330
3C1
330
23CA
 94
        0
1001
ACAD
1000
AcRTDxfName
1000
ACAMCOMPDEFMGR
1000
AcRTDxfName
1000
ACAMCOMPDEFMGR
1000
AcRTDxfName
1000
ACAMCOMPDEFMGR
1000
AcRTDxfName
1000
ACAMCOMPDEFMGR
1000
AcRTDxfName
1000
ACAMCOMPDEFMGR
1000
AcRTDxfName
1000
ACAMCOMPDEFMGR
  0
ACAD_PROXY_OBJECT
  5
23CC
330
3C1
100
AcDbProxyObject
 90
      499
 91
      560
 95
   983063
 70
     0
161
                96
310
000190140A000000000000AA
330
3C1
330
23CD
330
23CD
330
23CD
330
23CD
330
23CD
330
0
 94
        0
1001
ACAD
1000
AcRTDxfName
1000
AMCONTEXTMGR
1000
AcRTDxfName
1000
AMCONTEXTMGR
1000
AcRTDxfName
1000
AMCONTEXTMGR
1000
AcRTDxfName
1000
AMCONTEXTMGR
1000
AcRTDxfName
1000
AMCONTEXTMGR
1000
AcRTDxfName
1000
AMCONTEXTMGR
  0
ACAD_PROXY_OBJECT
  5
23CD
330
3C1
100
AcDbProxyObject
 90
      499
 91
      561
 95
   983063
 70
     0
161
               141
310
00010000406AAAAAAAAAAAAAA9A9806AAAA0
330
3C1
330
23CC
330
23CA
 94
        0
1001
ACAD
1000
AcRTDxfName
1000
ACAMCONTEXTMODELER
1000
AcRTDxfName
1000
ACAMCONTEXTMODELER
1000
AcRTDxfName
1000
ACAMCONTEXTMODELER
1000
AcRTDxfName
1000
ACAMCONTEXTMODELER
1000
AcRTDxfName
1000
ACAMCONTEXTMODELER
1000
AcRTDxfName
1000
ACAMCONTEXTMODELER
  0
DICTIONARY
  5
2334
102
{ACAD_REACTORS
330
2333
102
}
330
2333
100
AcDbDictionary
281
     1
  3
DWGSETTINGS
350
2335
  3
TRANSSETTINGS
350
2339
  0
ACAD_PROXY_OBJECT
  5
23D9
102
{ACAD_REACTORS
330
2333
102
}
330
2333
100
AcDbProxyObject
 90
      499
 91
      568
 95
   983063
 70
     0
161
             16352
310
40903491013041105357CC10747A404C504414D5F314391E9013241105357CC90547A404CD04414D5F334190F9013441105357CD10343E404D504414D5F3540D0F9013641105357CD90247A404DD04414D5F374110F9013841105357CE10143E404E504414D5F397F641102324141505357CC4C10747A408D10505414D5F31
310
3140D0F902495041505357CC4C90747902408C13905414D5F304E41D1E902314E41505357CC5390E47A408C93905414D5F324E4151E902334E41505357CCD390643E408D13905414D5F344E40D0F902354E41505357CD5390343E408D93905414D5F364E4091E902374E41505357CDD390443E408E13905414D5F384E4050F
310
902394E41505357CE539FD90440CC9053906414D5F31304E41D1E90334414E41905357CC4C5390343E40D25413906414D5F31324E41D1E409044B4C494E41505357D0D310143D094112539193D08414D5F50415245464110F42D055241484D3541905357D093D4907479094115925155D08414D5F56494557534050F42D064
310
24548494E4441905357D253959FD90D415514905253105414D5F545241D0F4250348494441905357D2125110743D0940D59254D06414D5F56495341D1E4250650415244494D42505357D4105491125350343D0941949151911253509414D5F52454644494D4110F4257641105315149013441D1E411091531250134CFFFFFF
310
FF411092139590139CFFFFFFFF415092139594D06424548494E44CFFFFFFFF41109312511023441CFFFFFFFF411093D0541023441CFFFFFFFF411093D48C9055241484D354050F411093D48CD055241484D354091E411093D48D5055241484D35CFFFFFFFF411093D48DD055241484D354793C41109410541023441CFFFFFF
310
FF41109411561023441CFFFFFFFF411095111250135CFFFFFFFF4110D0530C90134CFFFFFFFF4110D0530CD01344091E4110D0530D5013441D1E4110D0530DD01344793C4110D1539390137CFFFFFFFF4110D15395D0137CFFFFFFFF4110D312539044B4C494ECFFFFFFFF4110D3D38C50130CFFFFFFFF4110D3D38C90131C
310
FFFFFFFF4110D3D38CD0132CFFFFFFFF4110D3D38D10132CFFFFFFFF411111549410134CFFFFFFFF411111551050134CFFFFFFFF4111125051D0135CFFFFFFFF411112531250135CFFFFFFFF411112535410650415244494DCFFFFFFFF411112535490652454644494DCFFFFFFFF41115613541023441CFFFFFFFF41119153
310
5390138CFFFFFFFF4151915354139013840CFFFFFFFF4151915354D41023441CFFFFFFFF4151915354D5102344140D0F41519153559390132CFFFFFFFF4151915355951013240D0F411193105510130CFFFFFFFF41119490549023441CFFFFFFFF4111D4931250135CFFFFFFFF4111D593125023441CFFFFFFFF4112105510
310
D0138CFFFFFFFF411212511390133CFFFFFFFF4112125115D0133CFFFFFFFF411213125390134CFFFFFFFF411213D0D390137CFFFFFFFF411213D0D5D0137CFFFFFFFF4112539193D04494E464FCFFFFFFFF411310511250134CFFFFFFFF411311505110135CFFFFFFFF419397D0921395902394ECFFFFFFFF419397D0D3D3
310
8C502304ECFFFFFFFF419397D0D3D38C902314ECFFFFFFFF419397D0D3D38CD02324ECFFFFFFFF419397D0D3D38D102324ECFFFFFFFF419397D0D15393902374ECFFFFFFFF419397D0D15395D02374ECFFFFFFFF419397D1125312502354ECFFFFFFFF419397D2105510D02384ECFFFFFFFF419397D2125113902334ECFFFF
310
FFFF419397D2125115D02334ECFFFFFFFF419397D3115051102354ECFFFFFFFF419397D391D25410349504ECFFFFFFFF419397D412105390334414ECFFFFFFFF419397D510D3D3902304ECFFFFFFFF419397D5121312502344ECFFFFFFFF419397D5131153902304ECFFFFFFFF419397D516150CD02364ECFFFFFFFF419397
310
D594131250332414ECFFFFFFFF411391D2541024950CFFFFFFFF411410530C9055241484D354050F411410530CD055241484D354091E411410530D5055241484D35CFFFFFFFF411410530DD055241484D354793C41141210539023441CFFFFFFFF411413D4D39013641D1E419413D4D49151901364151E411413D4D610136C
310
FFFFFFFF411414D150D023441CFFFFFFFF411490D1D390137CFFFFFFFF411490D1D5D0137CFFFFFFFF411491911250134CFFFFFFFF41149455149013441D1E411494D093D0130CFFFFFFFF4114D09492D013441D1E4114D0D15390137CFFFFFFFF4114D150D510134CFFFFFFFF4114D1531390137CFFFFFFFF4114D15315D0
310
137CFFFFFFFF4114D4D654D0130CFFFFFFFF4114D513125013441D1E4114D6508C50135CFFFFFFFF4114D6508C90135CFFFFFFFF4114D6508CD01354091E4114D6508D5013541D1E4114D6535390137CFFFFFFFF4114D65355D0137CFFFFFFFF411510D3D390130CFFFFFFFF411512131250134CFFFFFFFF411512550C9055
310
241484D354050F411512550CD055241484D354091E411512550D5055241484D35CFFFFFFFF411512550DD055241484D354793C411513115390130CFFFFFFFF415514905253105545241494CCFFFFFFFF41151492D390137CFFFFFFFF41151492D5D0137CFFFFFFFF411514931250134CFFFFFFFF411516150C5013640D0F41
310
1516150C9013640D0F411516150CD0136CFFFFFFFF411516150D5013641D1E411516150DD01364793C4115925155D0456494557CFFFFFFFF4115915112103484944CFFFFFFFF4115915115903564953CFFFFFFFF41159413125023241CFFFFFFFF411692569050134CFFFFFFFFAA7F5013F90A4050F4091E40D0F4110F4151
310
E4190F41D1E4391E4793C7F6
340
14
340
14
340
14
340
234D
340
14
340
14
340
14
340
177F
340
14
340
14
340
177F
340
234E
340
14
340
14
340
14
340
14
340
234D
340
14
340
14
340
14
340
177F
340
14
340
14
340
177F
340
234E
340
14
340
23DD
340
14
340
14
340
14
340
14
340
14
340
234D
340
14
340
14
340
14
340
23E3
340
13
340
13
340
13
340
13
340
13
340
13
340
13
340
13
340
13
340
13
340
13
340
13
340
13
340
13
340
13
340
13
340
23E4
340
13
340
13
340
13
340
13
340
13
340
13
340
234E
340
13
340
13
340
13
340
13
340
13
340
13
340
13
340
13
340
14
340
13
340
13
340
13
340
13
340
13
340
13
340
13
340
13
340
23E3
340
13
340
13
340
23E4
340
13
340
13
340
13
340
13
340
13
340
13
340
13
340
13
340
13
340
23E4
340
13
340
13
340
13
340
23E3
340
13
340
13
340
13
340
13
340
13
340
23E3
340
13
340
13
340
234E
340
13
340
13
340
13
340
13
340
13
340
13
340
13
340
13
340
13
340
13
340
23E4
340
13
340
13
340
23E4
340
13
340
13
340
14
340
13
340
23E4
340
13
340
13
340
23E3
340
13
340
13
340
14
340
13
340
23E4
340
13
340
13
340
23E3
340
13
340
13
340
13
340
13
340
13
340
13
340
23E4
340
13
340
13
340
13
340
13
340
13
340
13
340
13
340
13
340
13
340
13
340
234E
340
23E5
 94
        0
1001
ACAD
1000
AcRTDxfName
1000
AMGOBJPROPCFG
1000
AcRTDxfName
1000
AMGOBJPROPCFG
1000
AcRTDxfName
1000
AMGOBJPROPCFG
1000
AcRTDxfName
1000
AMGOBJPROPCFG
1000
AcRTDxfName
1000
AMGOBJPROPCFG
1000
AcRTDxfName
1000
AMGOBJPROPCFG
  0
ACAD_PROXY_OBJECT
  5
25DE
102
{ACAD_REACTORS
330
25D9
102
}
330
25D9
100
AcDbProxyObject
 90
      499
 91
      569
 95
   983063
 70
     0
161
               253
310
43D1444494D454E53494F4E2C414D44545F2A5F44494D404A9012A404A9012A8
1001
ACAD
1000
AcRTDxfName
1000
ACAMGFILTERDAT
1000
AcRTDxfName
1000
ACAMGFILTERDAT
1000
AcRTDxfName
1000
ACAMGFILTERDAT
1000
AcRTDxfName
1000
ACAMGFILTERDAT
1000
AcRTDxfName
1000
ACAMGFILTERDAT
1000
AcRTDxfName
1000
ACAMGFILTERDAT
  0
ACAD_PROXY_OBJECT
  5
25DD
102
{ACAD_REACTORS
330
25D9
102
}
330
25D9
100
AcDbProxyObject
 90
      499
 91
      569
 95
   983063
 70
     0
161
               181
310
43D012A42D05357D191504B505357CA9012A404A9012A8
1001
ACAD
1000
AcRTDxfName
1000
ACAMGFILTERDAT
1000
AcRTDxfName
1000
ACAMGFILTERDAT
1000
AcRTDxfName
1000
ACAMGFILTERDAT
1000
AcRTDxfName
1000
ACAMGFILTERDAT
1000
AcRTDxfName
1000
ACAMGFILTERDAT
1000
AcRTDxfName
1000
ACAMGFILTERDAT
  0
ACAD_PROXY_OBJECT
  5
25DA
102
{ACAD_REACTORS
330
25D9
102
}
330
25D9
100
AcDbProxyObject
 90
      499
 91
      569
 95
   983063
 70
     0
161
               133
310
43D054841544348404A9012A404A9012A8
1001
ACAD
1000
AcRTDxfName
1000
ACAMGFILTERDAT
1000
AcRTDxfName
1000
ACAMGFILTERDAT
1000
AcRTDxfName
1000
ACAMGFILTERDAT
1000
AcRTDxfName
1000
ACAMGFILTERDAT
1000
AcRTDxfName
1000
ACAMGFILTERDAT
1000
AcRTDxfName
1000
ACAMGFILTERDAT
  0
ACAD_PROXY_OBJECT
  5
25DB
102
{ACAD_REACTORS
330
25D9
102
}
330
25D9
100
AcDbProxyObject
 90
      499
 91
      569
 95
   983063
 70
     0
161
               549
310
43D044C494E4549CE0B0E138B0A8B4E0B0A8B4E138B105357CE0B105357CE138B0A8B505357CE0B0A8B505357CE139012A404A910494E534552542C5354445041525432448
1001
ACAD
1000
AcRTDxfName
1000
ACAMGFILTERDAT
1000
AcRTDxfName
1000
ACAMGFILTERDAT
1000
AcRTDxfName
1000
ACAMGFILTERDAT
1000
AcRTDxfName
1000
ACAMGFILTERDAT
1000
AcRTDxfName
1000
ACAMGFILTERDAT
1000
AcRTDxfName
1000
ACAMGFILTERDAT
  0
ACAD_PROXY_OBJECT
  5
25DC
102
{ACAD_REACTORS
330
25D9
102
}
330
25D9
100
AcDbProxyObject
 90
      499
 91
      569
 95
   983063
 70
     0
161
               909
310
43D6641434D46434652414D452C41434D444154554D5441524745542C41434D444154554D49442C41434D57454C4453594D2C41434D5355524653594D2C41434D4645415449442C41434D504152545245462C41434D42414C4C4F4F4E2C414D44544544474553594D404A9012A404A9012A8
1001
ACAD
1000
AcRTDxfName
1000
ACAMGFILTERDAT
1000
AcRTDxfName
1000
ACAMGFILTERDAT
1000
AcRTDxfName
1000
ACAMGFILTERDAT
1000
AcRTDxfName
1000
ACAMGFILTERDAT
1000
AcRTDxfName
1000
ACAMGFILTERDAT
1000
AcRTDxfName
1000
ACAMGFILTERDAT
  0
XRECORD
  5
4E3D
102
{ACAD_REACTORS
330
B3C
102
}
330
B3C
100
AcDbXrecord
280
     1
300
ASK2000BIKOU>>A3横 1/10       <<                                                                                                                                                                                                                                                                                
  0
XRECORD
  5
B3D
102
{ACAD_REACTORS
330
B3C
102
}
330
B3C
100
AcDbXrecord
280
     1
  1
1/2
  0
XRECORD
  5
E23
102
{ACAD_REACTORS
330
B3C
102
}
330
B3C
100
AcDbXrecord
280
     1
 70
   255
  0
XRECORD
  5
28C4
102
{ACAD_REACTORS
330
28C3
102
}
330
28C3
100
AcDbXrecord
280
     1
  1
×
  1
×*
  1
*
  1
*
 70
     4
  1
*
  1
*
  0
XRECORD
  5
28C5
102
{ACAD_REACTORS
330
28C3
102
}
330
28C3
100
AcDbXrecord
280
     1
  1
cyan
  1
*
  1
cyan
  1
*
 70
     0
  1
*
  1
*
  0
XRECORD
  5
28C6
102
{ACAD_REACTORS
330
28C3
102
}
330
28C3
100
AcDbXrecord
280
     1
  1
off
  1
off-*
  1
*
  1
*
 70
     0
  1
*
  1
*
  0
XRECORD
  5
28C7
102
{ACAD_REACTORS
330
28C3
102
}
330
28C3
100
AcDbXrecord
280
     1
  1
text
  1
*TEXT*(
  1
*
  1
*
 70
     0
  1
*
  1
*
  0
XRECORD
  5
28C8
102
{ACAD_REACTORS
330
28C3
102
}
330
28C3
100
AcDbXrecord
280
     1
  1
yellow
  1
*
  1
yellow
  1
*
 70
     0
  1
*
  1
*
  0
XRECORD
  5
28C9
102
{ACAD_REACTORS
330
28C3
102
}
330
28C3
100
AcDbXrecord
280
     1
  1
圏央道縦断図
  1
*
  1
*
  1
*
 70
     0
  1
*
  1
*
  0
XRECORD
  5
28CA
102
{ACAD_REACTORS
330
28C3
102
}
330
28C3
100
AcDbXrecord
280
     1
  1
圏央道排水計画縦断図
  1
*
  1
*
  1
*
 70
     0
  1
*
  1
*
  0
LAYER_INDEX
  5
289F
102
{ACAD_REACTORS
330
289E
102
}
330
289E
100
AcDbIndex
 40
2456456.185009329
100
AcDbLayerIndex
  8
0
360
4E2C
 90
      118
  8
ASKPAPERSIZE
360
4E2D
 90
        1
  8
9図面枠
360
4E2E
 90
       26
  8
9図面文字
360
4E2F
 90
       51
  8
非表示破線
360
4E30
 90
        8
  8
LAYER01
360
4E31
 90
        0
  8
LAYER03
360
4E32
 90
        0
  8
LAYER02
360
4E33
 90
        0
  8
Defpoints
360
4E34
 90
        0
  8
TEXT_0
360
4E35
 90
        0
  0
DICTIONARY
  5
50BC
330
4A4B
100
AcDbDictionary
280
     1
281
     1
  3
ACAD_ROUNDTRIP_2008_TABLESTYLE_CELLSTYLEMAP
360
50BD
  0
ACAD_PROXY_OBJECT
  5
3D2
102
{ACAD_REACTORS
330
3D1
102
}
330
3D1
100
AcDbProxyObject
 90
      499
 91
      513
 95
   983063
 70
     0
161
               139
310
057356C1D35406406AA8FFFFFFFF09AA4040
330
18
330
0
330
0
 94
        0
1001
ACAD
1000
AcRTDxfName
1000
ACMDATAENTRYBLOCK
1000
AcRTDxfName
1000
ACMDATAENTRYBLOCK
1000
AcRTDxfName
1000
ACMDATAENTRYBLOCK
1000
AcRTDxfName
1000
ACMDATAENTRYBLOCK
1000
AcRTDxfName
1000
ACMDATAENTRYBLOCK
1000
AcRTDxfName
1000
ACMDATAENTRYBLOCK
  0
ACAD_PROXY_OBJECT
  5
2335
102
{ACAD_REACTORS
330
2334
102
}
330
2334
100
AcDbProxyObject
 90
      499
 91
      522
 95
   983063
 70
     0
161
              2627
310
4050B44574753455454494E4753A0E8482A68AA6A88882A08829CA69284A1A0A723A0A92920ACA0A8419983E1A1ABE1B1820C868A9C829C8E82A12686AF87260F862666A8321A2A72224A0A50000000000000701FA0E868A9C889282A682A16605C6AF8625C60F8625C6A83A1A2A72224A9AA250000000000000601FA0C868
310
A9C988A9C940000000000001C07E8321A2A727A323250000000000000701FA128698929C82A4A482B282A1C605C62646AF8605C646AF8605C6A8421A624A722AA2CA820A82AC2624A722A1288AE8EAAA68682988A94283A620A9AA27A12520A80982109A82968AAC928AAE9FA04832922AB24A9A4A0A809820AA68682988A8
310
2A08627462608429AA20A72220A92220A8220A729A4A12A8929A8AA6A8829AA0941D278F0448634E68283AB22A929A4A7A720A82989A971818220F688AE8EA68AA8A8929C8EA68A9C88FA0
1001
ACAD
1000
AcRTDxfName
1000
AMGSETTINGSOBJ
1000
AcRTDxfName
1000
AMGSETTINGSOBJ
1000
AcRTDxfName
1000
AMGSETTINGSOBJ
1000
AcRTDxfName
1000
AMGSETTINGSOBJ
1000
AcRTDxfName
1000
AMGSETTINGSOBJ
1000
AcRTDxfName
1000
AMGSETTINGSOBJ
  0
ACAD_PROXY_OBJECT
  5
2339
102
{ACAD_REACTORS
330
2334
102
}
330
2334
100
AcDbProxyObject
 90
      499
 91
      522
 95
   983063
 70
     0
161
               852
310
4050D5452414E5353455454494E4753A2488A482AE929C8EA8A4829CA69882A8929E9C0C00800050D4F524947494E414C4C595F4F4E0600400008529A7AAA921A2A620A723A0A81A52827212AAA0A48AA68AA4AC8A0C0080001107B44574753455454494E4753454E447D0
1001
ACAD
1000
AcRTDxfName
1000
AMGSETTINGSOBJ
1000
AcRTDxfName
1000
AMGSETTINGSOBJ
1000
AcRTDxfName
1000
AMGSETTINGSOBJ
1000
AcRTDxfName
1000
AMGSETTINGSOBJ
1000
AcRTDxfName
1000
AMGSETTINGSOBJ
1000
AcRTDxfName
1000
AMGSETTINGSOBJ
  0
IDBUFFER
  5
4E2C
330
289F
100
AcDbIdBuffer
330
2235
330
4A74
330
4A77
330
4A78
330
4A79
330
4A7A
330
4A7B
330
4A7C
330
4A7D
330
4A7E
330
4A80
330
4A81
330
4A82
330
4A86
330
4A95
330
4AA3
330
4AB1
330
4AC1
330
4AC2
330
4AC7
330
4AC8
330
4ACB
330
4AE6
330
4AE7
330
4AE8
330
4AEA
330
4AEB
330
4AEC
330
4AED
330
4AEE
330
4AEF
330
4AF8
330
4AF9
330
4AFA
330
4AFD
330
4B0B
330
4B13
330
4B7E
330
4B83
330
4B86
330
4B87
330
4B88
330
4B89
330
4B8A
330
4B8B
330
4B8E
330
4B8F
330
4B90
330
4B91
330
4B92
330
4B93
330
4B94
330
4B95
330
4B97
330
4B98
330
4B99
330
4B9A
330
4B9B
330
4B9C
330
4B9D
330
4B9E
330
4B9F
330
4BA0
330
4BA1
330
4BA2
330
4BA3
330
4BA4
330
4BA5
330
4BA6
330
4BAF
330
4BB0
330
4BB1
330
4BB2
330
4BB3
330
4BB4
330
4BB5
330
4BB6
330
4BB7
330
4BBF
330
4BC0
330
4BC1
330
4BCB
330
4BCC
330
4BCD
330
4BCE
330
4BD2
330
4BD8
330
4BD9
330
4BDA
330
4BDB
330
4BDE
330
4BE0
330
4BE2
330
4BE6
330
4BEB
330
4BEC
330
4BEE
330
4BEF
330
4BF4
330
4BF5
330
4BFA
330
4BFB
330
4C12
330
4C13
330
4C17
330
4C18
330
4C3A
330
4C41
330
4C47
330
4C5E
330
4CC0
330
4CC1
330
4CC2
330
4CC3
330
4CFA
330
4CFB
330
4D28
330
4DE2
  0
IDBUFFER
  5
4E2D
330
289F
100
AcDbIdBuffer
330
56C
  0
IDBUFFER
  5
4E2E
330
289F
100
AcDbIdBuffer
330
B06
330
B0C
330
B10
330
B1C
330
B1D
330
B1E
330
B1F
330
B21
330
D87
330
D88
330
D89
330
D8B
330
DF7
330
E46
330
E48
330
E53
330
E8C
330
EAE
330
1452
330
1453
330
1454
330
1457
330
145B
330
145C
330
1460
330
1461
  0
IDBUFFER
  5
4E2F
330
289F
100
AcDbIdBuffer
330
AD9
330
ADA
330
ADB
330
ADC
330
ADD
330
ADE
330
ADF
330
AE0
330
AE1
330
AE2
330
AE3
330
AE4
330
AE5
330
AE6
330
AE7
330
AE8
330
AE9
330
B07
330
B08
330
B09
330
B0A
330
B0D
330
B18
330
B19
330
B22
330
C69
330
D07
330
E45
330
E49
330
E4A
330
E4B
330
E4C
330
E4E
330
E4F
330
E50
330
E51
330
E81
330
E96
330
E97
330
E98
330
144F
330
1450
330
1451
330
1455
330
1456
330
1458
330
145A
330
145D
330
145E
330
145F
330
4D54
  0
IDBUFFER
  5
4E30
330
289F
100
AcDbIdBuffer
330
CFE
330
E47
330
E52
330
E54
330
E56
330
E84
330
E85
330
E88
  0
IDBUFFER
  5
4E31
330
289F
100
AcDbIdBuffer
  0
IDBUFFER
  5
4E32
330
289F
100
AcDbIdBuffer
  0
IDBUFFER
  5
4E33
330
289F
100
AcDbIdBuffer
  0
IDBUFFER
  5
4E34
330
289F
100
AcDbIdBuffer
  0
IDBUFFER
  5
4E35
330
289F
100
AcDbIdBuffer
  0
CELLSTYLEMAP
  5
50BD
102
{ACAD_REACTORS
330
50BC
102
}
330
50BC
100
AcDbCellStyleMap
 90
        3
300
CELLSTYLE
  1
TABLEFORMAT_BEGIN
 90
        5
170
     1
 91
        0
 92
    32768
 62
   257
 93
        1
300
CONTENTFORMAT
  1
CONTENTFORMAT_BEGIN
 90
        0
 91
        0
 92
      512
 93
        0
300

 40
0.0
140
1.0
 94
        5
 62
     0
340
10
144
0.25
309
CONTENTFORMAT_END
171
     0
 94
        0
309
TABLEFORMAT_END
  1
CELLSTYLE_BEGIN
 90
        1
 91
        1
300
_TITLE
309
CELLSTYLE_END
300
CELLSTYLE
  1
TABLEFORMAT_BEGIN
 90
        5
170
     1
 91
        0
 92
        0
 62
   257
 93
        1
300
CONTENTFORMAT
  1
CONTENTFORMAT_BEGIN
 90
        0
 91
        0
 92
      512
 93
        0
300

 40
0.0
140
1.0
 94
        5
 62
     0
340
10
144
0.18
309
CONTENTFORMAT_END
171
     0
 94
        0
309
TABLEFORMAT_END
  1
CELLSTYLE_BEGIN
 90
        2
 91
        1
300
_HEADER
309
CELLSTYLE_END
300
CELLSTYLE
  1
TABLEFORMAT_BEGIN
 90
        5
170
     1
 91
        0
 92
        0
 62
   257
 93
        1
300
CONTENTFORMAT
  1
CONTENTFORMAT_BEGIN
 90
        0
 91
        0
 92
      512
 93
        0
300

 40
0.0
140
1.0
 94
        2
 62
     0
340
10
144
0.18
309
CONTENTFORMAT_END
171
     0
 94
        0
309
TABLEFORMAT_END
  1
CELLSTYLE_BEGIN
 90
        3
 91
        2
300
_DATA
309
CELLSTYLE_END
  0
ENDSEC
  0
EOF
