  0
SECTION
  2
HEADER
  9
$ACADVER
  1
AC1015
  9
$ACADMAINTVER
 70
    20
  9
$DWGCODEPAGE
  3
ANSI_932
  9
$INSBASE
 10
0.0
 20
0.0
 30
0.0
  9
$EXTMIN
 10
0.0
 20
-200.2309465090632
 30
0.0
  9
$EXTMAX
 10
2100.0
 20
1485.0
 30
0.0
  9
$LIMMIN
 10
0.0
 20
0.0
  9
$LIMMAX
 10
2100.0
 20
1485.0
  9
$ORTHOMODE
 70
     1
  9
$REGENMODE
 70
     0
  9
$FILLMODE
 70
     1
  9
$QTEXTMODE
 70
     0
  9
$MIRRTEXT
 70
     1
  9
$LTSCALE
 40
5.0
  9
$ATTMODE
 70
     1
  9
$TEXTSIZE
 40
64.0
  9
$TRACEWID
 40
0.05
  9
$TEXTSTYLE
  7
USR5
  9
$CLAYER
  8
0
  9
$CELTYPE
  6
CONTINUOUS
  9
$CECOLOR
 62
     7
  9
$CELTSCALE
 40
1.0
  9
$DISPSILH
 70
     0
  9
$DIMSCALE
 40
5.0
  9
$DIMASZ
 40
2.0
  9
$DIMEXO
 40
1.0
  9
$DIMDLI
 40
8.0
  9
$DIMRND
 40
0.0
  9
$DIMDLE
 40
0.0
  9
$DIMEXE
 40
1.0
  9
$DIMTP
 40
0.0
  9
$DIMTM
 40
0.0
  9
$DIMTXT
 40
2.0
  9
$DIMCEN
 40
0.0
  9
$DIMTSZ
 40
0.0
  9
$DIMTOL
 70
     0
  9
$DIMLIM
 70
     0
  9
$DIMTIH
 70
     0
  9
$DIMTOH
 70
     0
  9
$DIMSE1
 70
     0
  9
$DIMSE2
 70
     0
  9
$DIMTAD
 70
     0
  9
$DIMZIN
 70
     8
  9
$DIMBLK
  1

  9
$DIMASO
 70
     1
  9
$DIMSHO
 70
     1
  9
$DIMPOST
  1

  9
$DIMAPOST
  1

  9
$DIMALT
 70
     0
  9
$DIMALTD
 70
     2
  9
$DIMALTF
 40
25.4
  9
$DIMLFAC
 40
1.0
  9
$DIMTOFL
 70
     1
  9
$DIMTVP
 40
1.0
  9
$DIMTIX
 70
     1
  9
$DIMSOXD
 70
     0
  9
$DIMSAH
 70
     0
  9
$DIMBLK1
  1

  9
$DIMBLK2
  1

  9
$DIMSTYLE
  2
ASKSTANDARD
  9
$DIMCLRD
 70
     3
  9
$DIMCLRE
 70
     3
  9
$DIMCLRT
 70
     3
  9
$DIMTFAC
 40
0.7
  9
$DIMGAP
 40
1.0
  9
$DIMJUST
 70
     0
  9
$DIMSD1
 70
     0
  9
$DIMSD2
 70
     0
  9
$DIMTOLJ
 70
     1
  9
$DIMTZIN
 70
     0
  9
$DIMALTZ
 70
     0
  9
$DIMALTTZ
 70
     0
  9
$DIMUPT
 70
     0
  9
$DIMDEC
 70
     1
  9
$DIMTDEC
 70
     1
  9
$DIMALTU
 70
     2
  9
$DIMALTTD
 70
     2
  9
$DIMTXSTY
  7
STD
  9
$DIMAUNIT
 70
     0
  9
$DIMADEC
 70
     0
  9
$DIMALTRND
 40
0.0
  9
$DIMAZIN
 70
     0
  9
$DIMDSEP
 70
    46
  9
$DIMATFIT
 70
     3
  9
$DIMFRAC
 70
     0
  9
$DIMLDRBLK
  1

  9
$DIMLUNIT
 70
     2
  9
$DIMLWD
 70
    -2
  9
$DIMLWE
 70
    -2
  9
$DIMTMOVE
 70
     0
  9
$LUNITS
 70
     2
  9
$LUPREC
 70
     1
  9
$SKETCHINC
 40
0.1
  9
$FILLETRAD
 40
0.0
  9
$AUNITS
 70
     0
  9
$AUPREC
 70
     1
  9
$MENU
  1
SK
  9
$ELEVATION
 40
0.0
  9
$PELEVATION
 40
0.0
  9
$THICKNESS
 40
0.0
  9
$LIMCHECK
 70
     0
  9
$CHAMFERA
 40
0.0
  9
$CHAMFERB
 40
0.0
  9
$CHAMFERC
 40
0.0
  9
$CHAMFERD
 40
0.0
  9
$SKPOLY
 70
     0
  9
$TDCREATE
 40
2451696.627293252
  9
$TDUCREATE
 40
2451696.252293253
  9
$TDUPDATE
 40
2457329.467550868
  9
$TDUUPDATE
 40
2457329.092550868
  9
$TDINDWG
 40
0.3916681713
  9
$TDUSRTIMER
 40
0.3916681713
  9
$USRTIMER
 70
     1
  9
$ANGBASE
 50
0.0
  9
$ANGDIR
 70
     0
  9
$PDMODE
 70
     0
  9
$PDSIZE
 40
0.0
  9
$PLINEWID
 40
0.0
  9
$SPLFRAME
 70
     0
  9
$SPLINETYPE
 70
     6
  9
$SPLINESEGS
 70
     8
  9
$HANDSEED
  5
3029
  9
$SURFTAB1
 70
     6
  9
$SURFTAB2
 70
     6
  9
$SURFTYPE
 70
     6
  9
$SURFU
 70
     6
  9
$SURFV
 70
     6
  9
$UCSBASE
  2

  9
$UCSNAME
  2

  9
$UCSORG
 10
0.0
 20
0.0
 30
0.0
  9
$UCSXDIR
 10
1.0
 20
0.0
 30
0.0
  9
$UCSYDIR
 10
0.0
 20
1.0
 30
0.0
  9
$UCSORTHOREF
  2

  9
$UCSORTHOVIEW
 70
     0
  9
$UCSORGTOP
 10
0.0
 20
0.0
 30
0.0
  9
$UCSORGBOTTOM
 10
0.0
 20
0.0
 30
0.0
  9
$UCSORGLEFT
 10
0.0
 20
0.0
 30
0.0
  9
$UCSORGRIGHT
 10
0.0
 20
0.0
 30
0.0
  9
$UCSORGFRONT
 10
0.0
 20
0.0
 30
0.0
  9
$UCSORGBACK
 10
0.0
 20
0.0
 30
0.0
  9
$PUCSBASE
  2

  9
$PUCSNAME
  2

  9
$PUCSORG
 10
0.0
 20
0.0
 30
0.0
  9
$PUCSXDIR
 10
1.0
 20
0.0
 30
0.0
  9
$PUCSYDIR
 10
0.0
 20
1.0
 30
0.0
  9
$PUCSORTHOREF
  2

  9
$PUCSORTHOVIEW
 70
     0
  9
$PUCSORGTOP
 10
0.0
 20
0.0
 30
0.0
  9
$PUCSORGBOTTOM
 10
0.0
 20
0.0
 30
0.0
  9
$PUCSORGLEFT
 10
0.0
 20
0.0
 30
0.0
  9
$PUCSORGRIGHT
 10
0.0
 20
0.0
 30
0.0
  9
$PUCSORGFRONT
 10
0.0
 20
0.0
 30
0.0
  9
$PUCSORGBACK
 10
0.0
 20
0.0
 30
0.0
  9
$USERI1
 70
     0
  9
$USERI2
 70
     0
  9
$USERI3
 70
     1
  9
$USERI4
 70
     0
  9
$USERI5
 70
    15
  9
$USERR1
 40
0.0
  9
$USERR2
 40
0.0
  9
$USERR3
 40
0.0
  9
$USERR4
 40
0.0
  9
$USERR5
 40
0.0
  9
$WORLDVIEW
 70
     1
  9
$SHADEDGE
 70
     3
  9
$SHADEDIF
 70
    70
  9
$TILEMODE
 70
     1
  9
$MAXACTVP
 70
    16
  9
$PINSBASE
 10
0.0
 20
0.0
 30
0.0
  9
$PLIMCHECK
 70
     0
  9
$PEXTMIN
 10
1.000000000000000E+20
 20
1.000000000000000E+20
 30
1.000000000000000E+20
  9
$PEXTMAX
 10
-1.000000000000000E+20
 20
-1.000000000000000E+20
 30
-1.000000000000000E+20
  9
$PLIMMIN
 10
0.0
 20
0.0
  9
$PLIMMAX
 10
12.0
 20
9.0
  9
$UNITMODE
 70
     0
  9
$VISRETAIN
 70
     0
  9
$PLINEGEN
 70
     0
  9
$PSLTSCALE
 70
     0
  9
$TREEDEPTH
 70
  3020
  9
$CMLSTYLE
  2
STANDARD
  9
$CMLJUST
 70
     0
  9
$CMLSCALE
 40
1.0
  9
$PROXYGRAPHICS
 70
     1
  9
$MEASUREMENT
 70
     0
  9
$CELWEIGHT
370
    -1
  9
$ENDCAPS
280
     0
  9
$JOINSTYLE
280
     0
  9
$LWDISPLAY
290
     0
  9
$INSUNITS
 70
     0
  9
$HYPERLINKBASE
  1

  9
$STYLESHEET
  1
モノクロ.ctb
  9
$XEDIT
290
     1
  9
$CEPSNTYPE
380
     0
  9
$PSTYLEMODE
290
     1
  9
$FINGERPRINTGUID
  2
{20CCCC70-5279-11D4-B99D-006153C1FFF9}
  9
$VERSIONGUID
  2
{B297F36A-4120-454A-A96E-FACA71F2A046}
  9
$EXTNAMES
290
     1
  9
$PSVPSCALE
 40
0.0
  9
$OLESTARTUP
290
     0
  0
ENDSEC
  0
SECTION
  2
CLASSES
  0
CLASS
  1
ACME_DOCUMENT
  2
AcMeDoc
  3
AcMeServices
 90
    32768
280
     0
281
     0
  0
CLASS
  1
ACMESTATEMGR
  2
AcMeStateMgr
  3
AcMeServices
 90
        0
280
     0
281
     0
  0
CLASS
  1
ACMESCOPE
  2
AcMeScope
  3
AcMeServices
 90
        0
280
     0
281
     0
  0
CLASS
  1
ACMECOMMANDHISTORY
  2
AcMeCommandHistory
  3
AcMeServices
 90
        0
280
     0
281
     0
  0
CLASS
  1
ACRFINSADJUSTERMGR
  2
AcRfInsAdjusterMgr
  3
AcMeServices
 90
    32768
280
     0
281
     0
  0
CLASS
  1
DICTIONARYVAR
  2
AcDbDictionaryVar
  3
ObjectDBX Classes
 90
        0
280
     0
281
     0
  0
CLASS
  1
ACIMSYSVARMAN
  2
AcImSysVarManager
  3
AcMeServices
 90
        0
280
     0
281
     0
  0
CLASS
  1
ACIMREALSYSVAR
  2
AcImRealSysVar
  3
AcMeServices
 90
        0
280
     0
281
     0
  0
CLASS
  1
ACIMINTSYSVAR
  2
AcImIntSysVar
  3
AcMeServices
 90
        0
280
     0
281
     0
  0
CLASS
  1
ACMEDRAWINGMAN
  2
AcMeDrawingMan
  3
AcMeServices
 90
        0
280
     0
281
     0
  0
CLASS
  1
ACMEVIEW
  2
AcMeView
  3
AcMeServices
 90
        0
280
     0
281
     0
  0
CLASS
  1
ACDBENTITYCACHE
  2
AcMeEntityCache
  3
AcMeServices
 90
    32768
280
     0
281
     0
  0
CLASS
  1
ACMDATADICTIONARY
  2
AcmDataDictionary
  3
"AcmSymBB|Product Description: AutoCAD Mechanical 2000|Company: Autodesk"
 90
        0
280
     0
281
     0
  0
CLASS
  1
ACMDATAENTRYBLOCK
  2
AcmDataEntryBlock
  3
"AcmSymBB|Product Description: AutoCAD Mechanical 2000|Company: Autodesk"
 90
        0
280
     0
281
     0
  0
CLASS
  1
HATCH
  2
AcDbHatch
  3
ObjectDBX Classes
 90
        0
280
     0
281
     1
  0
CLASS
  1
LAYER_INDEX
  2
AcDbLayerIndex
  3
ObjectDBX Classes
 90
        0
280
     0
281
     0
  0
CLASS
  1
IDBUFFER
  2
AcDbIdBuffer
  3
ObjectDBX Classes
 90
        0
280
     0
281
     0
  0
CLASS
  1
ACDBDICTIONARYWDFLT
  2
AcDbDictionaryWithDefault
  3
ObjectDBX Classes
 90
        0
280
     0
281
     0
  0
CLASS
  1
ACDBPLACEHOLDER
  2
AcDbPlaceHolder
  3
ObjectDBX Classes
 90
        0
280
     0
281
     0
  0
CLASS
  1
LAYOUT
  2
AcDbLayout
  3
ObjectDBX Classes
 90
        0
280
     0
281
     0
  0
CLASS
  1
PLOTSETTINGS
  2
AcDbPlotSettings
  3
ObjectDBX Classes
 90
        0
280
     0
281
     0
  0
CLASS
  1
ACME_DOCUMENT
  2
AcMeDbDoc
  3
AcMeServices
 90
    32768
280
     0
281
     0
  0
CLASS
  1
AMGSETTINGSOBJ
  2
AmgSettingsObj
  3
"AcadM|Product Description: AutoCAD Mechanical 2000|Company: Autodesk"
 90
        0
280
     0
281
     0
  0
CLASS
  1
GSMANAGER
  2
AcMeGSManager
  3
AcMeServices
 90
    32768
280
     0
281
     0
  0
CLASS
  1
AmdtInternalReactor
  2
AmdtInternalReactor
  3
AcMeServices
 90
    32768
280
     0
281
     0
  0
CLASS
  1
ACGREFMASTER
  2
AcGrefMaster
  3
AcAttribServices
 90
    32768
280
     0
281
     0
  0
CLASS
  1
AM_DRAWING_MGR
  2
AcDmDwgMgr
  3
AcMechDwgViewMgmt
 90
        0
280
     0
281
     0
  0
CLASS
  1
AM_DWG_DOCUMENT
  2
AcDmDwgDocument
  3
AcMechDwgViewMgmt
 90
        0
280
     0
281
     0
  0
CLASS
  1
AM_DWG_SHEET
  2
AcDmSheet
  3
AcMechDwgViewMgmt
 90
        0
280
     0
281
     0
  0
CLASS
  1
AM_VIEWDIMPARMAP
  2
AcDmViewDimParMap
  3
AcMechDwgViewMgmt
 90
        0
280
     0
281
     0
  0
CLASS
  1
AM_DWGMGR_NAME
  2
AcDmDwgMgrName
  3
AcMechDwgViewMgmt
 90
        0
280
     0
281
     0
  0
CLASS
  1
ACME_DATABASE
  2
AcMeDbDatabase
  3
AcMeServices
 90
    32768
280
     0
281
     0
  0
CLASS
  1
ACGREFMASTER
  2
AcGrefacadMaster
  3
AcGrefServices
 90
        0
280
     0
281
     0
  0
CLASS
  1
AMDTMENUSTATEMGR
  2
AmdtMenuStateMgr
  3
McadcomServices
 90
    32768
280
     0
281
     0
  0
CLASS
  1
AMDTMCOMMENUSTATE
  2
AmdtMcomMenuState
  3
McadcomServices
 90
    32768
280
     0
281
     0
  0
CLASS
  1
ASAPP
  2
AcAsAppObject
  3
AutoSurfServices
 90
        0
280
     0
281
     0
  0
CLASS
  1
IM_STATIC_MAN
  2
AcImStaticVarManager
  3
AcMeServices
 90
        0
280
     0
281
     0
  0
CLASS
  1
ACIMSTRSYSVAR
  2
AcImStrSysVar
  3
AcMeServices
 90
        0
280
     0
281
     0
  0
CLASS
  1
ACIMDBLSTATICVAR
  2
AcImDblStaticVar
  3
AcMeServices
 90
        0
280
     0
281
     0
  0
CLASS
  1
ACIMSTRSTATICVAR
  2
AcImStrStaticVar
  3
AcMeServices
 90
        0
280
     0
281
     0
  0
CLASS
  1
ACIMINTSTATICVAR
  2
AcImIntStaticVar
  3
AcMeServices
 90
        0
280
     0
281
     0
  0
CLASS
  1
ACADGREFMODULE
  2
AcAdGrefModule
  3
AdGrefServices
 90
        0
280
     0
281
     0
  0
CLASS
  1
AMIMASTER
  2
AmiMaster
  3
AmiServices
 90
        0
280
     0
281
     0
  0
CLASS
  1
ACASGREFMASTER
  2
AcAsGrefMaster
  3
AutoSurfResolverServices
 90
        0
280
     0
281
     0
  0
CLASS
  1
MAPIAMMOUDLE
  2
MApiAmModule
  3
MApiAmServices
 90
        0
280
     0
281
     0
  0
CLASS
  1
AMDTDMMENUSTATE
  2
AmdtDmMenuState
  3
AcMechDwgViewMgmt
 90
    32768
280
     0
281
     0
  0
CLASS
  1
AMDTADMENUSTATE
  2
AmdtAdMenuState
  3
DesignerServices
 90
    32768
280
     0
281
     0
  0
CLASS
  1
ADAPPL
  2
AcAdAppl
  3
DesignerServices
 90
        0
280
     0
281
     0
  0
CLASS
  1
DEPMGR
  2
AcAdDepMgr
  3
DesignerServices
 90
        0
280
     0
281
     0
  0
CLASS
  1
PARAMMGR
  2
AcAdParamMgr
  3
DesignerServices
 90
        0
280
     0
281
     0
  0
CLASS
  1
PARAMSCOPE
  2
AcAdParamScope
  3
DesignerServices
 90
        0
280
     0
281
     0
  0
CLASS
  1
NAMEDAPPL
  2
AcAdNamedAppl
  3
DesignerServices
 90
        0
280
     0
281
     0
  0
CLASS
  1
ADHNTMPLT
  2
AdHoleNoteTemplateMgr
  3
DesignerServices
 90
        0
280
     0
281
     0
  0
CLASS
  1
AM_HNTEMPLATE_MGR_NAME
  2
AdHoleNoteTemplateMgrName
  3
DesignerServices
 90
        0
280
     0
281
     0
  0
CLASS
  1
AMDTAMMENUSTATE
  2
AmdtAmMenuState
  3
DesignerAssemblies
 90
    32768
280
     0
281
     0
  0
CLASS
  1
ACAMPROJECT
  2
AcAmProject
  3
DesignerAssemblies
 90
        0
280
     0
281
     0
  0
CLASS
  1
ACAMGRCOMPDEF
  2
AcAmGrCompDef
  3
DesignerAssemblies
 90
        0
280
     0
281
     0
  0
CLASS
  1
ACCMCONTEXT
  2
AcCmContext
  3
DesignerAssemblies
 90
        0
280
     0
281
     0
  0
CLASS
  1
ACAMCOMPDEF
  2
AcAmCompDef
  3
DesignerAssemblies
 90
        0
280
     0
281
     0
  0
CLASS
  1
ACAMCOMPDEFMGR
  2
AcAmCompDefMgr
  3
DesignerAssemblies
 90
        0
280
     0
281
     0
  0
CLASS
  1
AMCONTEXTMGR
  2
AcAmContextMgr
  3
DesignerAssemblies
 90
        0
280
     0
281
     0
  0
CLASS
  1
ACAMCONTEXTMODELER
  2
AcAmContextModeler
  3
DesignerAssemblies
 90
        0
280
     0
281
     0
  0
CLASS
  1
MAPIADMODULE
  2
MApiAdModule
  3
MApiAdServices
 90
        0
280
     0
281
     0
  0
CLASS
  1
AMDTBROWSERDBTAB
  2
AmdtBrowserDbTab
  3
McadcomServices
 90
    32768
280
     0
281
     0
  0
CLASS
  1
CBROWSERAPPOBJECT
  2
CBrowserAppObject
  3
McadcomServices
 90
    32768
280
     0
281
     0
  0
CLASS
  1
DM_PLACEHOLDER
  2
AcDmSelsetPlaceholder
  3
AcMechDwgViewMgmt
 90
    32768
280
     0
281
     0
  0
CLASS
  1
CATALOGSTATE
  2
AcAmCatalogState
  3
DesignerAssemblies
 90
        0
280
     0
281
     0
  0
CLASS
  1
ACAMGRCOMPDEFSET
  2
AcAmGrCompDefSet
  3
DesignerAssemblies
 90
    32768
280
     0
281
     0
  0
CLASS
  1
AMGOBJPROPCFG
  2
AmgObjPropCfg
  3
"AmgLay|Product Description: AutoCAD Mechanical 2000|Company: Autodesk"
 90
        1
280
     0
281
     0
  0
CLASS
  1
ACAMGFILTERDAT
  2
AcAmgFilterDat
  3
"AcadM|Product Description: AutoCAD Mechanical 2000|Company: Autodesk"
 90
        0
280
     0
281
     0
  0
CLASS
  1
MATERIAL
  2
AcDbMaterial
  3
ObjectDBX Classes
 90
     1153
280
     0
281
     0
  0
CLASS
  1
VISUALSTYLE
  2
AcDbVisualStyle
  3
ObjectDBX Classes
 90
     4095
280
     0
281
     0
  0
CLASS
  1
TABLESTYLE
  2
AcDbTableStyle
  3
ObjectDBX Classes
 90
     4095
280
     0
281
     0
  0
CLASS
  1
SCALE
  2
AcDbScale
  3
ObjectDBX Classes
 90
     1153
280
     0
281
     0
  0
CLASS
  1
MLEADERSTYLE
  2
AcDbMLeaderStyle
  3
ACDB_MLEADERSTYLE_CLASS
 90
     4095
280
     0
281
     0
  0
CLASS
  1
CELLSTYLEMAP
  2
AcDbCellStyleMap
  3
ObjectDBX Classes
 90
     1152
280
     0
281
     0
  0
CLASS
  1
AEC_REFEDIT_STATUS_TRACKER
  2
AecDbRefEditStatusTracker
  3
AecArchBase60|Product Desc: Autodesk Architectural Desktop 2007 |Company: Autodesk,Inc. |WEB Address: www.autodesk.com
 90
    32897
280
     0
281
     0
  0
CLASS
  1
NPOCOLLECTION
  2
AcDbImpNonPersistentObjectsCollection
  3
ObjectDBX Classes
 90
    33921
280
     0
281
     0
  0
CLASS
  1
SORTENTSTABLE
  2
AcDbSortentsTable
  3
ObjectDBX Classes
 90
        0
280
     0
281
     0
  0
ENDSEC
  0
SECTION
  2
TABLES
  0
TABLE
  2
VPORT
  5
8
102
{ACAD_XDICTIONARY
360
236C
102
}
330
0
100
AcDbSymbolTable
 70
     1
  0
VPORT
  5
22FC
330
8
100
AcDbSymbolTableRecord
100
AcDbViewportTableRecord
  2
*Active
 70
     0
 10
0.0
 20
0.0
 11
1.0
 21
1.0
 12
1050.0
 22
742.4999999999999
 13
0.0
 23
0.0
 14
10.0
 24
10.0
 15
0.0
 25
0.0
 16
0.0
 26
0.0
 36
1.0
 17
0.0
 27
0.0
 37
0.0
 40
1492.694423810644
 41
2.201787994891442
 42
50.0
 43
0.0
 44
0.0
 50
0.0
 51
0.0
 71
     0
 72
  2000
 73
     1
 74
     0
 75
     0
 76
     0
 77
     0
 78
     0
281
     0
 65
     1
110
0.0
120
0.0
130
0.0
111
1.0
121
0.0
131
0.0
112
0.0
122
1.0
132
0.0
 79
     0
146
0.0
  0
ENDTAB
  0
TABLE
  2
LTYPE
  5
5
330
0
100
AcDbSymbolTable
 70
    11
  0
LTYPE
  5
12
330
5
100
AcDbSymbolTableRecord
100
AcDbLinetypeTableRecord
  2
BYBLOCK
 70
     0
  3

 72
    65
 73
     0
 40
0.0
  0
LTYPE
  5
13
330
5
100
AcDbSymbolTableRecord
100
AcDbLinetypeTableRecord
  2
BYLAYER
 70
     0
  3

 72
    65
 73
     0
 40
0.0
  0
LTYPE
  5
14
330
5
100
AcDbSymbolTableRecord
100
AcDbLinetypeTableRecord
  2
CONTINUOUS
 70
     0
  3
実線
 72
    65
 73
     0
 40
0.0
  0
LTYPE
  5
46B
330
5
100
AcDbSymbolTableRecord
100
AcDbLinetypeTableRecord
  2
HIDS
 70
     0
  3
(破線1)- - - - - - - - - - - - - - - - - - - - 
 72
    65
 73
     2
 40
2.5
 49
1.5
 74
     0
 49
-1.0
 74
     0
  0
LTYPE
  5
B3A
330
5
100
AcDbSymbolTableRecord
100
AcDbLinetypeTableRecord
  2
DIMENSION
 70
     0
  3

 72
    65
 73
     2
 40
0.000000000000002
 49
0.000000000000001
 74
     0
 49
0.000000000000001
 74
     0
  0
LTYPE
  5
2251
330
5
100
AcDbSymbolTableRecord
100
AcDbLinetypeTableRecord
  2
HIDDEN
 70
     0
  3
Hidden __ __ __ __ __ __ __ __ __ __ __ __ __ _
 72
    65
 73
     2
 40
0.375
 49
0.25
 74
     0
 49
-0.125
 74
     0
  0
LTYPE
  5
2252
330
5
100
AcDbSymbolTableRecord
100
AcDbLinetypeTableRecord
  2
PHANTOM2
 70
     0
  3
Phantom (.5x) ___ _ _ ___ _ _ ___ _ _ ___ _ _
 72
    65
 73
     6
 40
1.25
 49
0.625
 74
     0
 49
-0.125
 74
     0
 49
0.125
 74
     0
 49
-0.125
 74
     0
 49
0.125
 74
     0
 49
-0.125
 74
     0
  0
LTYPE
  5
2253
330
5
100
AcDbSymbolTableRecord
100
AcDbLinetypeTableRecord
  2
CENTER
 70
     0
  3
Center ____ _ ____ _ ____ _ ____ _ ____ _ ____
 72
    65
 73
     4
 40
2.0
 49
1.25
 74
     0
 49
-0.25
 74
     0
 49
0.25
 74
     0
 49
-0.25
 74
     0
  0
LTYPE
  5
22E2
330
5
100
AcDbSymbolTableRecord
100
AcDbLinetypeTableRecord
  2
Amconstr
 70
     0
  3
_______________________
 72
    65
 73
     2
 40
9999.0
 49
9999.0
 74
     0
 49
0.0
 74
     0
  0
LTYPE
  5
22E8
330
5
100
AcDbSymbolTableRecord
100
AcDbLinetypeTableRecord
  2
HIDDEN2
 70
     0
  3
Hidden (.5x) _ _ _ _ _ _ _ _ _ _ _ _ _ _ _ _ _
 72
    65
 73
     2
 40
0.1875
 49
0.125
 74
     0
 49
-0.0625
 74
     0
  0
LTYPE
  5
22E9
330
5
100
AcDbSymbolTableRecord
100
AcDbLinetypeTableRecord
  2
CENTER2
 70
     0
  3
Center (.5x) ___ _ ___ _ ___ _ ___ _ ___ _ ___
 72
    65
 73
     4
 40
1.125
 49
0.75
 74
     0
 49
-0.125
 74
     0
 49
0.125
 74
     0
 49
-0.125
 74
     0
  0
LTYPE
  5
22EA
330
5
100
AcDbSymbolTableRecord
100
AcDbLinetypeTableRecord
  2
Amzigzag2
 70
     0
  3
/\/-/\/-/\/-/\/-/\/-/\/
 72
    65
 73
     2
 40
0.4401
 49
0.0001
 74
     4
 75
   135
340
22E6
 46
0.0016
 50
0.0
 44
0.0
 45
0.0
 49
-0.4400000000000001
 74
     0
  0
LTYPE
  5
2E2C
330
5
100
AcDbSymbolTableRecord
100
AcDbLinetypeTableRecord
  2
DRAFT
 70
     0
  3
_______________________________________________
 72
    65
 73
     2
 40
0.000000000000002
 49
0.000000000000001
 74
     0
 49
0.000000000000001
 74
     0
  0
ENDTAB
  0
TABLE
  2
LAYER
  5
2
330
0
100
AcDbSymbolTable
 70
     7
  0
LAYER
  5
F
102
{ACAD_XDICTIONARY
360
234E
102
}
330
2
100
AcDbSymbolTableRecord
100
AcDbLayerTableRecord
  2
0
 70
     0
 62
     7
  6
CONTINUOUS
370
    -3
390
5DB
  0
LAYER
  5
C7
102
{ACAD_XDICTIONARY
360
2350
102
}
330
2
100
AcDbSymbolTableRecord
100
AcDbLayerTableRecord
  2
ASKPAPERSIZE
 70
     0
 62
     7
  6
CONTINUOUS
290
     0
370
    -3
390
5DB
  0
LAYER
  5
3F9
102
{ACAD_XDICTIONARY
360
2352
102
}
330
2
100
AcDbSymbolTableRecord
100
AcDbLayerTableRecord
  2
9図面枠
 70
     0
 62
     5
  6
CONTINUOUS
370
    -3
390
5DB
  0
LAYER
  5
3FB
102
{ACAD_XDICTIONARY
360
2354
102
}
330
2
100
AcDbSymbolTableRecord
100
AcDbLayerTableRecord
  2
9図面文字
 70
     0
 62
     7
  6
CONTINUOUS
370
    -3
390
5DB
  0
LAYER
  5
770
330
2
100
AcDbSymbolTableRecord
100
AcDbLayerTableRecord
  2
Defpoints
 70
     0
 62
     7
  6
CONTINUOUS
290
     0
370
    -3
390
5DB
  0
LAYER
  5
EE1
102
{ACAD_XDICTIONARY
360
2356
102
}
330
2
100
AcDbSymbolTableRecord
100
AcDbLayerTableRecord
  2
非表示破線
 70
     0
 62
     7
  6
CONTINUOUS
290
     0
370
    -3
390
5DB
  0
LAYER
  5
23C5
102
{ACAD_XDICTIONARY
360
23C6
102
}
330
2
100
AcDbSymbolTableRecord
100
AcDbLayerTableRecord
  2
TEXT_0
 70
     0
 62
     7
  6
CONTINUOUS
370
    -3
390
5DB
  0
ENDTAB
  0
TABLE
  2
STYLE
  5
3
330
0
100
AcDbSymbolTable
 70
     7
  0
STYLE
  5
10
330
3
100
AcDbSymbolTableRecord
100
AcDbTextStyleTableRecord
  2
STANDARD
 70
     0
 40
0.0
 41
1.0
 50
0.0
 71
     0
 42
3.299999999999998
  3
TXT
  4
BIGFONT
  0
STYLE
  5
2AB
330
3
100
AcDbSymbolTableRecord
100
AcDbTextStyleTableRecord
  2
STD
 70
     0
 40
0.0
 41
1.0
 50
0.0
 71
     0
 42
64.0
  3
TXT
  4
BIGFONT
  0
STYLE
  5
3FC
330
3
100
AcDbSymbolTableRecord
100
AcDbTextStyleTableRecord
  2
STYLE1
 70
     0
 40
0.0
 41
1.0
 50
0.0
 71
     0
 42
64.0
  3

  4

1001
ACAD
1000
MS PGothic
1071
    32818
  0
STYLE
  5
532
330
3
100
AcDbSymbolTableRecord
100
AcDbTextStyleTableRecord
  2
STYLE3
 70
     0
 40
0.0
 41
1.5
 50
0.0
 71
     0
 42
64.0
  3

  4

1001
ACAD
1000
MS PGothic
1071
    32818
  0
STYLE
  5
568
330
3
100
AcDbSymbolTableRecord
100
AcDbTextStyleTableRecord
  2
USR5
 70
     0
 40
0.0
 41
1.0
 50
0.0
 71
     0
 42
64.0
  3
TXT.shx
  4
BIGFONT.shx
  0
STYLE
  5
21CA
330
3
100
AcDbSymbolTableRecord
100
AcDbTextStyleTableRecord
  2
ｽﾀｲﾙ1
 70
     0
 40
0.0
 41
1.0
 50
0.0
 71
     0
 42
64.0
  3

  4

1001
ACAD
1000
HGGyoshotai
1071
    32833
  0
STYLE
  5
22E6
330
3
100
AcDbSymbolTableRecord
100
AcDbTextStyleTableRecord
  2

 70
     1
 40
0.0
 41
1.0
 50
0.0
 71
     0
 42
64.0
  3
ltypeshp.shx
  4

  0
ENDTAB
  0
TABLE
  2
VIEW
  5
6
330
0
100
AcDbSymbolTable
 70
     1
  0
VIEW
  5
C5
330
6
100
AcDbSymbolTableRecord
100
AcDbViewTableRecord
  2
V0
 70
     0
 40
1485.0
 10
1050.0
 20
742.4999999999999
 41
2100.0
 11
0.0
 21
0.0
 31
1.0
 12
0.0
 22
0.0
 32
0.0
 42
50.0
 43
0.0
 44
0.0
 50
0.0
 71
     0
281
     0
 72
     0
  0
ENDTAB
  0
TABLE
  2
UCS
  5
7
330
0
100
AcDbSymbolTable
 70
     2
  0
UCS
  5
1D1
330
7
100
AcDbSymbolTableRecord
100
AcDbUCSTableRecord
  2
ASKMOVEUCS
 70
     0
 10
0.0
 20
0.0
 30
0.0
 11
1.0
 21
0.0
 31
0.0
 12
0.0
 22
1.0
 32
0.0
 79
     0
146
0.0
  0
UCS
  5
1D4
330
7
100
AcDbSymbolTableRecord
100
AcDbUCSTableRecord
  2
UCS_SET
 70
     0
 10
0.0
 20
0.0
 30
0.0
 11
1.0
 21
0.0
 31
0.0
 12
0.0
 22
1.0
 32
0.0
 79
     0
146
0.0
  0
ENDTAB
  0
TABLE
  2
APPID
  5
9
330
0
100
AcDbSymbolTable
 70
    16
  0
APPID
  5
11
330
9
100
AcDbSymbolTableRecord
100
AcDbRegAppTableRecord
  2
ACAD
 70
     0
  0
APPID
  5
C6
330
9
100
AcDbSymbolTableRecord
100
AcDbRegAppTableRecord
  2
AUTO_SEKKEIYA
 70
     0
  0
APPID
  5
3BE
330
9
100
AcDbSymbolTableRecord
100
AcDbRegAppTableRecord
  2
MCAD_NO_VIS
 70
     0
  0
APPID
  5
3BF
330
9
100
AcDbSymbolTableRecord
100
AcDbRegAppTableRecord
  2
ACAD_TEMP_GRAPHIC
 70
     0
  0
APPID
  5
21CB
330
9
100
AcDbSymbolTableRecord
100
AcDbRegAppTableRecord
  2
ASKOBJSC
 70
     0
  0
APPID
  5
21CC
330
9
100
AcDbSymbolTableRecord
100
AcDbRegAppTableRecord
  2
ASKDWGSC
 70
     0
  0
APPID
  5
223A
330
9
100
AcDbSymbolTableRecord
100
AcDbRegAppTableRecord
  2
GENIUS_GENDIM_13
 70
     0
  0
APPID
  5
223B
330
9
100
AcDbSymbolTableRecord
100
AcDbRegAppTableRecord
  2
GENIUS_GENDTOL_13
 70
     0
  0
APPID
  5
223C
330
9
100
AcDbSymbolTableRecord
100
AcDbRegAppTableRecord
  2
GENIUS_GE3DTOL_13
 70
     0
  0
APPID
  5
2267
330
9
100
AcDbSymbolTableRecord
100
AcDbRegAppTableRecord
  2
AD_DRAW
 70
     0
  0
APPID
  5
226A
330
9
100
AcDbSymbolTableRecord
100
AcDbRegAppTableRecord
  2
ACATTRIBSERVICES
 70
     0
  0
APPID
  5
22A2
330
9
100
AcDbSymbolTableRecord
100
AcDbRegAppTableRecord
  2
ASURF_PCURVE_APPNAME
 70
     0
  0
APPID
  5
22D3
330
9
100
AcDbSymbolTableRecord
100
AcDbRegAppTableRecord
  2
DESIGNERASSEMBLIES
 70
     0
  0
APPID
  5
22D9
330
9
100
AcDbSymbolTableRecord
100
AcDbRegAppTableRecord
  2
ACADM_DIM_EDIT
 70
     0
  0
APPID
  5
23B6
330
9
100
AcDbSymbolTableRecord
100
AcDbRegAppTableRecord
  2
ACAD_MLEADERVER
 70
     0
  0
APPID
  5
2E29
330
9
100
AcDbSymbolTableRecord
100
AcDbRegAppTableRecord
  2
ACAD_EXEMPT_FROM_CAD_STANDARDS
 70
     0
  0
ENDTAB
  0
TABLE
  2
DIMSTYLE
  5
A
330
0
100
AcDbSymbolTable
 70
     1
100
AcDbDimStyleTable
 71
     1
340
B39
  0
DIMSTYLE
105
B39
102
{ACAD_REACTORS
330
1E7F
330
2202
330
2210
102
}
330
A
100
AcDbSymbolTableRecord
100
AcDbDimStyleTableRecord
  2
ASKSTANDARD
 70
     0
 40
20.0
 41
1.5
 42
1.0
 43
8.0
 44
1.0
 73
     0
 74
     0
 78
     8
140
2.0
141
0.0
145
1.0
146
0.7
147
1.0
172
     1
174
     1
176
     3
177
     3
178
     3
271
     1
272
     1
340
2AB
  0
ENDTAB
  0
TABLE
  2
BLOCK_RECORD
  5
1
330
0
100
AcDbSymbolTable
 70
    11
  0
BLOCK_RECORD
  5
18
102
{ACAD_XDICTIONARY
360
53B
102
}
330
1
100
AcDbSymbolTableRecord
100
AcDbBlockTableRecord
  2
*MODEL_SPACE
340
5DE
  0
BLOCK_RECORD
  5
15
330
1
100
AcDbSymbolTableRecord
100
AcDbBlockTableRecord
  2
*PAPER_SPACE
340
5DF
  0
BLOCK_RECORD
  5
1F3D
330
1
100
AcDbSymbolTableRecord
100
AcDbBlockTableRecord
  2
*D2
340
0
  0
BLOCK_RECORD
  5
21CD
330
1
100
AcDbSymbolTableRecord
100
AcDbBlockTableRecord
  2
signMARU
340
0
  0
BLOCK_RECORD
  5
2203
330
1
100
AcDbSymbolTableRecord
100
AcDbBlockTableRecord
  2
*D4
340
0
  0
BLOCK_RECORD
  5
2211
330
1
100
AcDbSymbolTableRecord
100
AcDbBlockTableRecord
  2
*D5
340
0
  0
BLOCK_RECORD
  5
22CA
330
1
100
AcDbSymbolTableRecord
100
AcDbBlockTableRecord
  2
*U7
340
0
  0
BLOCK_RECORD
  5
23C7
102
{ACAD_XDICTIONARY
360
23CC
102
}
330
1
100
AcDbSymbolTableRecord
100
AcDbBlockTableRecord
  2
A$C2852513E
340
0
  0
BLOCK_RECORD
  5
2407
102
{ACAD_XDICTIONARY
360
2408
102
}
330
1
100
AcDbSymbolTableRecord
100
AcDbBlockTableRecord
  2
kinami
340
0
102
{BLKREFS
331
2D13
102
}
  0
BLOCK_RECORD
  5
2410
102
{ACAD_XDICTIONARY
360
2411
102
}
330
1
100
AcDbSymbolTableRecord
100
AcDbBlockTableRecord
  2
sugnKAMI
340
0
102
{BLKREFS
331
2D14
102
}
  0
ENDTAB
  0
ENDSEC
  0
SECTION
  2
BLOCKS
  0
BLOCK
  5
24
330
18
100
AcDbEntity
  8
0
 62
     7
100
AcDbBlockBegin
  2
*MODEL_SPACE
 70
     0
 10
0.0
 20
0.0
 30
0.0
  3
*MODEL_SPACE
  1

  0
ENDBLK
  5
25
330
18
100
AcDbEntity
  8
0
 62
     7
100
AcDbBlockEnd
  0
BLOCK
  5
22
330
15
100
AcDbEntity
 67
     1
  8
0
 62
     7
100
AcDbBlockBegin
  2
*PAPER_SPACE
 70
     0
 10
0.0
 20
0.0
 30
0.0
  3
*PAPER_SPACE
  1

  0
ENDBLK
  5
23
330
15
100
AcDbEntity
 67
     1
  8
0
 62
     7
100
AcDbBlockEnd
  0
BLOCK
  5
1F47
330
1F3D
100
AcDbEntity
  8
0
 62
     7
100
AcDbBlockBegin
  2
*D2
 70
     1
 10
0.0
 20
0.0
 30
0.0
  3
*D2
  1

  0
LINE
  5
2EB5
330
1F3D
100
AcDbEntity
  8
0
  6
DIMENSION
 62
     3
370
    -2
100
AcDbLine
 10
846.0000000000004
 20
911.5393269564709
 30
0.0
 11
763.67867814686
 21
911.5393269564711
 31
0.0
  0
LINE
  5
2EB6
330
1F3D
100
AcDbEntity
  8
0
  6
DIMENSION
 62
     3
370
    -2
100
AcDbLine
 10
846.0
 20
756.5393269564714
 30
0.0
 11
763.6786781468599
 21
756.5393269564715
 31
0.0
  0
LINE
  5
2EB7
330
1F3D
100
AcDbEntity
  8
0
  6
DIMENSION
 62
     3
370
    -2
100
AcDbLine
 10
768.67867814686
 20
901.5393269564709
 30
0.0
 11
768.6786781468599
 21
766.5393269564714
 31
0.0
  0
SOLID
  5
2EB8
330
1F3D
100
AcDbEntity
  8
0
  6
DIMENSION
 62
     3
100
AcDbTrace
 10
767.0120114801934
 20
901.5393269564711
 30
0.0
 11
770.3453448135267
 21
901.5393269564709
 31
0.0
 12
768.67867814686
 22
911.5393269564709
 32
0.0
 13
768.67867814686
 23
911.5393269564709
 33
0.0
  0
SOLID
  5
2EB9
330
1F3D
100
AcDbEntity
  8
0
  6
DIMENSION
 62
     3
100
AcDbTrace
 10
767.0120114801933
 20
766.5393269564715
 30
0.0
 11
770.3453448135266
 21
766.5393269564714
 31
0.0
 12
768.6786781468599
 22
756.5393269564714
 32
0.0
 13
768.6786781468599
 23
756.5393269564714
 33
0.0
  0
MTEXT
  5
2EBA
330
1F3D
100
AcDbEntity
  8
0
  6
DIMENSION
 62
     3
100
AcDbMText
 10
758.6786781468598
 20
834.0393269564714
 30
0.0
 40
10.0
 41
0.0
 71
     5
 72
     1
  1
\A1;155
  7
STD
 11
0.0000000000000001
 21
1.0
 31
0.0
 73
     1
 44
1.0
1001
ACAD
1000
MTEXTBEGIN
1070
    73
1070
     1
1070
    44
1040
1.0
1070
    74
1070
     0
1000
MTEXTEND
  0
POINT
  5
2EBB
330
1F3D
100
AcDbEntity
  8
Defpoints
  6
DIMENSION
 62
     0
100
AcDbPoint
 10
851.0000000000005
 20
911.5393269564709
 30
0.0
  0
POINT
  5
2EBC
330
1F3D
100
AcDbEntity
  8
Defpoints
  6
DIMENSION
 62
     0
100
AcDbPoint
 10
851.0
 20
756.5393269564714
 30
0.0
  0
POINT
  5
2EBD
330
1F3D
100
AcDbEntity
  8
Defpoints
  6
DIMENSION
 62
     0
100
AcDbPoint
 10
768.6786781468599
 20
756.5393269564714
 30
0.0
  0
ENDBLK
  5
1F48
330
1F3D
100
AcDbEntity
  8
0
 62
     7
100
AcDbBlockEnd
  0
BLOCK
  5
21D3
330
21CD
100
AcDbEntity
  8
0
 62
     7
100
AcDbBlockBegin
  2
signMARU
 70
     0
 10
0.0
 20
0.0
 30
0.0
  3
signMARU
  1

  0
HATCH
  5
21CE
330
21CD
100
AcDbEntity
  8
0
 62
     7
100
AcDbHatch
 10
0.0
 20
0.0
 30
0.0
210
0.0
220
0.0
230
1.0
  2
SOLID
 70
     1
 71
     1
 91
        4
 92
        7
 72
     1
 73
     1
 93
        2
 10
48.33998493898616
 20
197.2161203090304
 42
1.0
 10
326.506031692973
 20
197.2161203090304
 42
1.0
 97
        1
330
21CF
 92
       22
 72
     1
 73
     1
 93
        2
 10
320.5060316929721
 20
197.2161203090304
 42
-1.0
 10
54.33998493898616
 20
197.2161203090304
 42
-1.0
 97
        1
330
21D2
 92
      137
 93
        4
 72
     1
 10
114.4131200885658
 20
49.66154456743436
 11
265.5183832464609
 21
49.66154456743436
 72
     1
 10
265.5183832464609
 20
49.66154456743436
 11
265.5183832464609
 21
182.8425971990133
 72
     1
 10
265.5183832464609
 20
182.8425971990133
 11
114.4131200885658
 21
182.8425971990133
 72
     1
 10
114.4131200885658
 20
182.8425971990133
 11
114.4131200885658
 21
49.66154456743436
 97
        1
330
21D0
 92
      137
 93
        4
 72
     1
 10
22.51306550977188
 20
130.8600108425346
 11
276.0595918255613
 21
130.8600108425346
 72
     1
 10
276.0595918255613
 20
130.8600108425346
 11
276.0595918255613
 21
325.0389582109556
 72
     1
 10
276.0595918255613
 20
325.0389582109556
 11
22.51306550977188
 21
325.0389582109556
 72
     1
 10
22.51306550977188
 20
325.0389582109556
 11
22.51306550977188
 21
130.8600108425346
 97
        1
330
21D1
 75
     0
 76
     1
 47
0.5709725132640477
 98
        2
 10
240.5943540078924
 20
323.1505752699595
 10
240.5943540078924
 20
323.1505752699595
1001
ASKOBJSC
1000
1/60
1001
ASKDWGSC
1040
30.0
  0
CIRCLE
  5
21CF
102
{ACAD_REACTORS
330
21CE
102
}
330
21CD
100
AcDbEntity
  8
9図面文字
  6
Continuous
 62
     7
100
AcDbCircle
 10
187.4230083159791
 20
197.2161203090304
 30
0.0
 40
139.0830233769932
  0
TEXT
  5
21D0
102
{ACAD_REACTORS
330
21CE
102
}
330
21CD
100
AcDbEntity
  8
0
 62
     7
100
AcDbText
 10
136.6099621938292
 20
78.52786035690804
 30
0.0
 40
79.2
  1
智
  7
ｽﾀｲﾙ1
100
AcDbText
1001
ASKOBJSC
1000
1/60
1001
ASKDWGSC
1040
30.0
  0
TEXT
  5
21D1
102
{ACAD_REACTORS
330
21CE
102
}
330
21CD
100
AcDbEntity
  8
0
 62
     7
100
AcDbText
 10
54.87622340450889
 20
163.2231687372715
 30
0.0
 40
143.0
  1
丸山
 41
0.7
  7
ｽﾀｲﾙ1
100
AcDbText
1001
ASKOBJSC
1000
1/60
1001
ASKDWGSC
1040
30.0
  0
CIRCLE
  5
21D2
102
{ACAD_REACTORS
330
21CE
102
}
330
21CD
100
AcDbEntity
  8
9図面文字
  6
Continuous
 62
     7
100
AcDbCircle
 10
187.4230083159791
 20
197.2161203090304
 30
0.0
 40
133.0830233769932
  0
ENDBLK
  5
21D4
330
21CD
100
AcDbEntity
  8
0
 62
     7
100
AcDbBlockEnd
  0
BLOCK
  5
220D
330
2203
100
AcDbEntity
  8
0
 62
     7
100
AcDbBlockBegin
  2
*D4
 70
     1
 10
0.0
 20
0.0
 30
0.0
  3
*D4
  1

  0
LINE
  5
2EBE
330
2203
100
AcDbEntity
  8
0
  6
DIMENSION
 62
     3
370
    -2
100
AcDbLine
 10
1254.0
 20
1154.539326956471
 30
0.0
 11
1336.584172341567
 21
1154.539326956471
 31
0.0
  0
LINE
  5
2EBF
330
2203
100
AcDbEntity
  8
0
  6
DIMENSION
 62
     3
370
    -2
100
AcDbLine
 10
1254.0
 20
756.5393269564714
 30
0.0
 11
1336.584172341567
 21
756.5393269564713
 31
0.0
  0
LINE
  5
2EC0
330
2203
100
AcDbEntity
  8
0
  6
DIMENSION
 62
     3
370
    -2
100
AcDbLine
 10
1331.584172341567
 20
1144.539326956471
 30
0.0
 11
1331.584172341567
 21
766.5393269564713
 31
0.0
  0
SOLID
  5
2EC1
330
2203
100
AcDbEntity
  8
0
  6
DIMENSION
 62
     3
100
AcDbTrace
 10
1329.9175056749
 20
1144.539326956471
 30
0.0
 11
1333.250839008234
 21
1144.539326956471
 31
0.0
 12
1331.584172341567
 22
1154.539326956471
 32
0.0
 13
1331.584172341567
 23
1154.539326956471
 33
0.0
  0
SOLID
  5
2EC2
330
2203
100
AcDbEntity
  8
0
  6
DIMENSION
 62
     3
100
AcDbTrace
 10
1329.9175056749
 20
766.5393269564713
 30
0.0
 11
1333.250839008234
 21
766.5393269564713
 31
0.0
 12
1331.584172341567
 22
756.5393269564713
 32
0.0
 13
1331.584172341567
 23
756.5393269564713
 33
0.0
  0
MTEXT
  5
2EC3
330
2203
100
AcDbEntity
  8
0
  6
DIMENSION
 62
     3
100
AcDbMText
 10
1321.584172341567
 20
955.5393269564714
 30
0.0
 40
10.0
 41
0.0
 71
     5
 72
     1
  1
\A1;398
  7
STD
 11
0.0000000000000001
 21
1.0
 31
0.0
 73
     1
 44
1.0
1001
ACAD
1000
MTEXTBEGIN
1070
    73
1070
     1
1070
    44
1040
1.0
1070
    74
1070
     0
1000
MTEXTEND
  0
POINT
  5
2EC4
330
2203
100
AcDbEntity
  8
Defpoints
  6
DIMENSION
 62
     0
100
AcDbPoint
 10
1249.0
 20
1154.539326956471
 30
0.0
  0
POINT
  5
2EC5
330
2203
100
AcDbEntity
  8
Defpoints
  6
DIMENSION
 62
     0
100
AcDbPoint
 10
1249.0
 20
756.5393269564714
 30
0.0
  0
POINT
  5
2EC6
330
2203
100
AcDbEntity
  8
Defpoints
  6
DIMENSION
 62
     0
100
AcDbPoint
 10
1331.584172341567
 20
756.5393269564713
 30
0.0
  0
ENDBLK
  5
220E
330
2203
100
AcDbEntity
  8
0
 62
     7
100
AcDbBlockEnd
  0
BLOCK
  5
221B
330
2211
100
AcDbEntity
  8
0
 62
     7
100
AcDbBlockBegin
  2
*D5
 70
     1
 10
0.0
 20
0.0
 30
0.0
  3
*D5
  1

  0
LINE
  5
2EC7
330
2211
100
AcDbEntity
  8
0
  6
DIMENSION
 62
     3
370
    -2
100
AcDbLine
 10
851.0
 20
751.5393269564714
 30
0.0
 11
851.0
 21
672.9401629667626
 31
0.0
  0
LINE
  5
2EC8
330
2211
100
AcDbEntity
  8
0
  6
DIMENSION
 62
     3
370
    -2
100
AcDbLine
 10
1249.0
 20
751.5393269564714
 30
0.0
 11
1249.0
 21
672.9401629667626
 31
0.0
  0
LINE
  5
2EC9
330
2211
100
AcDbEntity
  8
0
  6
DIMENSION
 62
     3
370
    -2
100
AcDbLine
 10
861.0
 20
677.9401629667626
 30
0.0
 11
1239.0
 21
677.9401629667626
 31
0.0
  0
SOLID
  5
2ECA
330
2211
100
AcDbEntity
  8
0
  6
DIMENSION
 62
     3
100
AcDbTrace
 10
861.0
 20
679.6068296334292
 30
0.0
 11
861.0
 21
676.2734963000959
 31
0.0
 12
851.0
 22
677.9401629667626
 32
0.0
 13
851.0
 23
677.9401629667626
 33
0.0
  0
SOLID
  5
2ECB
330
2211
100
AcDbEntity
  8
0
  6
DIMENSION
 62
     3
100
AcDbTrace
 10
1239.0
 20
679.6068296334292
 30
0.0
 11
1239.0
 21
676.2734963000959
 31
0.0
 12
1249.0
 22
677.9401629667626
 32
0.0
 13
1249.0
 23
677.9401629667626
 33
0.0
  0
MTEXT
  5
2ECC
330
2211
100
AcDbEntity
  8
0
  6
DIMENSION
 62
     3
100
AcDbMText
 10
1050.0
 20
687.9401629667626
 30
0.0
 40
10.0
 41
0.0
 71
     5
 72
     1
  1
\A1;398
  7
STD
 73
     1
 44
1.0
1001
ACAD
1000
MTEXTBEGIN
1070
    73
1070
     1
1070
    44
1040
1.0
1070
    74
1070
     0
1000
MTEXTEND
  0
POINT
  5
2ECD
330
2211
100
AcDbEntity
  8
Defpoints
  6
DIMENSION
 62
     0
100
AcDbPoint
 10
851.0
 20
756.5393269564714
 30
0.0
  0
POINT
  5
2ECE
330
2211
100
AcDbEntity
  8
Defpoints
  6
DIMENSION
 62
     0
100
AcDbPoint
 10
1249.0
 20
756.5393269564714
 30
0.0
  0
POINT
  5
2ECF
330
2211
100
AcDbEntity
  8
Defpoints
  6
DIMENSION
 62
     0
100
AcDbPoint
 10
1249.0
 20
677.9401629667626
 30
0.0
  0
ENDBLK
  5
221C
330
2211
100
AcDbEntity
  8
0
 62
     7
100
AcDbBlockEnd
  0
BLOCK
  5
22CB
330
22CA
100
AcDbEntity
  8
0
 62
     7
100
AcDbBlockBegin
  2
*U7
 70
     1
 10
0.0
 20
0.0
 30
0.0
  3
*U7
  1

  0
ENDBLK
  5
22CC
330
22CA
100
AcDbEntity
  8
0
 62
     7
100
AcDbBlockEnd
  0
BLOCK
  5
23CD
330
23C7
100
AcDbEntity
  8
0
 62
     7
100
AcDbBlockBegin
  2
A$C2852513E
 70
     0
 10
0.0
 20
0.0
 30
0.0
  3
A$C2852513E
  1

  0
TEXT
  5
23C8
330
23C7
100
AcDbEntity
  8
9図面文字
  6
Continuous
 62
     7
100
AcDbText
 10
-864.5787260281098
 20
107.9975676844207
 30
0.0
 40
15.0
  1
・本製品は特殊ゴム一体成形品（天然ゴム系）とする。
  7
STYLE1
100
AcDbText
  0
TEXT
  5
23C9
330
23C7
100
AcDbEntity
  8
9図面文字
  6
Continuous
 62
     7
100
AcDbText
 10
-864.5787260281098
 20
81.99756768442069
 30
0.0
 40
15.0
  1
・本製品の衝撃吸収可能（HIC<1000)な落下高さは１．９ｍまでとする。
  7
STYLE1
100
AcDbText
  0
TEXT
  5
23CA
330
23C7
100
AcDbEntity
  8
9図面文字
  6
Continuous
 62
     7
100
AcDbText
 10
-864.5787260281098
 20
55.99756768442069
 30
0.0
 40
15.0
  1
・危険落下高さはEN1177(1998)及びBS7188(1998)の規準による衝撃吸収試験による。
  7
STYLE1
100
AcDbText
  0
TEXT
  5
23CB
330
23C7
100
AcDbEntity
  8
TEXT_0
  6
Continuous
 62
     7
100
AcDbText
 10
-859.4030832348101
 20
7.407980725911912
 30
0.0
 40
14.0
  1
・本製品は、(一社)日本公園施設業協会(ＪＰＦＡ)が定める賠償責任保険加入製品とする。
  7
STYLE1
100
AcDbText
  0
ENDBLK
  5
23CE
330
23C7
100
AcDbEntity
  8
0
 62
     7
100
AcDbBlockEnd
  0
BLOCK
  5
240A
330
2407
100
AcDbEntity
  8
0
 62
     7
100
AcDbBlockBegin
  2
kinami
 70
     0
 10
0.0
 20
0.0
 30
0.0
  3
kinami
  1

  0
HATCH
  5
240B
330
2407
100
AcDbEntity
  8
0
 62
     7
100
AcDbHatch
 10
0.0
 20
0.0
 30
0.0
210
0.0
220
0.0
230
1.0
  2
SOLID
 70
     1
 71
     0
 91
        4
 92
        5
 93
        2
 72
     3
 10
-185.2281715073077
 20
245.2221339398839
 11
-140.2028439895319
 21
140.2028439895319
 40
0.9999999999999902
 50
45.0
 51
225.0
 73
     1
 72
     3
 10
-185.2281715073077
 20
245.2221339398839
 11
140.2028439895317
 21
140.2028439895316
 40
0.9999999999999939
 50
315.0
 51
494.9999999999999
 73
     1
 97
        0
 92
       20
 93
        2
 72
     3
 10
-185.2281715073077
 20
245.2221339398839
 11
134.1545352634765
 21
134.1545352634765
 40
0.9999999999999941
 50
44.99999999999998
 51
225.0
 73
     0
 72
     3
 10
-185.2281715073077
 20
245.2221339398839
 11
134.1545352634765
 21
134.1545352634765
 40
0.9999999999999941
 50
225.0
 51
404.9999999999999
 73
     0
 97
        0
 92
      137
 93
        4
 72
     1
 10
-289.3110709606044
 20
34.86832511103603
 11
-73.89540201534146
 21
34.86832511103603
 72
     1
 10
-73.89540201534146
 20
34.86832511103603
 11
-73.89540201534146
 21
224.7312388437094
 72
     1
 10
-73.89540201534146
 20
224.7312388437094
 11
-289.3110709606044
 21
224.7312388437094
 72
     1
 10
-289.3110709606044
 20
224.7312388437094
 11
-289.3110709606044
 21
34.86832511103603
 97
        0
 92
      137
 93
        4
 72
     1
 10
-433.4674494831506
 20
113.8762691765978
 11
-45.724197466021
 21
113.8762691765978
 72
     1
 10
-45.724197466021
 20
113.8762691765978
 11
-45.724197466021
 21
469.5597271538863
 72
     1
 10
-45.724197466021
 20
469.5597271538863
 11
-433.4674494831506
 21
469.5597271538863
 72
     1
 10
-433.4674494831506
 20
469.5597271538863
 11
-433.4674494831506
 21
113.8762691765978
 97
        0
 75
     0
 76
     1
 47
0.5709725132640477
 98
        2
 10
-10890.19238645721
 20
-6731.546261555227
 10
-10890.19238645721
 20
-6731.546261555227
1001
ASKOBJSC
1000
1/10
1001
ASKDWGSC
1040
40.0
  0
ELLIPSE
  5
240C
330
2407
100
AcDbEntity
  8
9図面文字
  6
Continuous
 62
     7
100
AcDbEllipse
 10
-185.2281715073077
 20
245.2221339398839
 30
0.0
 11
0.0554496169229338
 21
198.2767556999375
 31
0.0
210
0.0
220
0.0
230
1.0
 40
0.9999999999988029
 41
-1.570516669125082
 42
4.712668638054504
1001
ASKOBJSC
1000
1/10
1001
ASKDWGSC
1040
40.0
  0
TEXT
  5
240D
330
2407
100
AcDbEntity
  8
0
 62
     7
100
AcDbText
 10
-385.1148085658697
 20
154.7551275650003
 30
0.0
 40
203.8608054771785
  1
木浪
 41
0.6999999999989593
  7
ｽﾀｲﾙ1
100
AcDbText
1001
ASKOBJSC
1000
1/10
1001
ASKDWGSC
1040
40.0
  0
ELLIPSE
  5
240E
330
2407
100
AcDbEntity
  8
9図面文字
  6
Continuous
 62
     7
100
AcDbEllipse
 10
-185.2281715073077
 20
245.2221339398839
 30
0.0
 11
0.5985785099025824
 21
189.722218960587
 31
0.0
210
0.0
220
0.0
230
0.9999999999999998
 40
0.9999999999988061
 41
-1.567641311388308
 42
4.715543995791277
1001
ASKOBJSC
1000
1/10
1001
ASKDWGSC
1040
40.0
  0
ENDBLK
  5
240F
330
2407
100
AcDbEntity
  8
0
 62
     7
100
AcDbBlockEnd
  0
BLOCK
  5
2412
330
2410
100
AcDbEntity
  8
0
 62
     7
100
AcDbBlockBegin
  2
sugnKAMI
 70
     0
 10
0.0
 20
0.0
 30
0.0
  3
sugnKAMI
  1

  0
CIRCLE
  5
2413
330
2410
100
AcDbEntity
  8
9図面文字
  6
Continuous
 62
     7
100
AcDbCircle
 10
179.7684808571266
 20
197.2161203090304
 30
0.0
 40
133.0830233769932
  0
TEXT
  5
2414
330
2410
100
AcDbEntity
  8
0
 62
     7
100
AcDbText
 10
39.55619712508633
 20
133.7572230417154
 30
0.0
 40
143.0
  1
上條
 41
0.7
  7
ｽﾀｲﾙ1
100
AcDbText
1001
ASKOBJSC
1000
1/60
1001
ASKDWGSC
1040
30.0
  0
CIRCLE
  5
2415
330
2410
100
AcDbEntity
  8
9図面文字
  6
Continuous
 62
     7
100
AcDbCircle
 10
179.7684808571266
 20
197.2161203090304
 30
0.0
 40
139.0830233769932
  0
HATCH
  5
2416
330
2410
100
AcDbEntity
  8
0
 62
     7
100
AcDbHatch
 10
0.0
 20
0.0
 30
0.0
210
0.0
220
0.0
230
1.0
  2
SOLID
 70
     1
 71
     0
 91
        4
 92
        7
 72
     1
 73
     1
 93
        2
 10
40.68545748013366
 20
197.2161203090304
 42
1.0
 10
318.8515042341205
 20
197.2161203090304
 42
1.0
 97
        0
 92
       22
 72
     1
 73
     1
 93
        2
 10
312.8515042341196
 20
197.2161203090304
 42
-1.0
 10
46.68545748013366
 20
197.2161203090304
 42
-1.0
 97
        0
 92
      137
 93
        4
 72
     1
 10
106.7585926297133
 20
49.66154456743436
 11
257.8638557876084
 21
49.66154456743436
 72
     1
 10
257.8638557876084
 20
49.66154456743436
 11
257.8638557876084
 21
182.8425971990133
 72
     1
 10
257.8638557876084
 20
182.8425971990133
 11
106.7585926297133
 21
182.8425971990133
 72
     1
 10
106.7585926297133
 20
182.8425971990133
 11
106.7585926297133
 21
49.66154456743436
 97
        0
 92
      137
 93
        4
 72
     1
 10
5.638801208814584
 20
105.0823792635872
 11
277.6248012088136
 21
105.0823792635872
 72
     1
 10
277.6248012088136
 20
105.0823792635872
 11
277.6248012088136
 21
354.57974768464
 72
     1
 10
277.6248012088136
 20
354.57974768464
 11
5.638801208814584
 21
354.57974768464
 72
     1
 10
5.638801208814584
 20
354.57974768464
 11
5.638801208814584
 21
105.0823792635872
 97
        0
 75
     0
 76
     1
 47
0.5709725132640477
 98
        2
 10
232.9398265490399
 20
323.1505752699595
 10
232.9398265490399
 20
323.1505752699595
1001
ASKOBJSC
1000
1/60
1001
ASKDWGSC
1040
30.0
  0
ENDBLK
  5
2417
330
2410
100
AcDbEntity
  8
0
 62
     7
100
AcDbBlockEnd
  0
ENDSEC
  0
SECTION
  2
ENTITIES
  0
LWPOLYLINE
  5
56C
330
18
100
AcDbEntity
  8
ASKPAPERSIZE
  6
Continuous
 62
     4
100
AcDbPolyline
 90
        4
 70
     1
 43
0.0
 10
0.0
 20
0.0
 10
0.0
 20
1485.0
 10
2100.0
 20
1485.0
 10
2100.0
 20
0.0
1001
AUTO_SEKKEIYA
1002
{
1000
NONE
1002
}
  0
TEXT
  5
E45
330
18
100
AcDbEntity
  8
9図面文字
  6
Continuous
 62
     7
100
AcDbText
 10
740.9254666896622
 20
-93.719534501402
 30
0.0
 40
13.66875000000002
  1
    /  /  
  7
STYLE1
100
AcDbText
  0
LINE
  5
E46
330
18
100
AcDbEntity
  8
9図面枠
  6
Continuous
 62
     7
100
AcDbLine
 10
830.1484667140886
 20
-70.23094650906319
 30
0.0
 11
830.1484667140886
 21
-200.2309465090632
 31
0.0
  0
LINE
  5
E47
330
18
100
AcDbEntity
  8
非表示破線
  6
HIDS
 62
     5
100
AcDbLine
 10
715.9507918502895
 20
-70.23094650906319
 30
0.0
 11
715.9507918502895
 21
-200.2309465090632
 31
0.0
  0
LINE
  5
E48
330
18
100
AcDbEntity
  8
9図面枠
  6
Continuous
 62
     7
100
AcDbLine
 10
94.34614157788747
 20
-70.23094650906319
 30
0.0
 11
94.34614157788747
 21
-200.2309465090632
 31
0.0
  0
TEXT
  5
E49
330
18
100
AcDbEntity
  8
9図面文字
100
AcDbText
 10
103.6375865535666
 20
-97.24357400949989
 30
0.0
 40
15.00000000000001
  1
変
  7
STYLE1
 72
     1
 11
114.5466774626575
 21
-89.74357400949987
 31
0.0
100
AcDbText
 73
     2
  0
TEXT
  5
E4A
330
18
100
AcDbEntity
  8
9図面文字
100
AcDbText
 10
103.6375865535666
 20
-157.53457345365
 30
0.0
 40
15.00000000000001
  1
履
  7
STYLE1
 72
     1
 11
114.5466774626575
 21
-150.0345734536501
 31
0.0
100
AcDbText
 73
     2
  0
TEXT
  5
E4B
330
18
100
AcDbEntity
  8
9図面文字
100
AcDbText
 10
103.6375865535666
 20
-127.0826343174741
 30
0.0
 40
15.00000000000001
  1
更
  7
STYLE1
 72
     1
 11
114.5466774626575
 21
-119.5826343174741
 31
0.0
100
AcDbText
 73
     2
  0
TEXT
  5
E4C
330
18
100
AcDbEntity
  8
9図面文字
100
AcDbText
 10
103.6375865535666
 20
-188.5993834770726
 30
0.0
 40
15.00000000000001
  1
歴
  7
STYLE1
 72
     1
 11
114.5466774626575
 21
-181.0993834770726
 31
0.0
100
AcDbText
 73
     2
  0
TEXT
  5
E4E
330
18
100
AcDbEntity
  8
9図面文字
  6
Continuous
 62
     7
100
AcDbText
 10
139.7008705090693
 20
-93.60726132895923
 30
0.0
 40
13.66875000000002
  1
１：
  7
STYLE1
100
AcDbText
  0
TEXT
  5
E4F
330
18
100
AcDbEntity
  8
9図面文字
  6
Continuous
 62
     7
100
AcDbText
 10
139.7008705090693
 20
-125.7780721674625
 30
0.0
 40
13.66875000000002
  1
２：
  7
STYLE1
100
AcDbText
  0
TEXT
  5
E50
330
18
100
AcDbEntity
  8
9図面文字
  6
Continuous
 62
     7
100
AcDbText
 10
139.7008705090693
 20
-159.3254116025382
 30
0.0
 40
13.66875000000002
  1
３：
  7
STYLE1
100
AcDbText
  0
TEXT
  5
E51
330
18
100
AcDbEntity
  8
9図面文字
  6
Continuous
 62
     7
100
AcDbText
 10
139.7008705090693
 20
-191.3549958075003
 30
0.0
 40
13.66875000000002
  1
４：
  7
STYLE1
100
AcDbText
  0
LINE
  5
E52
330
18
100
AcDbEntity
  8
非表示破線
  6
HIDS
 62
     5
 48
2.0
100
AcDbLine
 10
134.8461415778874
 20
-135.2309465090632
 30
0.0
 11
830.1484667140886
 21
-135.2309465090632
 31
0.0
  0
LINE
  5
E53
330
18
100
AcDbEntity
  8
9図面枠
  6
Continuous
 62
     7
100
AcDbLine
 10
94.34614157788747
 20
-70.23094650906319
 30
0.0
 11
830.1484667140885
 21
-70.2309465090632
 31
0.0
  0
LINE
  5
E54
330
18
100
AcDbEntity
  8
非表示破線
  6
HIDS
 62
     5
 48
2.0
100
AcDbLine
 10
134.8461415778874
 20
-102.7309465090632
 30
0.0
 11
830.1484667140886
 21
-102.7309465090632
 31
0.0
  0
LINE
  5
E56
330
18
100
AcDbEntity
  8
非表示破線
  6
HIDS
 62
     5
 48
2.0
100
AcDbLine
 10
134.8461415778874
 20
-167.7309465090632
 30
0.0
 11
830.1484667140886
 21
-167.7309465090632
 31
0.0
  0
LINE
  5
E8C
330
18
100
AcDbEntity
  8
9図面枠
  6
Continuous
 62
     7
100
AcDbLine
 10
830.1484667140886
 20
-200.2309465090632
 30
0.0
 11
94.34614157788747
 21
-200.2309465090632
 31
0.0
  0
TEXT
  5
E96
330
18
100
AcDbEntity
  8
9図面文字
  6
Continuous
 62
     7
100
AcDbText
 10
740.9254666896622
 20
-126.219534501402
 30
0.0
 40
13.66875000000002
  1
    /  /  
  7
STYLE1
100
AcDbText
  0
TEXT
  5
E97
330
18
100
AcDbEntity
  8
9図面文字
  6
Continuous
 62
     7
100
AcDbText
 10
740.9254666896622
 20
-158.719534501402
 30
0.0
 40
13.66875000000002
  1
    /  /  
  7
STYLE1
100
AcDbText
  0
TEXT
  5
E98
330
18
100
AcDbEntity
  8
9図面文字
  6
Continuous
 62
     7
100
AcDbText
 10
740.9254666896622
 20
-191.2195345014019
 30
0.0
 40
13.66875000000002
  1
    /  /  
  7
STYLE1
100
AcDbText
  0
LINE
  5
EAE
330
18
100
AcDbEntity
  8
9図面枠
  6
Continuous
 62
     7
100
AcDbLine
 10
134.8461415778874
 20
-200.2309465090632
 30
0.0
 11
134.8461415778874
 21
-70.23094650906319
 31
0.0
  0
POINT
  5
17EF
330
18
100
AcDbEntity
  8
0
  6
Continuous
 62
     7
 60
     1
100
AcDbPoint
 10
0.0
 20
0.0
 30
0.0
  0
ARC
  5
1E7B
330
18
100
AcDbEntity
  8
0
  6
Continuous
 62
     3
100
AcDbCircle
 10
856.0
 20
890.6674101416101
 30
0.0
 40
5.0
100
AcDbArc
 50
0.0
 51
180.0
  0
ARC
  5
1E7C
330
18
100
AcDbEntity
  8
0
  6
Continuous
 62
     3
100
AcDbCircle
 10
856.0000000000009
 20
811.5393269564718
 30
0.0
 40
5.000000000000233
100
AcDbArc
 50
180.0
 51
0.0
  0
LINE
  5
1E7D
330
18
100
AcDbEntity
  8
0
  6
Continuous
 62
     7
100
AcDbLine
 10
1249.0
 20
756.5393269564714
 30
0.0
 11
851.0
 21
756.5393269564714
 31
0.0
  0
LINE
  5
1E7E
330
18
100
AcDbEntity
  8
0
  6
Continuous
 62
     7
100
AcDbLine
 10
851.0000000000005
 20
911.5393269564709
 30
0.0
 11
932.0000000000005
 21
911.5393269564709
 31
0.0
  0
DIMENSION
  5
1E7F
330
18
100
AcDbEntity
  8
0
  6
DIMENSION
 62
     7
100
AcDbDimension
  2
*D2
 10
768.6786781468599
 20
756.5393269564714
 30
0.0
 11
758.6786781468598
 21
834.0393269564714
 31
0.0
 70
    32
  1
<>
 71
     5
 42
154.9999999999995
  3
ASKSTANDARD
100
AcDbAlignedDimension
 13
851.0000000000005
 23
911.5393269564709
 33
0.0
 14
851.0
 24
756.5393269564714
 34
0.0
 50
90.0
100
AcDbRotatedDimension
1001
ACAD
1000
DSTYLE
1002
{
1070
     3
1000
<>
1070
    40
1040
5.0
1070
    41
1040
2.0
1070
    77
1070
     3
1002
}
  0
CIRCLE
  5
1E80
330
18
100
AcDbEntity
  8
0
  6
Continuous
 62
     7
100
AcDbCircle
 10
821.0000000000004
 20
806.5393269564713
 30
0.0
 40
6.5
  0
ARC
  5
1E81
330
18
100
AcDbEntity
  8
0
  6
Continuous
 62
     7
100
AcDbCircle
 10
821.0000000000004
 20
806.5393269564713
 30
0.0
 40
16.0
100
AcDbArc
 50
90.0
 51
270.0
  0
LINE
  5
1E82
330
18
100
AcDbEntity
  8
0
  6
Continuous
 62
     7
100
AcDbLine
 10
851.0
 20
756.5393269564714
 30
0.0
 11
851.0000000000005
 21
911.5393269564709
 31
0.0
  0
LINE
  5
1E83
330
18
100
AcDbEntity
  8
0
  6
Continuous
 62
     7
100
AcDbLine
 10
851.0
 20
790.5393269564714
 30
0.0
 11
821.0
 21
790.5393269564714
 31
0.0
  0
LINE
  5
1E84
330
18
100
AcDbEntity
  8
0
  6
Continuous
 62
     7
100
AcDbLine
 10
851.0
 20
822.5393269564714
 30
0.0
 11
821.0
 21
822.5393269564714
 31
0.0
  0
LINE
  5
1E86
330
18
100
AcDbEntity
  8
0
  6
Continuous
 62
     7
100
AcDbLine
 10
1109.0
 20
1069.539326956471
 30
0.0
 11
1109.0
 21
1154.539326956471
 31
0.0
  0
LINE
  5
1E87
330
18
100
AcDbEntity
  8
0
  6
Continuous
 62
     7
100
AcDbLine
 10
1249.0
 20
1154.539326956471
 30
0.0
 11
1249.0
 21
756.5393269564714
 31
0.0
  0
LINE
  5
1E88
330
18
100
AcDbEntity
  8
0
  6
Continuous
 62
     3
100
AcDbLine
 10
1128.407450720794
 20
989.5037930505381
 30
0.0
 11
1220.895707167342
 21
1081.99204949708
 31
0.0
  0
LINE
  5
1E89
330
18
100
AcDbEntity
  8
0
  6
Continuous
 62
     3
100
AcDbLine
 10
1121.336382908929
 20
996.5748608624034
 30
0.0
 11
1213.824639355477
 21
1089.063117308946
 31
0.0
  0
LINE
  5
1E8A
330
18
100
AcDbEntity
  8
0
  6
Continuous
 62
     3
100
AcDbLine
 10
1128.407450720794
 20
1019.503793050537
 30
0.0
 11
1190.89570716734
 21
1081.99204949708
 31
0.0
  0
LINE
  5
1E8B
330
18
100
AcDbEntity
  8
0
  6
Continuous
 62
     3
100
AcDbLine
 10
1121.336382908929
 20
1026.574860862403
 30
0.0
 11
1183.824639355474
 21
1089.063117308946
 31
0.0
  0
LINE
  5
1E8C
330
18
100
AcDbEntity
  8
0
  6
Continuous
 62
     3
100
AcDbLine
 10
1121.336382908929
 20
1056.574860862402
 30
0.0
 11
1153.824639355475
 21
1089.063117308946
 31
0.0
  0
LINE
  5
1E8D
330
18
100
AcDbEntity
  8
0
  6
Continuous
 62
     3
100
AcDbLine
 10
1128.407450720795
 20
1049.503793050536
 30
0.0
 11
1160.895707167341
 21
1081.99204949708
 31
0.0
  0
LINE
  5
1E8E
330
18
100
AcDbEntity
  8
0
  6
Continuous
 62
     7
100
AcDbLine
 10
1108.999999999999
 20
896.5393269564719
 30
0.0
 11
1249.0
 21
756.5393269564714
 31
0.0
  0
LINE
  5
1E8F
330
18
100
AcDbEntity
  8
0
  6
Continuous
 62
     3
100
AcDbLine
 10
1176.336382908928
 20
931.5748608624051
 30
0.0
 11
1220.23373236196
 21
975.4722103154353
 31
0.0
  0
LINE
  5
1E90
330
18
100
AcDbEntity
  8
0
  6
Continuous
 62
     3
100
AcDbLine
 10
1183.407450720793
 20
924.5037930505381
 30
0.0
 11
1227.535533905933
 21
968.6318762356748
 31
0.0
  0
LINE
  5
1E91
330
18
100
AcDbEntity
  8
0
  6
Continuous
 62
     3
100
AcDbLine
 10
1146.336382908928
 20
931.5748608624051
 30
0.0
 11
1220.464466094066
 21
1005.702944047539
 31
0.0
  0
LINE
  5
1E92
330
18
100
AcDbEntity
  8
0
  6
Continuous
 62
     3
100
AcDbLine
 10
1153.407450720793
 20
924.5037930505381
 30
0.0
 11
1227.535533905933
 21
998.6318762356731
 31
0.0
  0
LINE
  5
1E93
330
18
100
AcDbEntity
  8
0
  6
Continuous
 62
     3
100
AcDbLine
 10
1128.407450720794
 20
929.503793050539
 30
0.0
 11
1227.535533905933
 21
1028.631876235671
 31
0.0
  0
LINE
  5
1E94
330
18
100
AcDbEntity
  8
0
  6
Continuous
 62
     3
100
AcDbLine
 10
1121.336382908929
 20
936.5748608624052
 30
0.0
 11
1220.464466094066
 21
1035.702944047537
 31
0.0
  0
LINE
  5
1E95
330
18
100
AcDbEntity
  8
0
  6
Continuous
 62
     3
100
AcDbLine
 10
1128.407450720794
 20
959.5037930505389
 30
0.0
 11
1227.535533905933
 21
1058.631876235671
 31
0.0
  0
LINE
  5
1E96
330
18
100
AcDbEntity
  8
0
  6
Continuous
 62
     3
100
AcDbLine
 10
1121.336382908929
 20
966.5748608624053
 30
0.0
 11
1220.464466094066
 21
1065.702944047537
 31
0.0
  0
LINE
  5
1E97
330
18
100
AcDbEntity
  8
0
  6
Continuous
 62
     3
100
AcDbLine
 10
1122.650424501499
 20
875.8178346431076
 30
0.0
 11
1221.778507686636
 21
776.6897514579749
 31
0.0
  0
LINE
  5
1E98
330
18
100
AcDbEntity
  8
0
  6
Continuous
 62
     3
100
AcDbLine
 10
1129.721492313365
 20
882.8889024549734
 30
0.0
 11
1228.849575498503
 21
783.7608192698415
 31
0.0
  0
LINE
  5
1E99
330
18
100
AcDbEntity
  8
0
  6
Continuous
 62
     3
100
AcDbLine
 10
1153.407450720793
 20
886.5748608624038
 30
0.0
 11
1227.535533905933
 21
812.4467776772688
 31
0.0
  0
LINE
  5
1E9A
330
18
100
AcDbEntity
  8
0
  6
Continuous
 62
     3
100
AcDbLine
 10
1146.336382908928
 20
879.5037930505376
 30
0.0
 11
1220.464466094066
 21
805.3757098654031
 31
0.0
  0
LINE
  5
1E9B
330
18
100
AcDbEntity
  8
0
  6
Continuous
 62
     3
100
AcDbLine
 10
1183.407450720793
 20
886.5748608624038
 30
0.0
 11
1227.535533905933
 21
842.4467776772671
 31
0.0
  0
LINE
  5
1E9C
330
18
100
AcDbEntity
  8
0
  6
Continuous
 62
     3
100
AcDbLine
 10
1176.336382908928
 20
879.5037930505376
 30
0.0
 11
1220.23373236196
 21
835.6064435975067
 31
0.0
  0
LINE
  5
1E9D
330
18
100
AcDbEntity
  8
0
  6
Continuous
 62
     3
100
AcDbLine
 10
1118.964466094068
 20
852.1318762356784
 30
0.0
 11
1193.092549279202
 21
778.003793050539
 31
0.0
  0
LINE
  5
1E9E
330
18
100
AcDbEntity
  8
0
  6
Continuous
 62
     3
100
AcDbLine
 10
1126.035533905934
 20
859.2029440475434
 30
0.0
 11
1200.163617091069
 21
785.0748608624052
 31
0.0
  0
LINE
  5
1E9F
330
18
100
AcDbEntity
  8
0
  6
Continuous
 62
     3
100
AcDbLine
 10
1046.035533905932
 20
877.1318762356775
 30
0.0
 11
946.9074507208002
 21
778.0037930505385
 31
0.0
  0
LINE
  5
1EA0
330
18
100
AcDbEntity
  8
0
  6
Continuous
 62
     3
100
AcDbLine
 10
1038.964466094066
 20
884.2029440475425
 30
0.0
 11
939.8363829089339
 21
785.0748608624052
 31
0.0
  0
LINE
  5
1EA1
330
18
100
AcDbEntity
  8
0
  6
Continuous
 62
     3
100
AcDbLine
 10
1016.035533905934
 20
877.1318762356775
 30
0.0
 11
923.5472774593917
 21
784.6436197891287
 31
0.0
  0
LINE
  5
1EA2
330
18
100
AcDbEntity
  8
0
  6
Continuous
 62
     3
100
AcDbLine
 10
1008.964466094068
 20
884.2029440475425
 30
0.0
 11
916.4762096475252
 21
791.714687600995
 31
0.0
  0
LINE
  5
1EA3
330
18
100
AcDbEntity
  8
0
  6
Continuous
 62
     3
100
AcDbLine
 10
1073.964466094067
 20
829.2029440475433
 30
0.0
 11
1030.067116641036
 21
785.3055945945105
 31
0.0
  0
LINE
  5
1EA4
330
18
100
AcDbEntity
  8
0
  6
Continuous
 62
     3
100
AcDbLine
 10
1081.035533905933
 20
822.1318762356785
 30
0.0
 11
1036.907450720796
 21
778.003793050539
 31
0.0
  0
LINE
  5
1EA5
330
18
100
AcDbEntity
  8
0
  6
Continuous
 62
     3
100
AcDbLine
 10
1073.964466094067
 20
859.2029440475434
 30
0.0
 11
999.8363829089321
 21
785.0748608624052
 31
0.0
  0
LINE
  5
1EA6
330
18
100
AcDbEntity
  8
0
  6
Continuous
 62
     3
100
AcDbLine
 10
1081.035533905933
 20
852.1318762356784
 30
0.0
 11
1006.907450720798
 21
778.003793050539
 31
0.0
  0
LINE
  5
1EA7
330
18
100
AcDbEntity
  8
0
  6
Continuous
 62
     3
100
AcDbLine
 10
1076.035533905932
 20
877.1318762356775
 30
0.0
 11
976.9074507208001
 21
778.0037930505385
 31
0.0
  0
LINE
  5
1EA8
330
18
100
AcDbEntity
  8
0
  6
Continuous
 62
     3
100
AcDbLine
 10
1068.964466094066
 20
884.2029440475425
 30
0.0
 11
969.8363829089339
 21
785.0748608624052
 31
0.0
  0
LINE
  5
1EA9
330
18
100
AcDbEntity
  8
0
  6
Continuous
 62
     3
100
AcDbLine
 10
1118.964466094068
 20
822.1318762356785
 30
0.0
 11
1163.092549279204
 21
778.003793050539
 31
0.0
  0
LINE
  5
1EAA
330
18
100
AcDbEntity
  8
0
  6
Continuous
 62
     3
100
AcDbLine
 10
1126.035533905934
 20
829.2029440475433
 30
0.0
 11
1169.932883358964
 21
785.3055945945105
 31
0.0
  0
ARC
  5
1EAB
330
18
100
AcDbEntity
  8
0
  6
Continuous
 62
     3
100
AcDbCircle
 10
943.3719168148673
 20
781.5393269564714
 30
0.0
 40
5.000000000000133
100
AcDbArc
 50
135.0000000000091
 51
315.0000000000091
  0
ARC
  5
1EAC
330
18
100
AcDbEntity
  8
0
  6
Continuous
 62
     3
100
AcDbCircle
 10
920.0117435534584
 20
788.1791536950612
 30
0.0
 40
5.000000000000511
100
AcDbArc
 50
135.0000000000091
 51
315.0000000000091
  0
CIRCLE
  5
1EAD
330
18
100
AcDbEntity
  8
0
  6
Continuous
 62
     3
100
AcDbCircle
 10
939.8363829089353
 20
785.0748608624034
 30
0.0
 40
0.0000000000010725
  0
CIRCLE
  5
1EAE
330
18
100
AcDbEntity
  8
0
  6
Continuous
 62
     3
100
AcDbCircle
 10
969.8363829089354
 20
785.0748608624034
 30
0.0
 40
0.0000000000010725
  0
ARC
  5
1EAF
330
18
100
AcDbEntity
  8
0
  6
Continuous
 62
     3
100
AcDbCircle
 10
973.3719168148672
 20
781.5393269564714
 30
0.0
 40
5.000000000000133
100
AcDbArc
 50
135.0000000000091
 51
315.0000000000091
  0
ARC
  5
1EB0
330
18
100
AcDbEntity
  8
0
  6
Continuous
 62
     3
100
AcDbCircle
 10
1003.371916814865
 20
781.5393269564714
 30
0.0
 40
5.000000000000133
100
AcDbArc
 50
135.0000000000091
 51
315.0000000000091
  0
CIRCLE
  5
1EB1
330
18
100
AcDbEntity
  8
0
  6
Continuous
 62
     3
100
AcDbCircle
 10
999.8363829089335
 20
785.0748608624034
 30
0.0
 40
0.0000000000010725
  0
LINE
  5
1EB2
330
18
100
AcDbEntity
  8
0
  6
Continuous
 62
     3
100
AcDbLine
 10
1073.964466094067
 20
799.2029440475434
 30
0.0
 11
1059.836382908928
 21
785.0748608624043
 31
0.0
  0
ARC
  5
1EB3
330
18
100
AcDbEntity
  8
0
  6
Continuous
 62
     3
100
AcDbCircle
 10
1063.371916814861
 20
781.5393269564714
 30
0.0
 40
5.000000000000133
100
AcDbArc
 50
135.0000000000091
 51
315.0000000000091
  0
ARC
  5
1EB4
330
18
100
AcDbEntity
  8
0
  6
Continuous
 62
     3
100
AcDbCircle
 10
1033.602650546969
 20
781.7700606885773
 30
0.0
 40
5.000000000000133
100
AcDbArc
 50
135.0000000000091
 51
315.0000000000091
  0
CIRCLE
  5
1EB5
330
18
100
AcDbEntity
  8
0
  6
Continuous
 62
     3
100
AcDbCircle
 10
1030.067116641037
 20
785.3055945945096
 30
0.0
 40
0.0000000000010725
  0
CIRCLE
  5
1EB6
330
18
100
AcDbEntity
  8
0
  6
Continuous
 62
     3
100
AcDbCircle
 10
1059.836382908929
 20
785.0748608624034
 30
0.0
 40
0.0000000000010725
  0
LINE
  5
1EB7
330
18
100
AcDbEntity
  8
0
  6
Continuous
 62
     3
100
AcDbLine
 10
1081.035533905933
 20
792.1318762356785
 30
0.0
 11
1066.907450720794
 21
778.003793050539
 31
0.0
  0
ARC
  5
1EB8
330
18
100
AcDbEntity
  8
0
  6
Continuous
 62
     3
100
AcDbCircle
 10
1077.5
 20
795.66741014161
 30
0.0
 40
5.0
100
AcDbArc
 50
315.0000000000091
 51
135.0000000000091
  0
LINE
  5
1EB9
330
18
100
AcDbEntity
  8
0
  6
Continuous
 62
     3
100
AcDbLine
 10
1126.035533905934
 20
799.2029440475434
 30
0.0
 11
1140.163617091072
 21
785.0748608624043
 31
0.0
  0
LINE
  5
1EBA
330
18
100
AcDbEntity
  8
0
  6
Continuous
 62
     3
100
AcDbLine
 10
1118.964466094068
 20
792.1318762356785
 30
0.0
 11
1133.092549279206
 21
778.003793050539
 31
0.0
  0
ARC
  5
1EBB
330
18
100
AcDbEntity
  8
0
  6
Continuous
 62
     3
100
AcDbCircle
 10
1122.5
 20
795.66741014161
 30
0.0
 40
5.0
100
AcDbArc
 50
44.99999999999085
 51
224.9999999999908
  0
ARC
  5
1EBC
330
18
100
AcDbEntity
  8
0
  6
Continuous
 62
     3
100
AcDbCircle
 10
1136.628083185139
 20
781.5393269564714
 30
0.0
 40
5.000000000000133
100
AcDbArc
 50
224.9999999999908
 51
44.99999999999085
  0
CIRCLE
  5
1EBD
330
18
100
AcDbEntity
  8
0
  6
Continuous
 62
     3
100
AcDbCircle
 10
1140.163617091071
 20
785.0748608624034
 30
0.0
 40
0.0000000000010725
  0
ARC
  5
1EBE
330
18
100
AcDbEntity
  8
0
  6
Continuous
 62
     3
100
AcDbCircle
 10
1166.397349453031
 20
781.7700606885773
 30
0.0
 40
5.000000000000133
100
AcDbArc
 50
224.9999999999908
 51
44.99999999999085
  0
CIRCLE
  5
1EBF
330
18
100
AcDbEntity
  8
0
  6
Continuous
 62
     3
100
AcDbCircle
 10
1169.932883358962
 20
785.3055945945096
 30
0.0
 40
0.0000000000010725
  0
LINE
  5
1EC0
330
18
100
AcDbEntity
  8
0
  6
Continuous
 62
     7
100
AcDbLine
 10
1017.0
 20
911.5393269564709
 30
0.0
 11
1098.0
 21
911.5393269564709
 31
0.0
  0
LINE
  5
1EC1
330
18
100
AcDbEntity
  8
0
  6
Continuous
 62
     3
100
AcDbLine
 10
986.0355339059333
 20
877.1318762356775
 30
0.0
 11
923.5472774593917
 21
814.6436197891306
 31
0.0
  0
LINE
  5
1EC2
330
18
100
AcDbEntity
  8
0
  6
Continuous
 62
     3
100
AcDbLine
 10
978.9644660940675
 20
884.2029440475425
 30
0.0
 11
916.4762096475252
 21
821.7146876009968
 31
0.0
  0
LINE
  5
1EC3
330
18
100
AcDbEntity
  8
0
  6
Continuous
 62
     3
100
AcDbLine
 10
948.9644660940694
 20
884.2029440475425
 30
0.0
 11
916.4762096475252
 21
851.7146876009963
 31
0.0
  0
LINE
  5
1EC4
330
18
100
AcDbEntity
  8
0
  6
Continuous
 62
     3
100
AcDbLine
 10
956.0355339059352
 20
877.1318762356775
 30
0.0
 11
923.5472774593914
 21
844.6436197891307
 31
0.0
  0
LINE
  5
1EC5
330
18
100
AcDbEntity
  8
0
  6
Continuous
 62
     7
100
AcDbLine
 10
1017.0
 20
896.5393269564719
 30
0.0
 11
932.0000000000005
 21
896.5393269564719
 31
0.0
  0
ARC
  5
1EC6
330
18
100
AcDbEntity
  8
0
  6
Continuous
 62
     3
100
AcDbCircle
 10
920.0117435534576
 20
878.1791536950652
 30
0.0
 40
5.0
100
AcDbArc
 50
135.0000000000091
 51
315.0000000000091
  0
LINE
  5
1EC7
330
18
100
AcDbEntity
  8
0
  6
Continuous
 62
     3
100
AcDbLine
 10
871.0000000000004
 20
890.6674101416101
 30
0.0
 11
871.0000000000004
 21
828.3098367877204
 31
0.0
  0
LINE
  5
1EC8
330
18
100
AcDbEntity
  8
0
  6
Continuous
 62
     3
100
AcDbLine
 10
881.0
 20
890.6674101416101
 30
0.0
 11
881.0
 21
833.5809615224505
 31
0.0
  0
LINE
  5
1EC9
330
18
100
AcDbEntity
  8
0
  6
Continuous
 62
     3
100
AcDbLine
 10
891.0
 20
890.6674101416101
 30
0.0
 11
891.0
 21
828.3098367877204
 31
0.0
  0
LINE
  5
1ECA
330
18
100
AcDbEntity
  8
0
  6
Continuous
 62
     3
100
AcDbLine
 10
901.0
 20
890.6674101416101
 30
0.0
 11
901.0
 21
811.5393269564718
 31
0.0
  0
LINE
  5
1ECB
330
18
100
AcDbEntity
  8
0
  6
Continuous
 62
     3
100
AcDbLine
 10
911.0
 20
890.6674101416101
 30
0.0
 11
911.0
 21
811.5393269564718
 31
0.0
  0
LINE
  5
1ECC
330
18
100
AcDbEntity
  8
0
  6
Continuous
 62
     3
100
AcDbLine
 10
871.0
 20
890.6674101416101
 30
0.0
 11
871.0
 21
828.3098367877204
 31
0.0
  0
LINE
  5
1ECD
330
18
100
AcDbEntity
  8
0
  6
Continuous
 62
     3
100
AcDbLine
 10
861.0000000000004
 20
890.6674101416101
 30
0.0
 11
861.0
 21
811.5393269564718
 31
0.0
  0
ARC
  5
1ECE
330
18
100
AcDbEntity
  8
0
  6
Continuous
 62
     3
100
AcDbCircle
 10
905.9999999999995
 20
811.5393269564718
 30
0.0
 40
5.000000000000233
100
AcDbArc
 50
180.0
 51
0.0
  0
ARC
  5
1ECF
330
18
100
AcDbEntity
  8
0
  6
Continuous
 62
     3
100
AcDbCircle
 10
876.0
 20
833.5809615224505
 30
0.0
 40
5.000000000000233
100
AcDbArc
 50
180.0
 51
0.0
  0
ARC
  5
1ED0
330
18
100
AcDbEntity
  8
0
  6
Continuous
 62
     3
100
AcDbCircle
 10
866.0000000000009
 20
828.3098367877204
 30
0.0
 40
5.000000000000233
100
AcDbArc
 50
180.0
 51
0.0
  0
ARC
  5
1ED1
330
18
100
AcDbEntity
  8
0
  6
Continuous
 62
     3
100
AcDbCircle
 10
886.0
 20
833.5809615224505
 30
0.0
 40
5.000000000000233
100
AcDbArc
 50
180.0
 51
0.0
  0
ARC
  5
1ED2
330
18
100
AcDbEntity
  8
0
  6
Continuous
 62
     3
100
AcDbCircle
 10
896.0
 20
828.3098367877204
 30
0.0
 40
5.000000000000233
100
AcDbArc
 50
180.0
 51
0.0
  0
ARC
  5
1ED3
330
18
100
AcDbEntity
  8
0
  6
Continuous
 62
     3
100
AcDbCircle
 10
920.0117435534584
 20
818.1791536950639
 30
0.0
 40
5.000000000000516
100
AcDbArc
 50
135.0000000000091
 51
315.0000000000091
  0
ARC
  5
1ED4
330
18
100
AcDbEntity
  8
0
  6
Continuous
 62
     3
100
AcDbCircle
 10
920.0117435534576
 20
848.1791536950639
 30
0.0
 40
5.000000000000171
100
AcDbArc
 50
135.0000000000091
 51
315.0000000000091
  0
ARC
  5
1ED5
330
18
100
AcDbEntity
  8
0
  6
Continuous
 62
     3
100
AcDbCircle
 10
906.0
 20
890.6674101416101
 30
0.0
 40
5.0
100
AcDbArc
 50
0.0
 51
180.0
  0
ARC
  5
1ED6
330
18
100
AcDbEntity
  8
0
  6
Continuous
 62
     3
100
AcDbCircle
 10
876.0000000000005
 20
890.6674101416101
 30
0.0
 40
5.0
100
AcDbArc
 50
0.0
 51
180.0
  0
ARC
  5
1ED7
330
18
100
AcDbEntity
  8
0
  6
Continuous
 62
     3
100
AcDbCircle
 10
866.0000000000005
 20
890.6674101416101
 30
0.0
 40
5.0
100
AcDbArc
 50
0.0
 51
180.0
  0
ARC
  5
1ED8
330
18
100
AcDbEntity
  8
0
  6
Continuous
 62
     3
100
AcDbCircle
 10
886.0
 20
890.6674101416101
 30
0.0
 40
5.0
100
AcDbArc
 50
0.0
 51
180.0
  0
ARC
  5
1ED9
330
18
100
AcDbEntity
  8
0
  6
Continuous
 62
     3
100
AcDbCircle
 10
896.0
 20
890.6674101416101
 30
0.0
 40
5.0
100
AcDbArc
 50
0.0
 51
180.0
  0
LINE
  5
1EDA
330
18
100
AcDbEntity
  8
0
  6
Continuous
 62
     7
100
AcDbLine
 10
932.0000000000005
 20
911.5393269564709
 30
0.0
 11
932.0000000000005
 21
896.5393269564719
 31
0.0
  0
ARC
  5
1EDB
330
18
100
AcDbEntity
  8
0
  6
Continuous
 62
     3
100
AcDbCircle
 10
922.5000000000019
 20
880.6674101416101
 30
0.0
 40
5.0
100
AcDbArc
 50
315.0000000000091
 51
135.0000000000091
  0
LINE
  5
1EDC
330
18
100
AcDbEntity
  8
0
  6
Continuous
 62
     3
100
AcDbLine
 10
918.9644660940693
 20
884.2029440475425
 30
0.0
 11
916.4762096475252
 21
881.7146876009982
 31
0.0
  0
LINE
  5
1EDD
330
18
100
AcDbEntity
  8
0
  6
Continuous
 62
     3
100
AcDbLine
 10
926.0355339059351
 20
877.1318762356775
 30
0.0
 11
923.5472774593908
 21
874.6436197891325
 31
0.0
  0
ARC
  5
1EDE
330
18
100
AcDbEntity
  8
0
  6
Continuous
 62
     3
100
AcDbCircle
 10
982.5000000000004
 20
880.6674101416101
 30
0.0
 40
5.0
100
AcDbArc
 50
315.0000000000091
 51
135.0000000000091
  0
ARC
  5
1EDF
330
18
100
AcDbEntity
  8
0
  6
Continuous
 62
     3
100
AcDbCircle
 10
952.5000000000018
 20
880.6674101416101
 30
0.0
 40
5.0
100
AcDbArc
 50
315.0000000000091
 51
135.0000000000091
  0
LINE
  5
1EE0
330
18
100
AcDbEntity
  8
0
  6
Continuous
 62
     7
100
AcDbLine
 10
1017.0
 20
896.5393269564719
 30
0.0
 11
1017.0
 21
911.5393269564709
 31
0.0
  0
ARC
  5
1EE1
330
18
100
AcDbEntity
  8
0
  6
Continuous
 62
     3
100
AcDbCircle
 10
1012.5
 20
880.6674101416101
 30
0.0
 40
5.0
100
AcDbArc
 50
315.0000000000091
 51
135.0000000000091
  0
LINE
  5
1EE2
330
18
100
AcDbEntity
  8
0
  6
Continuous
 62
     7
100
AcDbLine
 10
1109.0
 20
988.539326956471
 30
0.0
 11
1109.0
 21
903.5393269564709
 31
0.0
  0
LINE
  5
1EE3
330
18
100
AcDbEntity
  8
0
  6
Continuous
 62
     7
100
AcDbLine
 10
1102.0
 20
903.5393269564709
 30
0.0
 11
1109.0
 21
903.5393269564709
 31
0.0
  0
LINE
  5
1EE4
330
18
100
AcDbEntity
  8
0
  6
Continuous
 62
     7
100
AcDbLine
 10
1108.999999999999
 20
896.5393269564719
 30
0.0
 11
1098.0
 21
896.5393269564719
 31
0.0
  0
ARC
  5
1EE5
330
18
100
AcDbEntity
  8
0
  6
Continuous
 62
     3
100
AcDbCircle
 10
1077.5
 20
825.66741014161
 30
0.0
 40
5.0
100
AcDbArc
 50
315.0000000000091
 51
135.0000000000091
  0
ARC
  5
1EE6
330
18
100
AcDbEntity
  8
0
  6
Continuous
 62
     3
100
AcDbCircle
 10
1077.5
 20
855.6674101416101
 30
0.0
 40
5.0
100
AcDbArc
 50
315.0000000000091
 51
135.0000000000091
  0
ARC
  5
1EE7
330
18
100
AcDbEntity
  8
0
  6
Continuous
 62
     3
100
AcDbCircle
 10
1042.499999999998
 20
880.6674101416101
 30
0.0
 40
5.0
100
AcDbArc
 50
315.0000000000091
 51
135.0000000000091
  0
LINE
  5
1EE8
330
18
100
AcDbEntity
  8
0
  6
Continuous
 62
     7
100
AcDbLine
 10
1098.0
 20
911.5393269564709
 30
0.0
 11
1098.0
 21
896.5393269564719
 31
0.0
  0
ARC
  5
1EE9
330
18
100
AcDbEntity
  8
0
  6
Continuous
 62
     3
100
AcDbCircle
 10
1072.499999999998
 20
880.6674101416101
 30
0.0
 40
5.0
100
AcDbArc
 50
315.0000000000091
 51
135.0000000000091
  0
LINE
  5
1EEA
330
18
100
AcDbEntity
  8
0
  6
Continuous
 62
     7
100
AcDbLine
 10
1102.0
 20
903.5393269564709
 30
0.0
 11
1102.0
 21
896.5393269564719
 31
0.0
  0
ARC
  5
1EEB
330
18
100
AcDbEntity
  8
0
  6
Continuous
 62
     3
100
AcDbCircle
 10
1122.5
 20
825.66741014161
 30
0.0
 40
5.0
100
AcDbArc
 50
44.99999999999085
 51
224.9999999999908
  0
ARC
  5
1EEC
330
18
100
AcDbEntity
  8
0
  6
Continuous
 62
     3
100
AcDbCircle
 10
1122.5
 20
855.6674101416101
 30
0.0
 40
5.0
100
AcDbArc
 50
44.99999999999085
 51
224.9999999999908
  0
ARC
  5
1EED
330
18
100
AcDbEntity
  8
0
  6
Continuous
 62
     3
100
AcDbCircle
 10
1149.871916814861
 20
928.039326956471
 30
0.0
 40
5.0
100
AcDbArc
 50
135.0000000000091
 51
315.0000000000091
  0
ARC
  5
1EEE
330
18
100
AcDbEntity
  8
0
  6
Continuous
 62
     3
100
AcDbCircle
 10
1149.871916814861
 20
883.0393269564709
 30
0.0
 40
5.0
100
AcDbArc
 50
44.99999999999085
 51
224.9999999999908
  0
ARC
  5
1EEF
330
18
100
AcDbEntity
  8
0
  6
Continuous
 62
     3
100
AcDbCircle
 10
1126.185958407432
 20
879.3533685490396
 30
0.0
 40
5.0
100
AcDbArc
 50
44.99999999999085
 51
224.9999999999908
  0
ARC
  5
1EF0
330
18
100
AcDbEntity
  8
0
  6
Continuous
 62
     3
100
AcDbCircle
 10
1124.871916814861
 20
933.0393269564719
 30
0.0
 40
5.0
100
AcDbArc
 50
135.0000000000091
 51
315.0000000000091
  0
ARC
  5
1EF1
330
18
100
AcDbEntity
  8
0
  6
Continuous
 62
     3
100
AcDbCircle
 10
1179.871916814861
 20
883.0393269564709
 30
0.0
 40
5.0
100
AcDbArc
 50
44.99999999999085
 51
224.9999999999908
  0
ARC
  5
1EF2
330
18
100
AcDbEntity
  8
0
  6
Continuous
 62
     3
100
AcDbCircle
 10
1179.871916814861
 20
928.039326956471
 30
0.0
 40
5.0
100
AcDbArc
 50
135.0000000000091
 51
315.0000000000091
  0
LINE
  5
1EF3
330
18
100
AcDbEntity
  8
0
  6
Continuous
 62
     7
100
AcDbLine
 10
1109.0
 20
988.539326956471
 30
0.0
 11
1094.0
 21
988.539326956471
 31
0.0
  0
LINE
  5
1EF4
330
18
100
AcDbEntity
  8
0
  6
Continuous
 62
     7
100
AcDbLine
 10
1094.0
 20
1069.539326956471
 30
0.0
 11
1109.0
 21
1069.539326956471
 31
0.0
  0
LINE
  5
1EF5
330
18
100
AcDbEntity
  8
0
  6
Continuous
 62
     7
100
AcDbLine
 10
1094.0
 20
988.539326956471
 30
0.0
 11
1094.0
 21
1069.539326956471
 31
0.0
  0
ARC
  5
1EF6
330
18
100
AcDbEntity
  8
0
  6
Continuous
 62
     3
100
AcDbCircle
 10
1124.871916814861
 20
963.0393269564718
 30
0.0
 40
5.0
100
AcDbArc
 50
135.0000000000091
 51
315.0000000000091
  0
ARC
  5
1EF7
330
18
100
AcDbEntity
  8
0
  6
Continuous
 62
     3
100
AcDbCircle
 10
1124.871916814861
 20
993.0393269564701
 30
0.0
 40
5.0
100
AcDbArc
 50
135.0000000000091
 51
315.0000000000091
  0
ARC
  5
1EF8
330
18
100
AcDbEntity
  8
0
  6
Continuous
 62
     3
100
AcDbCircle
 10
1124.871916814861
 20
1023.03932695647
 30
0.0
 40
5.0
100
AcDbArc
 50
135.0000000000091
 51
315.0000000000091
  0
ARC
  5
1EF9
330
18
100
AcDbEntity
  8
0
  6
Continuous
 62
     3
100
AcDbCircle
 10
1124.871916814861
 20
1053.039326956469
 30
0.0
 40
5.0
100
AcDbArc
 50
135.0000000000091
 51
315.0000000000091
  0
ARC
  5
1EFA
330
18
100
AcDbEntity
  8
0
  6
Continuous
 62
     3
100
AcDbCircle
 10
1224.0
 20
808.911243771336
 30
0.0
 40
5.000000000000133
100
AcDbArc
 50
224.9999999999908
 51
44.99999999999085
  0
ARC
  5
1EFB
330
18
100
AcDbEntity
  8
0
  6
Continuous
 62
     3
100
AcDbCircle
 10
1225.31404159257
 20
780.2252853639083
 30
0.0
 40
5.000000000000133
100
AcDbArc
 50
224.9999999999908
 51
44.99999999999085
  0
CIRCLE
  5
1EFC
330
18
100
AcDbEntity
  8
0
  6
Continuous
 62
     3
100
AcDbCircle
 10
1200.163617091067
 20
785.0748608624034
 30
0.0
 40
0.0000000000010725
  0
ARC
  5
1EFD
330
18
100
AcDbEntity
  8
0
  6
Continuous
 62
     3
100
AcDbCircle
 10
1196.628083185135
 20
781.5393269564714
 30
0.0
 40
5.000000000000133
100
AcDbArc
 50
224.9999999999908
 51
44.99999999999085
  0
CIRCLE
  5
1EFE
330
18
100
AcDbEntity
  8
0
  6
Continuous
 62
     3
100
AcDbCircle
 10
1220.464466094068
 20
805.375709865404
 30
0.0
 40
0.0000000000010725
  0
CIRCLE
  5
1EFF
330
18
100
AcDbEntity
  8
0
  6
Continuous
 62
     3
100
AcDbCircle
 10
1230.163617091065
 20
785.0748608624034
 30
0.0
 40
0.0000000000010725
  0
LINE
  5
1F00
330
18
100
AcDbEntity
  8
0
  6
Continuous
 62
     3
100
AcDbLine
 10
1213.407450720793
 20
924.5037930505381
 30
0.0
 11
1227.535533905933
 21
938.6318762356767
 31
0.0
  0
LINE
  5
1F01
330
18
100
AcDbEntity
  8
0
  6
Continuous
 62
     3
100
AcDbLine
 10
1206.336382908927
 20
931.5748608624051
 30
0.0
 11
1220.464466094068
 21
945.7029440475428
 31
0.0
  0
ARC
  5
1F02
330
18
100
AcDbEntity
  8
0
  6
Continuous
 62
     3
100
AcDbCircle
 10
1224.0
 20
942.1674101416099
 30
0.0
 40
5.000000000000133
100
AcDbArc
 50
315.0000000000091
 51
135.0000000000091
  0
ARC
  5
1F03
330
18
100
AcDbEntity
  8
0
  6
Continuous
 62
     3
100
AcDbCircle
 10
1224.0
 20
868.9112437713319
 30
0.0
 40
5.000000000000133
100
AcDbArc
 50
224.9999999999908
 51
44.99999999999085
  0
LINE
  5
1F04
330
18
100
AcDbEntity
  8
0
  6
Continuous
 62
     3
100
AcDbLine
 10
1206.336382908927
 20
879.5037930505376
 30
0.0
 11
1220.464466094068
 21
865.375709865399
 31
0.0
  0
ARC
  5
1F05
330
18
100
AcDbEntity
  8
0
  6
Continuous
 62
     3
100
AcDbCircle
 10
1223.769266267894
 20
839.1419775034403
 30
0.0
 40
5.000000000000133
100
AcDbArc
 50
224.9999999999908
 51
44.99999999999085
  0
CIRCLE
  5
1F06
330
18
100
AcDbEntity
  8
0
  6
Continuous
 62
     3
100
AcDbCircle
 10
1220.233732361962
 20
835.6064435975085
 30
0.0
 40
0.0000000000010725
  0
CIRCLE
  5
1F07
330
18
100
AcDbEntity
  8
0
  6
Continuous
 62
     3
100
AcDbCircle
 10
1220.464466094068
 20
865.3757098653999
 30
0.0
 40
0.0000000000010725
  0
ARC
  5
1F08
330
18
100
AcDbEntity
  8
0
  6
Continuous
 62
     3
100
AcDbCircle
 10
1209.871916814861
 20
883.0393269564709
 30
0.0
 40
5.0
100
AcDbArc
 50
44.99999999999085
 51
224.9999999999908
  0
LINE
  5
1F09
330
18
100
AcDbEntity
  8
0
  6
Continuous
 62
     3
100
AcDbLine
 10
1213.407450720793
 20
886.5748608624038
 30
0.0
 11
1227.535533905933
 21
872.4467776772643
 31
0.0
  0
ARC
  5
1F0A
330
18
100
AcDbEntity
  8
0
  6
Continuous
 62
     3
100
AcDbCircle
 10
1209.871916814861
 20
928.039326956471
 30
0.0
 40
5.0
100
AcDbArc
 50
135.0000000000091
 51
315.0000000000091
  0
ARC
  5
1F0B
330
18
100
AcDbEntity
  8
0
  6
Continuous
 62
     3
100
AcDbCircle
 10
1224.0
 20
1002.167410141606
 30
0.0
 40
5.000000000000133
100
AcDbArc
 50
315.0000000000091
 51
135.0000000000091
  0
ARC
  5
1F0C
330
18
100
AcDbEntity
  8
0
  6
Continuous
 62
     3
100
AcDbCircle
 10
1223.769266267894
 20
971.936676409501
 30
0.0
 40
5.000000000000133
100
AcDbArc
 50
315.0000000000091
 51
135.0000000000091
  0
CIRCLE
  5
1F0D
330
18
100
AcDbEntity
  8
0
  6
Continuous
 62
     3
100
AcDbCircle
 10
1220.464466094068
 20
945.702944047542
 30
0.0
 40
0.0000000000010725
  0
CIRCLE
  5
1F0E
330
18
100
AcDbEntity
  8
0
  6
Continuous
 62
     3
100
AcDbCircle
 10
1220.233732361962
 20
975.472210315433
 30
0.0
 40
0.0000000000010725
  0
ARC
  5
1F0F
330
18
100
AcDbEntity
  8
0
  6
Continuous
 62
     3
100
AcDbCircle
 10
1224.0
 20
1032.167410141604
 30
0.0
 40
5.000000000000133
100
AcDbArc
 50
315.0000000000091
 51
135.0000000000091
  0
CIRCLE
  5
1F10
330
18
100
AcDbEntity
  8
0
  6
Continuous
 62
     3
100
AcDbCircle
 10
1220.464466094068
 20
1005.702944047537
 30
0.0
 40
0.0000000000010725
  0
CIRCLE
  5
1F11
330
18
100
AcDbEntity
  8
0
  6
Continuous
 62
     3
100
AcDbCircle
 10
1220.464466094068
 20
1035.702944047536
 30
0.0
 40
0.0000000000010725
  0
CIRCLE
  5
1F12
330
18
100
AcDbEntity
  8
0
  6
Continuous
 62
     3
100
AcDbCircle
 10
1220.464466094068
 20
1065.702944047536
 30
0.0
 40
0.0000000000010725
  0
ARC
  5
1F13
330
18
100
AcDbEntity
  8
0
  6
Continuous
 62
     3
100
AcDbCircle
 10
1224.0
 20
1062.167410141604
 30
0.0
 40
5.000000000000133
100
AcDbArc
 50
315.0000000000091
 51
135.0000000000091
  0
LINE
  5
1F14
330
18
100
AcDbEntity
  8
0
  6
Continuous
 62
     7
100
AcDbLine
 10
1109.0
 20
1154.539326956471
 30
0.0
 11
1249.0
 21
1154.539326956471
 31
0.0
  0
LINE
  5
1F15
330
18
100
AcDbEntity
  8
0
  6
Continuous
 62
     7
100
AcDbLine
 10
1109.0
 20
1154.539326956471
 30
0.0
 11
1249.0
 21
1154.539326956471
 31
0.0
  0
ARC
  5
1F16
330
18
100
AcDbEntity
  8
0
  6
Continuous
 62
     3
100
AcDbCircle
 10
1187.360173261408
 20
1085.527583403012
 30
0.0
 40
5.000000000000516
100
AcDbArc
 50
315.0000000000091
 51
135.0000000000091
  0
CIRCLE
  5
1F17
330
18
100
AcDbEntity
  8
0
  6
Continuous
 62
     7
100
AcDbCircle
 10
1199.0
 20
1124.53932695647
 30
0.0
 40
17.5
  0
LINE
  5
1F18
330
18
100
AcDbEntity
  8
0
  6
Continuous
 62
     3
100
AcDbLine
 10
1114.871916814862
 20
1104.539326956471
 30
0.0
 11
1194.0
 21
1104.539326956471
 31
0.0
  0
LINE
  5
1F19
330
18
100
AcDbEntity
  8
0
  6
Continuous
 62
     3
100
AcDbLine
 10
1114.871916814862
 20
1094.539326956471
 30
0.0
 11
1194.0
 21
1094.539326956471
 31
0.0
  0
LINE
  5
1F1A
330
18
100
AcDbEntity
  8
0
  6
Continuous
 62
     3
100
AcDbLine
 10
1114.871916814862
 20
1144.539326956471
 30
0.0
 11
1194.0
 21
1144.539326956471
 31
0.0
  0
ARC
  5
1F1B
330
18
100
AcDbEntity
  8
0
  6
Continuous
 62
     3
100
AcDbCircle
 10
1114.871916814861
 20
1139.539326956471
 30
0.0
 40
5.0
100
AcDbArc
 50
90.0
 51
270.0
  0
ARC
  5
1F1C
330
18
100
AcDbEntity
  8
0
  6
Continuous
 62
     3
100
AcDbCircle
 10
1177.229490168751
 20
1139.53932695647
 30
0.0
 40
5.000000000000233
100
AcDbArc
 50
270.0
 51
90.0
  0
LINE
  5
1F1D
330
18
100
AcDbEntity
  8
0
  6
Continuous
 62
     3
100
AcDbLine
 10
1114.871916814862
 20
1134.539326956471
 30
0.0
 11
1177.229490168751
 21
1134.53932695647
 31
0.0
  0
LINE
  5
1F1E
330
18
100
AcDbEntity
  8
0
  6
Continuous
 62
     3
100
AcDbLine
 10
1114.871916814862
 20
1124.539326956471
 30
0.0
 11
1171.958365434021
 21
1124.539326956471
 31
0.0
  0
LINE
  5
1F1F
330
18
100
AcDbEntity
  8
0
  6
Continuous
 62
     3
100
AcDbLine
 10
1114.871916814862
 20
1114.539326956471
 30
0.0
 11
1177.229490168751
 21
1114.539326956471
 31
0.0
  0
LINE
  5
1F20
330
18
100
AcDbEntity
  8
0
  6
Continuous
 62
     3
100
AcDbLine
 10
1114.871916814862
 20
1134.539326956471
 30
0.0
 11
1177.229490168751
 21
1134.539326956471
 31
0.0
  0
ARC
  5
1F21
330
18
100
AcDbEntity
  8
0
  6
Continuous
 62
     3
100
AcDbCircle
 10
1114.871916814862
 20
1099.539326956471
 30
0.0
 40
5.0
100
AcDbArc
 50
90.0
 51
270.0
  0
ARC
  5
1F22
330
18
100
AcDbEntity
  8
0
  6
Continuous
 62
     3
100
AcDbCircle
 10
1124.871916814861
 20
1083.039326956469
 30
0.0
 40
5.0
100
AcDbArc
 50
135.0000000000091
 51
315.0000000000091
  0
ARC
  5
1F23
330
18
100
AcDbEntity
  8
0
  6
Continuous
 62
     3
100
AcDbCircle
 10
1127.360173261406
 20
1085.527583403013
 30
0.0
 40
5.0
100
AcDbArc
 50
315.0000000000091
 51
135.0000000000091
  0
LINE
  5
1F24
330
18
100
AcDbEntity
  8
0
  6
Continuous
 62
     3
100
AcDbLine
 10
1121.336382908929
 20
1086.574860862402
 30
0.0
 11
1123.824639355474
 21
1089.063117308946
 31
0.0
  0
LINE
  5
1F25
330
18
100
AcDbEntity
  8
0
  6
Continuous
 62
     3
100
AcDbLine
 10
1128.407450720795
 20
1079.503793050536
 30
0.0
 11
1130.895707167339
 21
1081.99204949708
 31
0.0
  0
ARC
  5
1F26
330
18
100
AcDbEntity
  8
0
  6
Continuous
 62
     3
100
AcDbCircle
 10
1114.871916814861
 20
1129.53932695647
 30
0.0
 40
5.0
100
AcDbArc
 50
90.0
 51
270.0
  0
ARC
  5
1F27
330
18
100
AcDbEntity
  8
0
  6
Continuous
 62
     3
100
AcDbCircle
 10
1114.871916814861
 20
1119.53932695647
 30
0.0
 40
5.0
100
AcDbArc
 50
90.0
 51
270.0
  0
ARC
  5
1F28
330
18
100
AcDbEntity
  8
0
  6
Continuous
 62
     3
100
AcDbCircle
 10
1114.871916814862
 20
1109.539326956471
 30
0.0
 40
5.0
100
AcDbArc
 50
90.0
 51
270.0
  0
ARC
  5
1F29
330
18
100
AcDbEntity
  8
0
  6
Continuous
 62
     3
100
AcDbCircle
 10
1157.360173261408
 20
1085.527583403013
 30
0.0
 40
5.000000000000171
100
AcDbArc
 50
315.0000000000091
 51
135.0000000000091
  0
ARC
  5
1F2A
330
18
100
AcDbEntity
  8
0
  6
Continuous
 62
     3
100
AcDbCircle
 10
1171.958365434021
 20
1129.539326956471
 30
0.0
 40
5.000000000000233
100
AcDbArc
 50
270.0
 51
90.0
  0
ARC
  5
1F2B
330
18
100
AcDbEntity
  8
0
  6
Continuous
 62
     3
100
AcDbCircle
 10
1171.958365434021
 20
1119.539326956471
 30
0.0
 40
5.000000000000233
100
AcDbArc
 50
270.0
 51
90.0
  0
ARC
  5
1F2C
330
18
100
AcDbEntity
  8
0
  6
Continuous
 62
     3
100
AcDbCircle
 10
1177.229490168751
 20
1109.539326956471
 30
0.0
 40
5.000000000000233
100
AcDbArc
 50
270.0
 51
90.0
  0
ARC
  5
1F2D
330
18
100
AcDbEntity
  8
0
  6
Continuous
 62
     3
100
AcDbCircle
 10
1114.871916814862
 20
1149.539326956471
 30
0.0
 40
5.0
100
AcDbArc
 50
90.0
 51
270.0
  0
ARC
  5
1F2E
330
18
100
AcDbEntity
  8
0
  6
Continuous
 62
     3
100
AcDbCircle
 10
1194.0
 20
1099.539326956471
 30
0.0
 40
5.000000000000233
100
AcDbArc
 50
270.0
 51
90.0
  0
ARC
  5
1F2F
330
18
100
AcDbEntity
  8
0
  6
Continuous
 62
     3
100
AcDbCircle
 10
1217.36017326141
 20
1085.527583403012
 30
0.0
 40
5.000000000000511
100
AcDbArc
 50
315.0000000000091
 51
135.0000000000091
  0
ARC
  5
1F30
330
18
100
AcDbEntity
  8
0
  6
Continuous
 62
     3
100
AcDbCircle
 10
1194.0
 20
1149.53932695647
 30
0.0
 40
5.000000000000233
100
AcDbArc
 50
270.0
 51
90.0
  0
TEXT
  5
216D
330
18
100
AcDbEntity
  8
9図面文字
100
AcDbText
 10
886.5606323066968
 20
613.0708529254747
 30
0.0
 40
17.5
  1
TSX455　スロープエッジコ-ナ-
  7
STYLE1
 72
     4
 11
1049.877393670333
 21
622.9643188345656
 31
0.0
100
AcDbText
  0
LINE
  5
21E3
330
18
100
AcDbEntity
  8
0
  6
Continuous
 62
     7
100
AcDbLine
 10
880.6563731732612
 20
608.9181376585446
 30
0.0
 11
1219.343626826739
 21
608.9181376585446
 31
0.0
  0
DIMENSION
  5
2202
330
18
100
AcDbEntity
  8
0
  6
DIMENSION
 62
     7
100
AcDbDimension
  2
*D4
 10
1331.584172341567
 20
756.5393269564713
 30
0.0
 11
1321.584172341567
 21
955.5393269564714
 31
0.0
 70
    32
  1
<>
 71
     5
 42
397.9999999999997
  3
ASKSTANDARD
100
AcDbAlignedDimension
 13
1249.0
 23
1154.539326956471
 33
0.0
 14
1249.0
 24
756.5393269564714
 34
0.0
 50
90.0
100
AcDbRotatedDimension
1001
ACAD
1000
DSTYLE
1002
{
1070
     3
1000
<>
1070
    40
1040
5.0
1070
    41
1040
2.0
1070
    77
1070
     3
1002
}
  0
DIMENSION
  5
2210
330
18
100
AcDbEntity
  8
0
  6
DIMENSION
 62
     7
100
AcDbDimension
  2
*D5
 10
1249.0
 20
677.9401629667626
 30
0.0
 11
1050.0
 21
687.9401629667626
 31
0.0
 70
    32
  1
<>
 71
     5
 42
398.0
  3
ASKSTANDARD
100
AcDbAlignedDimension
 13
851.0
 23
756.5393269564714
 33
0.0
 14
1249.0
 24
756.5393269564714
 34
0.0
100
AcDbRotatedDimension
1001
ACAD
1000
DSTYLE
1002
{
1070
     3
1000
<>
1070
    40
1040
5.0
1070
    41
1040
2.0
1070
    77
1070
     3
1002
}
  0
LWPOLYLINE
  5
2899
330
18
100
AcDbEntity
  8
ASKPAPERSIZE
  6
Continuous
 62
     4
100
AcDbPolyline
 90
        4
 70
     1
 43
0.0
 10
0.0
 20
0.0
 10
0.0
 20
1485.0
 10
2100.0
 20
1485.0
 10
2100.0
 20
0.0
1001
AUTO_SEKKEIYA
1002
{
1000
NONE
1002
}
  0
TEXT
  5
289A
330
18
100
AcDbEntity
  8
9図面文字
 62
     2
100
AcDbText
 10
1719.023819494761
 20
50.88050688999132
 30
0.0
 40
14.17500000000001
  1
会社
  7
STYLE1
 72
     1
 11
1739.642001312943
 21
57.96800688999133
 31
0.0
100
AcDbText
 73
     2
  0
TEXT
  5
289B
330
18
100
AcDbEntity
  8
9図面文字
 62
     2
100
AcDbText
 10
1719.023819494761
 20
70.78794641747262
 30
0.0
 40
14.17500000000001
  1
株式
  7
STYLE1
 72
     1
 11
1739.642001312943
 21
77.87544641747263
 31
0.0
100
AcDbText
 73
     2
  0
HATCH
  5
289C
330
18
100
AcDbEntity
  8
9図面文字
  6
Continuous
 62
     3
100
AcDbHatch
 10
0.0
 20
0.0
 30
0.0
210
0.0
220
0.0
230
1.0
  2
SOLID
 70
     1
 71
     0
 91
        2
 92
        7
 72
     1
 73
     1
 93
        2
 10
1664.760454116462
 20
69.99435338483841
 42
1.0
 10
1714.386461908793
 20
69.99435338483841
 42
1.0
 97
        0
 92
        7
 72
     1
 73
     1
 93
       11
 10
1689.421486646624
 20
92.17433665335624
 42
0.0
 10
1689.573458012628
 20
92.78235728100321
 42
0.0
 10
1689.725429378632
 20
92.17433665335624
 42
-0.412208187950293
 10
1711.753961908794
 20
69.99435338483841
 42
-0.0773445374705047
 10
1710.705047345267
 20
63.25412450411909
 42
0.0
 10
1711.058989947146
 20
62.4006033848384
 42
0.0
 10
1710.413556717416
 20
62.4006033848384
 42
-0.6999368910289298
 10
1668.733359307839
 20
62.4006033848384
 42
0.0
 10
1668.08792607811
 20
62.4006033848384
 42
0.0
 10
1668.441868679988
 20
63.25412450411954
 42
-0.0773445374704989
 10
1667.392954116463
 20
69.99435338483841
 42
-0.4122081879502926
 97
        0
 75
     0
 76
     1
 47
0.6951189523479066
 98
        2
 10
1688.817524690376
 20
92.42526540329482
 10
1688.817524690376
 20
92.42526540329482
  0
HATCH
  5
289D
330
18
100
AcDbEntity
  8
9図面文字
  6
Continuous
 62
     3
100
AcDbHatch
 10
0.0
 20
0.0
 30
0.0
210
0.0
220
0.0
230
1.0
  2
SOLID
 70
     1
 71
     0
 91
        3
 92
        7
 72
     1
 73
     1
 93
        4
 10
1681.979708012627
 20
62.4006033848384
 42
0.0
 10
1697.167208012628
 20
62.4006033848384
 42
0.0
 10
1689.725429378631
 20
92.17433665335624
 42
0.0034258272556783
 10
1689.421486646623
 20
92.17433665335624
 42
0.0
 97
        0
 92
        7
 72
     1
 73
     1
 93
        4
 10
1681.979708012627
 20
62.4006033848384
 42
0.0
 10
1674.385958012627
 20
77.5881033848384
 42
0.0
 10
1668.441868679988
 20
63.25412450411864
 42
0.0101667687972818
 10
1668.733359307839
 20
62.4006033848384
 42
0.0
 97
        0
 92
        7
 72
     1
 73
     1
 93
        4
 10
1697.167208012628
 20
62.4006033848384
 42
0.0
 10
1710.413556717416
 20
62.4006033848384
 42
0.0101667687972915
 10
1710.705047345267
 20
63.25412450411931
 42
0.0
 10
1704.760958012627
 20
77.5881033848384
 42
0.0
 97
        0
 75
     0
 76
     1
 47
0.6951189523479066
 98
        3
 10
1688.395040075563
 20
82.00890276152813
 10
1675.157140134415
 20
66.52512832816478
 10
1701.773765358297
 20
68.21426745909935
  0
CIRCLE
  5
289E
330
18
100
AcDbEntity
  8
9図面文字
  6
Continuous
 62
     7
100
AcDbCircle
 10
1689.573458012627
 20
69.99435338483841
 30
0.0
 40
22.18050389616553
  0
CIRCLE
  5
289F
330
18
100
AcDbEntity
  8
9図面文字
  6
Continuous
 62
     7
100
AcDbCircle
 10
1689.573458012627
 20
69.99435338483841
 30
0.0
 40
24.81300389616554
  0
LINE
  5
28A0
330
18
100
AcDbEntity
  8
9図面文字
  6
Continuous
 62
     7
100
AcDbLine
 10
1704.760958012627
 20
77.5881033848384
 30
0.0
 11
1711.058989947144
 21
62.4006033848384
 31
0.0
  0
LINE
  5
28A1
330
18
100
AcDbEntity
  8
9図面文字
  6
Continuous
 62
     7
100
AcDbLine
 10
1697.167208012628
 20
62.4006033848384
 30
0.0
 11
1704.760958012627
 21
77.5881033848384
 31
0.0
  0
LINE
  5
28A2
330
18
100
AcDbEntity
  8
9図面文字
  6
Continuous
 62
     7
100
AcDbLine
 10
1689.573458012628
 20
92.78235728100412
 30
0.0
 11
1697.167208012628
 21
62.4006033848384
 31
0.0
  0
LINE
  5
28A3
330
18
100
AcDbEntity
  8
9図面文字
  6
Continuous
 62
     7
100
AcDbLine
 10
1681.979708012627
 20
62.4006033848384
 30
0.0
 11
1689.573458012628
 21
92.78235728100412
 31
0.0
  0
LINE
  5
28A4
330
18
100
AcDbEntity
  8
9図面文字
  6
Continuous
 62
     7
100
AcDbLine
 10
1674.385958012627
 20
77.5881033848384
 30
0.0
 11
1681.979708012627
 21
62.4006033848384
 31
0.0
  0
LINE
  5
28A5
330
18
100
AcDbEntity
  8
9図面文字
  6
Continuous
 62
     7
100
AcDbLine
 10
1668.08792607811
 20
62.4006033848384
 30
0.0
 11
1674.385958012627
 21
77.5881033848384
 31
0.0
  0
LINE
  5
28A6
330
18
100
AcDbEntity
  8
9図面文字
  6
Continuous
 62
     7
100
AcDbLine
 10
1668.08792607811
 20
62.4006033848384
 30
0.0
 11
1711.058989947144
 21
62.4006033848384
 31
0.0
  0
TEXT
  5
28A7
330
18
100
AcDbEntity
  8
9図面文字
100
AcDbText
 10
964.0592982038507
 20
50.88767390827616
 30
0.0
 40
15.0
  1
当
  7
STYLE1
 72
     1
 11
974.9683891129416
 21
58.38767390827616
 31
0.0
100
AcDbText
 73
     2
  0
TEXT
  5
28A8
330
18
100
AcDbEntity
  8
9図面文字
100
AcDbText
 10
964.0592982038507
 20
76.45369190862561
 30
0.0
 40
15.0
  1
担
  7
STYLE1
 72
     1
 11
974.9683891129416
 21
83.95369190862561
 31
0.0
100
AcDbText
 73
     2
  0
TEXT
  5
28A9
330
18
100
AcDbEntity
  8
9図面文字
100
AcDbText
 10
1055.435159331443
 20
50.88767390827638
 30
0.0
 40
15.0
  1
認
  7
STYLE1
 72
     1
 11
1066.344250240534
 21
58.38767390827638
 31
0.0
100
AcDbText
 73
     2
  0
TEXT
  5
28AA
330
18
100
AcDbEntity
  8
9図面文字
100
AcDbText
 10
1055.435159331443
 20
76.45369190862561
 30
0.0
 40
15.0
  1
承
  7
STYLE1
 72
     1
 11
1066.344250240534
 21
83.95369190862561
 31
0.0
100
AcDbText
 73
     2
  0
LINE
  5
28AB
330
18
100
AcDbEntity
  8
9図面枠
  6
Continuous
 62
     4
100
AcDbLine
 10
990.5011306568615
 20
102.125
 30
0.0
 11
990.5011306568615
 21
167.125
 31
0.0
  0
LINE
  5
28AC
330
18
100
AcDbEntity
  8
9図面枠
  6
Continuous
 62
     4
100
AcDbLine
 10
52.5
 20
167.125
 30
0.0
 11
2047.5
 21
167.125
 31
0.0
  0
LINE
  5
28AD
330
18
100
AcDbEntity
  8
9図面枠
  6
Continuous
 62
     4
100
AcDbLine
 10
93.0
 20
37.125
 30
0.0
 11
93.0
 21
167.125
 31
0.0
  0
TEXT
  5
28AE
330
18
100
AcDbEntity
  8
9図面文字
100
AcDbText
 10
62.28162843984373
 20
58.60339107392338
 30
0.0
 40
15.0
  1
様
  7
STYLE1
 72
     1
 11
73.19071934893464
 21
66.10339107392338
 31
0.0
100
AcDbText
 73
     2
  0
TEXT
  5
28AF
330
18
100
AcDbEntity
  8
9図面文字
100
AcDbText
 10
61.99298091619138
 20
108.3502561658372
 30
0.0
 40
15.0
  1
記
  7
STYLE1
 72
     1
 11
72.90207182528229
 21
115.8502561658372
 31
0.0
100
AcDbText
 73
     2
  0
TEXT
  5
28B0
330
18
100
AcDbEntity
  8
9図面文字
100
AcDbText
 10
62.28162843984373
 20
83.94253810404938
 30
0.0
 40
15.0
  1
仕
  7
STYLE1
 72
     1
 11
73.19071934893464
 21
91.44253810404938
 31
0.0
100
AcDbText
 73
     2
  0
TEXT
  5
28B1
330
18
100
AcDbEntity
  8
9図面文字
100
AcDbText
 10
61.84090909090909
 20
133.7397824517998
 30
0.0
 40
15.0
  1
特
  7
STYLE1
 72
     1
 11
72.75
 21
141.2397824517998
 31
0.0
100
AcDbText
 73
     2
  0
LINE
  5
28B2
330
18
100
AcDbEntity
  8
9図面枠
  6
Continuous
 62
     4
100
AcDbLine
 10
958.0011306568616
 20
102.125
 30
0.0
 11
2047.5
 21
102.125
 31
0.0
  0
TEXT
  5
28B3
330
18
100
AcDbEntity
  8
9図面文字
 62
     2
100
AcDbText
 10
1762.372274986595
 20
55.45093765552582
 30
0.0
 40
28.35000000000002
  1
丸山製作所
 41
1.3
  7
STYLE3
 72
     1
 11
1896.390456804777
 21
69.62593765552583
 31
0.0
100
AcDbText
 73
     2
  0
LINE
  5
28B4
330
18
100
AcDbEntity
  8
9図面枠
  6
Continuous
 62
     4
100
AcDbLine
 10
958.0011306568616
 20
37.125
 30
0.0
 11
958.0011306568616
 21
167.125
 31
0.0
  0
LINE
  5
28B5
330
18
100
AcDbEntity
  8
9図面枠
  6
Continuous
 62
     4
100
AcDbLine
 10
958.0011306568616
 20
37.125
 30
0.0
 11
958.0011306568616
 21
118.125
 31
0.0
  0
TEXT
  5
28B6
330
18
100
AcDbEntity
  8
9図面文字
100
AcDbText
 10
1456.714487223727
 20
147.3848626510555
 30
0.0
 40
15.0
  1
図
  7
STYLE1
 72
     1
 11
1467.623578132817
 21
154.8848626510555
 31
0.0
100
AcDbText
 73
     2
  0
TEXT
  5
28B7
330
18
100
AcDbEntity
  8
9図面文字
100
AcDbText
 10
1456.06545119078
 20
107.2878464801936
 30
0.0
 40
15.0
  1
名
  7
STYLE1
 72
     1
 11
1466.974542099871
 21
114.7878464801936
 31
0.0
100
AcDbText
 73
     2
  0
TEXT
  5
28B8
330
18
100
AcDbEntity
  8
9図面文字
100
AcDbText
 10
1456.714487223727
 20
126.9618849355165
 30
0.0
 40
15.0
  1
面
  7
STYLE1
 72
     1
 11
1467.623578132817
 21
134.4618849355165
 31
0.0
100
AcDbText
 73
     2
  0
TEXT
  5
28B9
330
18
100
AcDbEntity
  8
9図面文字
100
AcDbText
 10
1456.714487223727
 20
50.88767390827616
 30
0.0
 40
15.0
  1
尺
  7
STYLE1
 72
     1
 11
1467.623578132817
 21
58.38767390827616
 31
0.0
100
AcDbText
 73
     2
  0
TEXT
  5
28BA
330
18
100
AcDbEntity
  8
9図面文字
100
AcDbText
 10
1456.714487223727
 20
76.45369190862561
 30
0.0
 40
15.0
  1
縮
  7
STYLE1
 72
     1
 11
1467.623578132817
 21
83.95369190862561
 31
0.0
100
AcDbText
 73
     2
  0
LINE
  5
28BB
330
18
100
AcDbEntity
  8
9図面枠
  6
Continuous
 62
     4
100
AcDbLine
 10
1447.373578132818
 20
37.125
 30
0.0
 11
1447.373578132818
 21
167.125
 31
0.0
  0
LINE
  5
28BC
330
18
100
AcDbEntity
  8
9図面枠
  6
Continuous
 62
     4
100
AcDbLine
 10
1147.373578132818
 20
37.125
 30
0.0
 11
1147.373578132818
 21
102.125
 31
0.0
  0
LINE
  5
28BD
330
18
100
AcDbEntity
  8
9図面枠
  6
Continuous
 62
     4
100
AcDbLine
 10
1082.373578132818
 20
37.125
 30
0.0
 11
1082.373578132818
 21
102.125
 31
0.0
  0
LINE
  5
28BE
330
18
100
AcDbEntity
  8
9図面枠
  6
Continuous
 62
     4
100
AcDbLine
 10
1049.873578132818
 20
37.125
 30
0.0
 11
1049.873578132818
 21
102.125
 31
0.0
  0
LINE
  5
28BF
330
18
100
AcDbEntity
  8
9図面枠
  6
Continuous
 62
     4
100
AcDbLine
 10
990.5011306568615
 20
37.125
 30
0.0
 11
990.5011306568615
 21
102.125
 31
0.0
  0
LINE
  5
28C0
330
18
100
AcDbEntity
  8
9図面枠
  6
Continuous
 62
     4
100
AcDbLine
 10
1487.873578132818
 20
37.125
 30
0.0
 11
1487.873578132818
 21
118.125
 31
0.0
  0
LINE
  5
28C1
330
18
100
AcDbEntity
  8
9図面枠
  6
Continuous
 62
     4
100
AcDbLine
 10
1633.673578132818
 20
37.125
 30
0.0
 11
1633.673578132818
 21
102.125
 31
0.0
  0
LINE
  5
28C3
330
18
100
AcDbEntity
  8
9図面枠
  6
Continuous
 62
     4
100
AcDbLine
 10
1487.873578132818
 20
118.125
 30
0.0
 11
1487.873578132818
 21
167.125
 31
0.0
  0
TEXT
  5
28C4
330
18
100
AcDbEntity
  8
9図面文字
 62
     7
100
AcDbText
 10
1271.631816329455
 20
85.96334275203572
 30
0.0
 40
12.5
  1
file name：
  7
STYLE1
 11
1271.631816329455
 21
92.21334275203572
 31
0.0
100
AcDbText
 73
     2
  0
TEXT
  5
28C5
330
18
100
AcDbEntity
  8
9図面文字
100
AcDbText
 10
1512.204930502715
 20
118.8071724485139
 30
0.0
 40
22.5
  1
TSX455　スロープエッジコーナー（外）
  7
STYLE1
 72
     4
 11
1769.996123684533
 21
131.3995019939684
 31
0.0
100
AcDbText
  0
LINE
  5
28C6
330
18
100
AcDbEntity
  8
非表示破線
  6
HIDS
 62
     5
100
AcDbLine
 10
93.0
 20
141.125
 30
0.0
 11
958.0011306568616
 21
141.125
 31
0.0
  0
TEXT
  5
28C7
330
18
100
AcDbEntity
  8
9図面文字
 62
     7
100
AcDbText
 10
1258.616075314681
 20
51.81757212355311
 30
0.0
 40
17.5
  1
TSX455
  7
STYLE1
 72
     4
 11
1300.526586678317
 21
60.5178562144622
 31
0.0
100
AcDbText
  0
LINE
  5
28C8
330
18
100
AcDbEntity
  8
9図面枠
  6
Continuous
 62
     4
100
AcDbLine
 10
52.5
 20
1447.875
 30
0.0
 11
2047.5
 21
1447.875
 31
0.0
  0
LINE
  5
28C9
330
18
100
AcDbEntity
  8
9図面枠
  6
Continuous
 62
     4
100
AcDbLine
 10
2047.5
 20
1447.875
 30
0.0
 11
2047.5
 21
37.125
 31
0.0
  0
LINE
  5
28CA
330
18
100
AcDbEntity
  8
9図面枠
  6
Continuous
 62
     4
100
AcDbLine
 10
2047.5
 20
37.125
 30
0.0
 11
52.5
 21
37.125
 31
0.0
  0
LINE
  5
28CB
330
18
100
AcDbEntity
  8
9図面枠
  6
Continuous
 62
     4
100
AcDbLine
 10
52.5
 20
1447.875
 30
0.0
 11
52.5
 21
37.125
 31
0.0
  0
LINE
  5
28CC
330
18
100
AcDbEntity
  8
9図面枠
  6
Continuous
 62
     4
100
AcDbLine
 10
1147.373578132818
 20
82.125
 30
0.0
 11
1447.373578132818
 21
82.125
 31
0.0
  0
TEXT
  5
28CD
330
18
100
AcDbEntity
  8
9図面文字
  6
Continuous
 62
     7
100
AcDbText
 10
93.4224046287518
 20
145.1225676844206
 30
0.0
 40
15.0
  1
・本製品は特殊ゴム一体成形品（天然ゴム系）とする。
  7
STYLE1
100
AcDbText
  0
LINE
  5
28CE
330
18
100
AcDbEntity
  8
非表示破線
  6
HIDS
 62
     5
100
AcDbLine
 10
93.0
 20
115.125
 30
0.0
 11
958.0011306568616
 21
115.125
 31
0.0
  0
LINE
  5
28CF
330
18
100
AcDbEntity
  8
非表示破線
  6
HIDS
 62
     5
100
AcDbLine
 10
93.0
 20
89.12499999999999
 30
0.0
 11
958.0011306568616
 21
89.12499999999999
 31
0.0
  0
LINE
  5
28D0
330
18
100
AcDbEntity
  8
非表示破線
  6
HIDS
 62
     5
100
AcDbLine
 10
93.0
 20
63.125
 30
0.0
 11
958.0011306568616
 21
63.125
 31
0.0
  0
TEXT
  5
2D04
330
18
100
AcDbEntity
  8
9図面文字
  6
Continuous
 62
     7
100
AcDbText
 10
93.4224046287518
 20
119.1225676844208
 30
0.0
 40
15.0
  1
・本製品の衝撃吸収可能（HIC<1000)な落下高さは１．９ｍまでとする。
  7
STYLE1
100
AcDbText
  0
TEXT
  5
2D05
330
18
100
AcDbEntity
  8
9図面文字
  6
Continuous
 62
     7
100
AcDbText
 10
93.4224046287518
 20
93.12256768442058
 30
0.0
 40
15.0
  1
・危険落下高さはEN1177(1998)及びBS7188(1998)の規準による衝撃吸収試験による。
  7
STYLE1
100
AcDbText
  0
TEXT
  5
2D06
330
18
100
AcDbEntity
  8
9図面文字
100
AcDbText
 10
1283.843223996992
 20
125.7554708448324
 30
0.0
 40
17.5
  1
承諾願図
  7
STYLE1
 72
     1
 11
1334.752314906083
 21
134.5054708448324
 31
0.0
100
AcDbText
 73
     2
  0
LINE
  5
2D07
330
18
100
AcDbEntity
  8
9図面枠
  6
Continuous
 62
     4
100
AcDbLine
 10
1235.18735439484
 20
102.125
 30
0.0
 11
1235.18735439484
 21
167.125
 31
0.0
  0
TEXT
  5
2D08
330
18
100
AcDbEntity
  8
9図面文字
100
AcDbText
 10
1208.745521941829
 20
141.5077316338038
 30
0.0
 40
15.0
  1
図
  7
STYLE1
 72
     1
 11
1219.65461285092
 21
149.0077316338038
 31
0.0
100
AcDbText
 73
     2
  0
TEXT
  5
2D09
330
18
100
AcDbEntity
  8
9図面文字
100
AcDbText
 10
1208.745521941829
 20
115.1823838172513
 30
0.0
 40
15.0
  1
種
  7
STYLE1
 72
     1
 11
1219.65461285092
 21
122.6823838172513
 31
0.0
100
AcDbText
 73
     2
  0
LINE
  5
2D0A
330
18
100
AcDbEntity
  8
9図面枠
  6
Continuous
 62
     4
100
AcDbLine
 10
1202.68735439484
 20
102.125
 30
0.0
 11
1202.68735439484
 21
167.125
 31
0.0
  0
TEXT
  5
2D0B
330
18
100
AcDbEntity
  8
9図面文字
100
AcDbText
 10
1057.297172375388
 20
125.7554708448324
 30
0.0
 40
17.5
  1
標準品
  7
STYLE1
 72
     1
 11
1095.478990557206
 21
134.5054708448324
 31
0.0
100
AcDbText
 73
     2
  0
TEXT
  5
2D0C
330
18
100
AcDbEntity
  8
9図面文字
100
AcDbText
 10
964.059298203851
 20
141.5077316338038
 30
0.0
 40
15.0
  1
類
  7
STYLE1
 72
     1
 11
974.9683891129418
 21
149.0077316338038
 31
0.0
100
AcDbText
 73
     2
  0
TEXT
  5
2D0D
330
18
100
AcDbEntity
  8
9図面文字
100
AcDbText
 10
964.059298203851
 20
115.1823838172513
 30
0.0
 40
15.0
  1
別
  7
STYLE1
 72
     1
 11
974.9683891129418
 21
122.6823838172513
 31
0.0
100
AcDbText
 73
     2
  0
TEXT
  5
2D12
330
18
100
AcDbEntity
  8
TEXT_0
  6
Continuous
 62
     7
100
AcDbText
 10
98.59804742205154
 20
44.53298072591201
 30
0.0
 40
14.0
  1
・本製品は、(一社)日本公園施設業協会(ＪＰＦＡ)が定める賠償責任保険加入製品とする。
  7
STYLE1
100
AcDbText
  0
INSERT
  5
2D13
330
18
100
AcDbEntity
  8
0
  6
Continuous
 62
     7
100
AcDbBlockReference
  2
kinami
 10
1046.540203537373
 20
38.91726312079299
 30
0.0
 41
0.1333
 42
0.1333
 43
0.1333
  0
INSERT
  5
2D14
330
18
100
AcDbEntity
  8
0
  6
Continuous
 62
     7
100
AcDbBlockReference
  2
sugnKAMI
 10
1079.499164438883
 20
31.95698232746008
 30
0.0
 41
0.2
 42
0.2
 43
0.2
  0
TEXT
  5
2E28
330
18
100
AcDbEntity
  8
9図面文字
100
AcDbText
 10
1524.750850860091
 20
57.53776861939582
 30
0.0
 40
20.0
  1
１ ： ５
  7
STYLE1
 72
     1
 11
1560.773578132818
 21
67.53776861939582
 31
0.0
100
AcDbText
 73
     2
  0
ENDSEC
  0
SECTION
  2
OBJECTS
  0
DICTIONARY
  5
C
330
0
100
AcDbDictionary
281
     1
  3
ACAD_COLOR
350
2330
  3
ACAD_GROUP
350
D
  3
ACAD_LAYOUT
350
5DC
  3
ACAD_MATERIAL
350
22FE
  3
ACAD_MLEADERSTYLE
350
2345
  3
ACAD_MLINESTYLE
350
E
  3
ACAD_PLOTSETTINGS
350
5DD
  3
ACAD_PLOTSTYLENAME
350
5DA
  3
ACAD_SCALELIST
350
2333
  3
ACAD_TABLESTYLE
350
2331
  3
ACAD_VISUALSTYLE
350
2317
  3
AcAmCatalogState
350
22DC
  3
AcAsAppObject
350
226E
  3
ACASGREF_MASTER
350
22A5
  3
ACDB_RECOMPOSE_DATA
350
2FE1
  3
ACDBVARIABLEDICTIONARY
350
3C4
  3
ACDMSYSVARMGR
350
2248
  3
ACGREF_MASTER
350
2242
  3
ACGREFACAD_MASTER
350
226B
  3
ACMDICTIONARY
350
3D0
  3
ACME_BOM_MANAGER_NAME
350
3CD
  3
ACME_COMMAND_HISTORY
350
3C2
  3
ACME_SCOPE_NAME
350
3C1
  3
ACMESTATEMGR
350
3C0
  3
ACMESYSVARMANAGER
350
3C6
  3
AD_APPL
350
22BB
  3
AD_GREF_MODULE
350
22A3
  3
AD_HOLENOTE_REPOSITORY
350
22BD
  3
AD_MAPI_MODULE
350
22D4
  3
ADSYSVARMGR
350
22AD
  3
AEC_PROPERTY_SET_DEFS
350
23CF
  3
AmdtNamedDwgMgr
350
2266
  3
AMG
350
2237
  3
AMGSNAPSETTINGS
350
22EC
  3
AMI_MASTER
350
22A4
  3
ASKSYSVAR
350
B3C
  3
ASURF_STATIC_VARS
350
226F
  3
AUTOCAD_ASSEMBLIES_PROJECT
350
22C9
  3
AutoSurf_SysVars
350
2270
  3
Designer_Assemblies_SysVars
350
22C0
  3
DWGPROPS
350
2FE2
  3
GREFAM_MODULE
350
22A6
  0
DICTIONARY
  5
236C
330
8
100
AcDbDictionary
280
     1
281
     1
  0
DICTIONARY
  5
234E
330
F
100
AcDbDictionary
280
     1
281
     1
  3
ADSK_XREC_LAYER_RECONCILED
360
234F
  0
DICTIONARY
  5
2350
330
C7
100
AcDbDictionary
280
     1
281
     1
  3
ADSK_XREC_LAYER_RECONCILED
360
2351
  0
DICTIONARY
  5
2352
330
3F9
100
AcDbDictionary
280
     1
281
     1
  3
ADSK_XREC_LAYER_RECONCILED
360
2353
  0
DICTIONARY
  5
2354
330
3FB
100
AcDbDictionary
280
     1
281
     1
  3
ADSK_XREC_LAYER_RECONCILED
360
2355
  0
DICTIONARY
  5
2356
330
EE1
100
AcDbDictionary
280
     1
281
     1
  3
ADSK_XREC_LAYER_RECONCILED
360
2357
  0
DICTIONARY
  5
23C6
330
23C5
100
AcDbDictionary
280
     1
281
     1
  0
DICTIONARY
  5
53B
330
18
100
AcDbDictionary
280
     1
281
     1
  3
ACAD_INDEX
360
2E42
  0
DICTIONARY
  5
23CC
330
23C7
100
AcDbDictionary
280
     1
281
     1
  0
DICTIONARY
  5
2408
330
2407
100
AcDbDictionary
280
     1
281
     1
  3
ACAD_SORTENTS
360
2409
  0
DICTIONARY
  5
2411
330
2410
100
AcDbDictionary
280
     1
281
     1
  0
DICTIONARY
  5
2330
102
{ACAD_REACTORS
330
C
102
}
330
C
100
AcDbDictionary
281
     1
  0
DICTIONARY
  5
D
102
{ACAD_REACTORS
330
C
102
}
330
C
100
AcDbDictionary
281
     1
  0
DICTIONARY
  5
5DC
102
{ACAD_REACTORS
330
C
102
}
330
C
100
AcDbDictionary
281
     1
  3
Model
350
5DE
  3
ﾚｲｱｳﾄ1
350
5DF
  0
DICTIONARY
  5
22FE
102
{ACAD_REACTORS
330
C
102
}
330
C
100
AcDbDictionary
281
     1
  3
ByBlock
350
2307
  3
ByLayer
350
22FF
  3
Global
350
230F
  0
DICTIONARY
  5
2345
102
{ACAD_REACTORS
330
C
102
}
330
C
100
AcDbDictionary
281
     1
  3
Standard
350
2346
  0
DICTIONARY
  5
E
102
{ACAD_REACTORS
330
C
102
}
330
C
100
AcDbDictionary
281
     1
  3
STANDARD
350
1B
  0
DICTIONARY
  5
5DD
102
{ACAD_REACTORS
330
C
102
}
330
C
100
AcDbDictionary
281
     1
  3
DJ750C(A1)カラー
350
5FF
  3
DJ750C(A1)モノクロ
350
600
  3
DJ750C(A2)カラー
350
601
  3
DJ750C(A2)モノクロ
350
602
  3
LP8200(A3)
350
F00
  3
NEC(A3)
350
604
  3
NEC(A4)
350
605
  0
ACDBDICTIONARYWDFLT
  5
5DA
102
{ACAD_REACTORS
330
C
102
}
330
C
100
AcDbDictionary
281
     1
  3
Normal
350
5DB
100
AcDbDictionaryWithDefault
340
5DB
  0
DICTIONARY
  5
2333
102
{ACAD_REACTORS
330
C
102
}
330
C
100
AcDbDictionary
281
     1
  3
A0
350
2334
  3
A1
350
2335
  3
A2
350
2336
  3
A3
350
2337
  3
A4
350
2338
  3
A5
350
2339
  3
A6
350
233A
  3
A7
350
233B
  3
A8
350
233C
  3
A9
350
233D
  3
B0
350
233E
  3
B1
350
233F
  3
B2
350
2340
  3
B3
350
2341
  3
B4
350
2342
  3
B5
350
2343
  3
B6
350
2344
  0
DICTIONARY
  5
2331
102
{ACAD_REACTORS
330
C
102
}
330
C
100
AcDbDictionary
281
     1
  3
Standard
350
2332
  0
DICTIONARY
  5
2317
102
{ACAD_REACTORS
330
C
102
}
330
C
100
AcDbDictionary
281
     1
  3
2dWireframe
350
231D
  3
Basic
350
231C
  3
Brighten
350
2323
  3
ColorChange
350
2327
  3
Conceptual
350
2320
  3
Dim
350
2322
  3
EdgeColorOff
350
232F
  3
Facepattern
350
2326
  3
Flat
350
2318
  3
FlatWithEdges
350
2319
  3
Gouraud
350
231A
  3
GouraudWithEdges
350
231B
  3
Hidden
350
231F
  3
JitterOff
350
232D
  3
Linepattern
350
2325
  3
OverhangOff
350
232E
  3
Realistic
350
2321
  3
Shaded
350
232C
  3
Shaded with edges
350
232B
  3
Shades of Gray
350
2328
  3
Sketchy
350
2329
  3
Thicken
350
2324
  3
Wireframe
350
231E
  3
X-Ray
350
232A
  0
ACAD_PROXY_OBJECT
  5
22DC
102
{ACAD_REACTORS
330
C
102
}
330
C
100
AcDbProxyObject
 90
      499
 91
      566
 95
   983063
 70
     0
 93
      568
310
3FFFFFFFE00A02844029D221D2E456DC729485DC6F647C54AABC7C0483ECB6547ABAE1818CBAB45F7AE181BC1AD40ADC1BA41B2C1A140ADC1BEC1B141B3AE4131C13B4133400AA00
 94
        0
1001
ACAD
1000
AcRTDxfName
1000
CATALOGSTATE
1000
AcRTDxfName
1000
CATALOGSTATE
1000
AcRTDxfName
1000
CATALOGSTATE
1000
AcRTDxfName
1000
CATALOGSTATE
1000
AcRTDxfName
1000
CATALOGSTATE
  0
ACAD_PROXY_OBJECT
  5
226E
102
{ACAD_REACTORS
330
C
102
}
330
C
100
AcDbProxyObject
 90
      499
 91
      535
 95
   983063
 70
     0
 93
       10
310
407F
 94
        0
1001
ACAD
1000
AcRTDxfName
1000
ASAPP
1000
AcRTDxfName
1000
ASAPP
1000
AcRTDxfName
1000
ASAPP
1000
AcRTDxfName
1000
ASAPP
1000
AcRTDxfName
1000
ASAPP
  0
ACAD_PROXY_OBJECT
  5
22A5
102
{ACAD_REACTORS
330
C
102
}
330
C
100
AcDbProxyObject
 90
      499
 91
      543
 95
   983063
 70
     0
 93
       34
310
010000407F
 94
        0
1001
ACAD
1000
AcRTDxfName
1000
ACASGREFMASTER
1000
AcRTDxfName
1000
ACASGREFMASTER
1000
AcRTDxfName
1000
ACASGREFMASTER
1000
AcRTDxfName
1000
ACASGREFMASTER
1000
AcRTDxfName
1000
ACASGREFMASTER
  0
XRECORD
  5
2FE1
102
{ACAD_REACTORS
330
C
102
}
330
C
100
AcDbXrecord
280
     1
 90
        1
330
2332
  0
DICTIONARY
  5
3C4
102
{ACAD_REACTORS
330
C
102
}
330
C
100
AcDbDictionary
281
     1
  3
CANNOSCALE
350
23B9
  3
CMLEADERSTYLE
350
23B8
  3
CTABLESTYLE
350
23B7
  3
DIMASSOC
350
23BA
  3
INDEXCTL
350
3C5
  3
SORTENTS
350
3D3
  3
XCLIPFRAME
350
2FDF
  0
ACAD_PROXY_OBJECT
  5
2248
102
{ACAD_REACTORS
330
C
102
}
330
C
100
AcDbProxyObject
 90
      499
 91
      506
 95
   983063
 70
     0
 93
      240
310
4C51A482000000000000000000000000000000000000000000000000000001
330
2249
330
224A
330
224B
330
224C
330
224D
330
224E
330
224F
330
2250
330
2254
330
2255
330
2256
330
2257
330
2258
330
2259
330
225A
330
225B
330
225C
330
225D
330
225E
330
225F
330
2260
330
2261
330
2262
330
2263
330
2264
330
2265
 94
        0
1001
ACAD
1000
AcRTDxfName
1000
ACIMSYSVARMAN
1000
AcRTDxfName
1000
ACIMSYSVARMAN
1000
AcRTDxfName
1000
ACIMSYSVARMAN
1000
AcRTDxfName
1000
ACIMSYSVARMAN
1000
AcRTDxfName
1000
ACIMSYSVARMAN
  0
ACAD_PROXY_OBJECT
  5
2242
102
{ACAD_REACTORS
330
C
102
}
330
C
100
AcDbProxyObject
 90
      499
 91
      532
 95
   983063
 70
     0
 93
       34
310
04000042BF
 94
        0
1001
ACAD
1000
AcRTDxfName
1000
ACGREFMASTER
1000
AcRTDxfName
1000
ACGREFMASTER
1000
AcRTDxfName
1000
ACGREFMASTER
1000
AcRTDxfName
1000
ACGREFMASTER
1000
AcRTDxfName
1000
ACGREFMASTER
  0
ACAD_PROXY_OBJECT
  5
226B
102
{ACAD_REACTORS
330
C
102
}
330
C
100
AcDbProxyObject
 90
      499
 91
      532
 95
   983063
 70
     0
 93
      114
310
04000041C00000000000000000003F
 94
        0
1001
ACAD
1000
AcRTDxfName
1000
ACGREFMASTER
1000
AcRTDxfName
1000
ACGREFMASTER
1000
AcRTDxfName
1000
ACGREFMASTER
1000
AcRTDxfName
1000
ACGREFMASTER
1000
AcRTDxfName
1000
ACGREFMASTER
  0
DICTIONARY
  5
3D0
102
{ACAD_REACTORS
330
C
102
}
330
C
100
AcDbDictionary
281
     1
  3
ACMBOMDATA
350
3D1
  0
ACAD_PROXY_OBJECT
  5
3CD
102
{ACAD_REACTORS
330
C
102
}
330
C
100
AcDbProxyObject
 90
      499
 91
      509
 95
   983063
 70
     0
 93
       52
310
0001004040006F
330
0
330
0
330
3CE
 94
        0
1001
ACAD
1000
AcRTDxfName
1000
ACMEDRAWINGMAN
1000
AcRTDxfName
1000
ACMEDRAWINGMAN
1000
AcRTDxfName
1000
ACMEDRAWINGMAN
1000
AcRTDxfName
1000
ACMEDRAWINGMAN
1000
AcRTDxfName
1000
ACMEDRAWINGMAN
  0
ACAD_PROXY_OBJECT
  5
3C2
102
{ACAD_REACTORS
330
C
102
}
330
C
100
AcDbProxyObject
 90
      499
 91
      503
 95
   983063
 70
     0
 93
     2496
310
47805044D4F564580504554E444F805045A4F4F4D80503554353805064D534C494445805045341564580503554353805065341564541538050B41534B5F537461727454628050E414D4454524553455444424D4F4440805084E202D20554E444F014213880B4815539113C0504554E444F80504554E444F80504554E444F80
310
504554E444F80504554E444F8050A41534B5F5442334A6F62805045A4F4F4D8050550555247458050941534B5F51534156458050551534156458050841534B5F504C4F5440405184D5347202D20436F6D6D616E642043414E43454C4C45442E01431054D2D7D511561511511255201429054D2D7D5108CD29BD8A01411693D
310
3D36014154155491D1601425054D2D7D454D05591601415454D05591601421054D2D7D41313D5201425054D2D7D454D05591601415454D05591600
 94
        0
1001
ACAD
1000
AcRTDxfName
1000
ACMECOMMANDHISTORY
1000
AcRTDxfName
1000
ACMECOMMANDHISTORY
1000
AcRTDxfName
1000
ACMECOMMANDHISTORY
1000
AcRTDxfName
1000
ACMECOMMANDHISTORY
1000
AcRTDxfName
1000
ACMECOMMANDHISTORY
  0
ACAD_PROXY_OBJECT
  5
3C1
102
{ACAD_REACTORS
330
C
102
}
330
C
100
AcDbProxyObject
 90
      499
 91
      502
 95
   983063
 70
     0
 93
     1082
310
04000043C00000000000000000001726820000000000000000000000000000000000000000000000000000000000000000000000000000000000000000000000000000000000000000000000000000000000000000000000000000000000000000000000000000000000000000000000000000000000000000000000000000
310
00000000AAA406AABF
360
3C7
360
3C8
360
3C9
360
3CE
360
2243
360
2244
360
2245
360
2246
360
2249
360
224A
360
224B
360
224C
360
224D
360
224E
360
224F
360
2250
360
2254
360
2255
360
2256
360
2257
360
2258
360
2259
360
225A
360
225B
360
225C
360
225D
360
225E
360
225F
360
2260
360
2261
360
2262
360
2263
360
2264
360
2265
360
2271
360
2272
360
2273
360
2274
360
2275
360
2276
360
2277
360
2278
360
2279
360
227A
360
227B
360
227C
360
227D
360
227E
360
227F
360
2280
360
2281
360
2282
360
2283
360
2284
360
2285
360
2286
360
2287
360
2288
360
2289
360
228A
360
228B
360
228C
360
228D
360
228E
360
228F
360
2290
360
2291
360
2292
360
2293
360
2294
360
2295
360
2296
360
2297
360
2298
360
2299
360
229A
360
229B
360
229C
360
229D
360
229E
360
229F
360
22A9
360
22AA
360
22AB
360
22AC
360
22AE
360
22AF
360
22B0
360
22B1
360
22B2
360
22B3
360
22B4
360
22B5
360
22B6
360
22B7
360
22B8
360
22B9
360
22BA
360
22BC
360
22BE
360
22C1
360
22C2
360
22C3
360
22C4
360
22C5
360
22C6
360
22C7
360
22C8
360
22CD
360
22CE
360
22CF
360
22D0
360
22D1
360
22D2
 94
        0
1001
ACAD
1000
AcRTDxfName
1000
ACMESCOPE
1000
AcRTDxfName
1000
ACMESCOPE
1000
AcRTDxfName
1000
ACMESCOPE
1000
AcRTDxfName
1000
ACMESCOPE
1000
AcRTDxfName
1000
ACMESCOPE
  0
ACAD_PROXY_OBJECT
  5
3C0
102
{ACAD_REACTORS
330
C
102
}
330
C
100
AcDbProxyObject
 90
      499
 91
      501
 95
   983063
 70
     0
 93
       50
310
04000040E412BF
 94
        0
1001
ACAD
1000
AcRTDxfName
1000
ACMESTATEMGR
1000
AcRTDxfName
1000
ACMESTATEMGR
1000
AcRTDxfName
1000
ACMESTATEMGR
1000
AcRTDxfName
1000
ACMESTATEMGR
1000
AcRTDxfName
1000
ACMESTATEMGR
  0
ACAD_PROXY_OBJECT
  5
3C6
102
{ACAD_REACTORS
330
C
102
}
330
C
100
AcDbProxyObject
 90
      499
 91
      506
 95
   983063
 70
     0
 93
       48
310
90341200000085
330
3C7
330
3C8
330
3C9
 94
        0
1001
ACAD
1000
AcRTDxfName
1000
ACIMSYSVARMAN
1000
AcRTDxfName
1000
ACIMSYSVARMAN
1000
AcRTDxfName
1000
ACIMSYSVARMAN
1000
AcRTDxfName
1000
ACIMSYSVARMAN
1000
AcRTDxfName
1000
ACIMSYSVARMAN
  0
ACAD_PROXY_OBJECT
  5
22BB
102
{ACAD_REACTORS
330
C
102
}
330
C
100
AcDbProxyObject
 90
      499
 91
      551
 95
   983063
 70
     0
 93
       42
310
00040000453F
330
22A9
 94
        0
1001
ACAD
1000
AcRTDxfName
1000
NAMEDAPPL
1000
AcRTDxfName
1000
NAMEDAPPL
1000
AcRTDxfName
1000
NAMEDAPPL
1000
AcRTDxfName
1000
NAMEDAPPL
1000
AcRTDxfName
1000
NAMEDAPPL
  0
ACAD_PROXY_OBJECT
  5
22A3
102
{ACAD_REACTORS
330
C
102
}
330
C
100
AcDbProxyObject
 90
      499
 91
      541
 95
   983063
 70
     0
 93
      114
310
00000043800000000000000000003F
 94
        0
1001
ACAD
1000
AcRTDxfName
1000
ACADGREFMODULE
1000
AcRTDxfName
1000
ACADGREFMODULE
1000
AcRTDxfName
1000
ACADGREFMODULE
1000
AcRTDxfName
1000
ACADGREFMODULE
1000
AcRTDxfName
1000
ACADGREFMODULE
  0
ACAD_PROXY_OBJECT
  5
22BD
102
{ACAD_REACTORS
330
C
102
}
330
C
100
AcDbProxyObject
 90
      499
 91
      553
 95
   983063
 70
     0
 93
        8
310
0000
330
22BC
 94
        0
1001
ACAD
1000
AcRTDxfName
1000
AM_HNTEMPLATE_MGR_NAME
1000
AcRTDxfName
1000
AM_HNTEMPLATE_MGR_NAME
1000
AcRTDxfName
1000
AM_HNTEMPLATE_MGR_NAME
1000
AcRTDxfName
1000
AM_HNTEMPLATE_MGR_NAME
1000
AcRTDxfName
1000
AM_HNTEMPLATE_MGR_NAME
  0
ACAD_PROXY_OBJECT
  5
22D4
102
{ACAD_REACTORS
330
C
102
}
330
C
100
AcDbProxyObject
 90
      499
 91
      562
 95
   983063
 70
     0
 93
       34
310
040000447F
 94
        0
1001
ACAD
1000
AcRTDxfName
1000
MAPIADMODULE
1000
AcRTDxfName
1000
MAPIADMODULE
1000
AcRTDxfName
1000
MAPIADMODULE
1000
AcRTDxfName
1000
MAPIADMODULE
1000
AcRTDxfName
1000
MAPIADMODULE
  0
ACAD_PROXY_OBJECT
  5
22AD
102
{ACAD_REACTORS
330
C
102
}
330
C
100
AcDbProxyObject
 90
      499
 91
      506
 95
   983063
 70
     0
 93
      136
310
90E442000000000000000000000000000000
330
22AE
330
22AF
330
22B0
330
22B1
330
22B2
330
22B3
330
22B4
330
22B5
330
22B6
330
22B7
330
22B8
330
22B9
330
22BA
330
22BE
 94
        0
1001
ACAD
1000
AcRTDxfName
1000
ACIMSYSVARMAN
1000
AcRTDxfName
1000
ACIMSYSVARMAN
1000
AcRTDxfName
1000
ACIMSYSVARMAN
1000
AcRTDxfName
1000
ACIMSYSVARMAN
1000
AcRTDxfName
1000
ACIMSYSVARMAN
  0
DICTIONARY
  5
23CF
102
{ACAD_REACTORS
330
C
102
}
330
C
100
AcDbDictionary
281
     1
  0
ACAD_PROXY_OBJECT
  5
2266
102
{ACAD_REACTORS
330
C
102
}
330
C
100
AcDbProxyObject
 90
      499
 91
      530
 95
   983063
 70
     0
 93
       42
310
000100004FFF
330
2243
 94
        0
1001
ACAD
1000
AcRTDxfName
1000
AM_DWGMGR_NAME
1000
AcRTDxfName
1000
AM_DWGMGR_NAME
1000
AcRTDxfName
1000
AM_DWGMGR_NAME
1000
AcRTDxfName
1000
AM_DWGMGR_NAME
1000
AcRTDxfName
1000
AM_DWGMGR_NAME
  0
DICTIONARY
  5
2237
102
{ACAD_REACTORS
330
C
102
}
330
C
100
AcDbDictionary
281
     1
  3
AcMgSettings
350
2238
  3
AMGLAYCFG
350
22DE
  0
DICTIONARY
  5
22EC
102
{ACAD_REACTORS
330
C
102
}
330
C
100
AcDbDictionary
281
     1
  3
DIMENSION
350
22F1
  3
FEA
350
22F0
  3
HATCH (1)
350
22ED
  3
HATCH (2)
350
22EE
  3
SYMBOLS
350
22EF
  0
ACAD_PROXY_OBJECT
  5
22A4
102
{ACAD_REACTORS
330
C
102
}
330
C
100
AcDbProxyObject
 90
      499
 91
      542
 95
   983063
 70
     0
 93
       34
310
04000041BF
 94
        0
1001
ACAD
1000
AcRTDxfName
1000
AMIMASTER
1000
AcRTDxfName
1000
AMIMASTER
1000
AcRTDxfName
1000
AMIMASTER
1000
AcRTDxfName
1000
AMIMASTER
1000
AcRTDxfName
1000
AMIMASTER
  0
DICTIONARY
  5
B3C
102
{ACAD_REACTORS
330
C
102
}
330
C
100
AcDbDictionary
281
     1
  3
ASK_SUMMARY
350
2FDE
  3
ASKCURSC
350
B3D
  3
ASKOBJVIS
350
E23
  0
ACAD_PROXY_OBJECT
  5
226F
102
{ACAD_REACTORS
330
C
102
}
330
C
100
AcDbProxyObject
 90
      499
 91
      536
 95
   983063
 70
     0
 93
      272
310
4C51E48200000000000000000000000000000000000000000000000000000000000000
330
2282
330
2283
330
2284
330
2285
330
2286
330
2287
330
2288
330
2289
330
228A
330
228B
330
228C
330
228D
330
228E
330
228F
330
2290
330
2291
330
2292
330
2293
330
2294
330
2295
330
2296
330
2297
330
2298
330
2299
330
229A
330
229B
330
229C
330
229D
330
229E
330
229F
 94
        0
1001
ACAD
1000
AcRTDxfName
1000
IM_STATIC_MAN
1000
AcRTDxfName
1000
IM_STATIC_MAN
1000
AcRTDxfName
1000
IM_STATIC_MAN
1000
AcRTDxfName
1000
IM_STATIC_MAN
1000
AcRTDxfName
1000
IM_STATIC_MAN
  0
ACAD_PROXY_OBJECT
  5
22C9
102
{ACAD_REACTORS
330
C
102
}
330
C
100
AcDbProxyObject
 90
      499
 91
      555
 95
   983063
 70
     0
 93
       74
310
0400004840000000003F
330
22D0
330
0
330
22D1
330
0
330
0
 94
        0
1001
ACAD
1000
AcRTDxfName
1000
ACAMPROJECT
1000
AcRTDxfName
1000
ACAMPROJECT
1000
AcRTDxfName
1000
ACAMPROJECT
1000
AcRTDxfName
1000
ACAMPROJECT
1000
AcRTDxfName
1000
ACAMPROJECT
  0
ACAD_PROXY_OBJECT
  5
2270
102
{ACAD_REACTORS
330
C
102
}
330
C
100
AcDbProxyObject
 90
      499
 91
      506
 95
   983063
 70
     0
 93
      168
310
4C511482000000000000000000000000000000000000
330
2271
330
2272
330
2273
330
2274
330
2275
330
2276
330
2277
330
2278
330
2279
330
227A
330
227B
330
227C
330
227D
330
227E
330
227F
330
2280
330
2281
 94
        0
1001
ACAD
1000
AcRTDxfName
1000
ACIMSYSVARMAN
1000
AcRTDxfName
1000
ACIMSYSVARMAN
1000
AcRTDxfName
1000
ACIMSYSVARMAN
1000
AcRTDxfName
1000
ACIMSYSVARMAN
1000
AcRTDxfName
1000
ACIMSYSVARMAN
  0
ACAD_PROXY_OBJECT
  5
22C0
102
{ACAD_REACTORS
330
C
102
}
330
C
100
AcDbProxyObject
 90
      499
 91
      506
 95
   983063
 70
     0
 93
       88
310
908422000000000000000000
330
22C1
330
22C2
330
22C3
330
22C4
330
22C5
330
22C6
330
22C7
330
22C8
 94
        0
1001
ACAD
1000
AcRTDxfName
1000
ACIMSYSVARMAN
1000
AcRTDxfName
1000
ACIMSYSVARMAN
1000
AcRTDxfName
1000
ACIMSYSVARMAN
1000
AcRTDxfName
1000
ACIMSYSVARMAN
1000
AcRTDxfName
1000
ACIMSYSVARMAN
  0
XRECORD
  5
2FE2
102
{ACAD_REACTORS
330
C
102
}
330
C
100
AcDbXrecord
280
     1
  1
DWGPROPS COOKIE
  2

  3

  4

  6

  7

  8
CAD06
  9

300
AmdtFileType=84
301
=
302
=
303
=
304
=
305
=
306
=
307
=
308
=
309
=
 40
0.391665636574074
 41
2451696.627293252
 42
2457329.467550868
  1

 90
        1
  0
ACAD_PROXY_OBJECT
  5
22A6
102
{ACAD_REACTORS
330
C
102
}
330
C
100
AcDbProxyObject
 90
      499
 91
      544
 95
   983063
 70
     0
 93
        8
310
0243
 94
        0
1001
ACAD
1000
AcRTDxfName
1000
MAPIAMMOUDLE
1000
AcRTDxfName
1000
MAPIAMMOUDLE
1000
AcRTDxfName
1000
MAPIAMMOUDLE
1000
AcRTDxfName
1000
MAPIAMMOUDLE
1000
AcRTDxfName
1000
MAPIAMMOUDLE
  0
XRECORD
  5
234F
102
{ACAD_REACTORS
330
234E
102
}
330
234E
100
AcDbXrecord
280
     1
290
     1
  0
XRECORD
  5
2351
102
{ACAD_REACTORS
330
2350
102
}
330
2350
100
AcDbXrecord
280
     1
290
     1
  0
XRECORD
  5
2353
102
{ACAD_REACTORS
330
2352
102
}
330
2352
100
AcDbXrecord
280
     1
290
     1
  0
XRECORD
  5
2355
102
{ACAD_REACTORS
330
2354
102
}
330
2354
100
AcDbXrecord
280
     1
290
     1
  0
XRECORD
  5
2357
102
{ACAD_REACTORS
330
2356
102
}
330
2356
100
AcDbXrecord
280
     1
290
     1
  0
DICTIONARY
  5
2E42
102
{ACAD_REACTORS
330
53B
102
}
330
53B
100
AcDbDictionary
281
     1
  3
*A1
350
2E43
  0
SORTENTSTABLE
  5
2409
102
{ACAD_REACTORS
330
2408
102
}
330
2408
100
AcDbSortentsTable
330
2407
  0
LAYOUT
  5
5DE
102
{ACAD_XDICTIONARY
360
2FE3
102
}
102
{ACAD_REACTORS
330
5DC
102
}
330
5DC
100
AcDbPlotSettings
  1

  2
FinePrint pdfFactoryA3.pc3
  4
A3
  6
V0
 40
5.87375
 41
5.873747999999999
 42
5.873778999999999
 43
5.873749
 44
420.0313419999999
 45
297.010651
 46
4.639999999999999
 47
1.56
 48
52.5
 49
37.125
140
2047.5
141
1447.875
142
1.0
143
5.0
 70
 11940
 72
     1
 73
     0
 74
     4
  7
モノクロ.ctb
 75
     0
147
0.2
148
-52.5
149
-37.125
100
AcDbLayout
  1
Model
 70
     1
 71
     0
 10
0.0
 20
0.0
 11
12.0
 21
9.0
 12
0.0
 22
0.0
 32
0.0
 14
0.0
 24
0.0
 34
0.0
 15
0.0
 25
0.0
 35
0.0
146
0.0
 13
0.0
 23
0.0
 33
0.0
 16
1.0
 26
0.0
 36
0.0
 17
0.0
 27
1.0
 37
0.0
 76
     0
330
18
331
22FC
  0
LAYOUT
  5
5DF
102
{ACAD_XDICTIONARY
360
2FE5
102
}
102
{ACAD_REACTORS
330
5DC
102
}
330
5DC
100
AcDbPlotSettings
  1

  2
EPSON LP-8200
  4

  6

 40
0.0
 41
0.0
 42
0.0
 43
0.0
 44
0.0
 45
0.0
 46
0.0
 47
0.0
 48
0.0
 49
0.0
140
0.0
141
0.0
142
1.0
143
1.0
 70
   688
 72
     0
 73
     0
 74
     5
  7
モノクロ.ctb
 75
    16
147
1.0
148
0.0
149
0.0
100
AcDbLayout
  1
ﾚｲｱｳﾄ1
 70
     0
 71
     1
 10
0.0
 20
0.0
 11
12.0
 21
9.0
 12
0.0
 22
0.0
 32
0.0
 14
1.000000000000000E+20
 24
1.000000000000000E+20
 34
1.000000000000000E+20
 15
-1.000000000000000E+20
 25
-1.000000000000000E+20
 35
-1.000000000000000E+20
146
0.0
 13
0.0
 23
0.0
 33
0.0
 16
1.0
 26
0.0
 36
0.0
 17
0.0
 27
1.0
 37
0.0
 76
     0
330
15
  0
MATERIAL
  5
2307
102
{ACAD_XDICTIONARY
360
2308
102
}
102
{ACAD_REACTORS
330
22FE
102
}
330
22FE
100
AcDbMaterial
  1
ByBlock
 72
     0
 43
0.0208333333333333
 43
0.0
 43
0.0
 43
0.0
 43
0.0
 43
0.0208333333333333
 43
0.0
 43
0.0
 43
0.0
 43
0.0
 43
1.0
 43
0.0
 43
0.0
 43
0.0
 43
0.0
 43
1.0
 77
     0
 47
0.0208333333333333
 47
0.0
 47
0.0
 47
0.0
 47
0.0
 47
0.0208333333333333
 47
0.0
 47
0.0
 47
0.0
 47
0.0
 47
1.0
 47
0.0
 47
0.0
 47
0.0
 47
0.0
 47
1.0
171
     0
 49
0.0208333333333333
 49
0.0
 49
0.0
 49
0.0
 49
0.0
 49
0.0208333333333333
 49
0.0
 49
0.0
 49
0.0
 49
0.0
 49
1.0
 49
0.0
 49
0.0
 49
0.0
 49
0.0
 49
1.0
175
     0
142
0.0208333333333333
142
0.0
142
0.0
142
0.0
142
0.0
142
0.0208333333333333
142
0.0
142
0.0
142
0.0
142
0.0
142
1.0
142
0.0
142
0.0
142
0.0
142
0.0
142
1.0
179
     0
144
0.0208333333333333
144
0.0
144
0.0
144
0.0
144
0.0
144
0.0208333333333333
144
0.0
144
0.0
144
0.0
144
0.0
144
1.0
144
0.0
144
0.0
144
0.0
144
0.0
144
1.0
147
0.0208333333333333
147
0.0
147
0.0
147
0.0
147
0.0
147
0.0208333333333333
147
0.0
147
0.0
147
0.0
147
0.0
147
1.0
147
0.0
147
0.0
147
0.0
147
0.0
147
1.0
  0
MATERIAL
  5
22FF
102
{ACAD_XDICTIONARY
360
2300
102
}
102
{ACAD_REACTORS
330
22FE
102
}
330
22FE
100
AcDbMaterial
  1
ByLayer
 72
     0
 43
0.0208333333333333
 43
0.0
 43
0.0
 43
0.0
 43
0.0
 43
0.0208333333333333
 43
0.0
 43
0.0
 43
0.0
 43
0.0
 43
1.0
 43
0.0
 43
0.0
 43
0.0
 43
0.0
 43
1.0
 77
     0
 47
0.0208333333333333
 47
0.0
 47
0.0
 47
0.0
 47
0.0
 47
0.0208333333333333
 47
0.0
 47
0.0
 47
0.0
 47
0.0
 47
1.0
 47
0.0
 47
0.0
 47
0.0
 47
0.0
 47
1.0
171
     0
 49
0.0208333333333333
 49
0.0
 49
0.0
 49
0.0
 49
0.0
 49
0.0208333333333333
 49
0.0
 49
0.0
 49
0.0
 49
0.0
 49
1.0
 49
0.0
 49
0.0
 49
0.0
 49
0.0
 49
1.0
175
     0
142
0.0208333333333333
142
0.0
142
0.0
142
0.0
142
0.0
142
0.0208333333333333
142
0.0
142
0.0
142
0.0
142
0.0
142
1.0
142
0.0
142
0.0
142
0.0
142
0.0
142
1.0
179
     0
144
0.0208333333333333
144
0.0
144
0.0
144
0.0
144
0.0
144
0.0208333333333333
144
0.0
144
0.0
144
0.0
144
0.0
144
1.0
144
0.0
144
0.0
144
0.0
144
0.0
144
1.0
147
0.0208333333333333
147
0.0
147
0.0
147
0.0
147
0.0
147
0.0208333333333333
147
0.0
147
0.0
147
0.0
147
0.0
147
1.0
147
0.0
147
0.0
147
0.0
147
0.0
147
1.0
  0
MATERIAL
  5
230F
102
{ACAD_XDICTIONARY
360
2310
102
}
102
{ACAD_REACTORS
330
22FE
102
}
330
22FE
100
AcDbMaterial
  1
Global
 72
     0
 43
0.0208333333333333
 43
0.0
 43
0.0
 43
0.0
 43
0.0
 43
0.0208333333333333
 43
0.0
 43
0.0
 43
0.0
 43
0.0
 43
1.0
 43
0.0
 43
0.0
 43
0.0
 43
0.0
 43
1.0
 77
     0
 47
0.0208333333333333
 47
0.0
 47
0.0
 47
0.0
 47
0.0
 47
0.0208333333333333
 47
0.0
 47
0.0
 47
0.0
 47
0.0
 47
1.0
 47
0.0
 47
0.0
 47
0.0
 47
0.0
 47
1.0
171
     0
 49
0.0208333333333333
 49
0.0
 49
0.0
 49
0.0
 49
0.0
 49
0.0208333333333333
 49
0.0
 49
0.0
 49
0.0
 49
0.0
 49
1.0
 49
0.0
 49
0.0
 49
0.0
 49
0.0
 49
1.0
175
     0
142
0.0208333333333333
142
0.0
142
0.0
142
0.0
142
0.0
142
0.0208333333333333
142
0.0
142
0.0
142
0.0
142
0.0
142
1.0
142
0.0
142
0.0
142
0.0
142
0.0
142
1.0
179
     0
144
0.0208333333333333
144
0.0
144
0.0
144
0.0
144
0.0
144
0.0208333333333333
144
0.0
144
0.0
144
0.0
144
0.0
144
1.0
144
0.0
144
0.0
144
0.0
144
0.0
144
1.0
147
0.0208333333333333
147
0.0
147
0.0
147
0.0
147
0.0
147
0.0208333333333333
147
0.0
147
0.0
147
0.0
147
0.0
147
1.0
147
0.0
147
0.0
147
0.0
147
0.0
147
1.0
  0
MLEADERSTYLE
  5
2346
102
{ACAD_REACTORS
330
2345
102
}
330
2345
100
AcDbMLeaderStyle
170
     2
171
     1
172
     0
 90
        2
 40
0.0
 41
0.0
173
     1
 91
-1056964608
340
12
 92
       -2
290
     1
 42
0.09
291
     1
 43
0.36
  3
Standard
 44
0.18
300

342
10
174
     1
178
     6
175
     1
176
     0
 93
-1056964608
 45
0.18
292
     0
297
     0
 46
0.18
 94
-1056964608
 47
1.0
 49
1.0
140
1.0
293
     1
141
0.0
294
     1
177
     0
142
1.0
295
     0
296
     0
143
0.125
1001
ACAD_MLEADERVER
1070
     2
  0
MLINESTYLE
  5
1B
102
{ACAD_REACTORS
330
E
102
}
330
E
100
AcDbMlineStyle
  2
STANDARD
 70
     0
  3

 62
     0
 51
90.0
 52
90.0
 71
     2
 49
0.5
 62
   256
  6
BYLAYER
 49
-0.5
 62
   256
  6
BYLAYER
  0
PLOTSETTINGS
  5
5FF
102
{ACAD_XDICTIONARY
360
2FE7
102
}
102
{ACAD_REACTORS
330
5DD
102
}
330
5DD
100
AcDbPlotSettings
  1
DJ750C(A1)カラー
  2
HP DesignJet 750C (C3195A)
  4
User267
  6
V0
 40
4.995333194732666
 41
16.93330574035644
 42
4.99530029296875
 43
16.933349609375
 44
593.9366455078125
 45
840.8246459960937
 46
0.0
 47
0.0
 48
0.0
 49
0.0
140
0.0
141
0.0
142
1.0
143
1.0
 70
  1712
 72
     1
 73
     1
 74
     2
  7
カラー.ctb
 75
    16
147
1.0
148
0.0
149
0.0
  0
PLOTSETTINGS
  5
600
102
{ACAD_XDICTIONARY
360
2FE9
102
}
102
{ACAD_REACTORS
330
5DD
102
}
330
5DD
100
AcDbPlotSettings
  1
DJ750C(A1)モノクロ
  2
HP DesignJet 750C (C3195A)
  4
User267
  6
V0
 40
4.995333194732666
 41
16.93330574035644
 42
4.99530029296875
 43
16.933349609375
 44
593.9366455078125
 45
840.8246459960937
 46
0.0
 47
0.0
 48
0.0
 49
0.0
140
0.0
141
0.0
142
1.0
143
1.0
 70
  1712
 72
     1
 73
     1
 74
     2
  7
モノクロ.ctb
 75
    16
147
1.0
148
0.0
149
0.0
  0
PLOTSETTINGS
  5
601
102
{ACAD_XDICTIONARY
360
2FEB
102
}
102
{ACAD_REACTORS
330
5DD
102
}
330
5DD
100
AcDbPlotSettings
  1
DJ750C(A2)カラー
  2
HP DesignJet 750C (C3195A)
  4
User1290
  6
V0
 40
4.995333194732666
 41
16.93333625793457
 42
4.99530029296875
 43
16.93331909179687
 44
593.9366455078125
 45
419.8619995117187
 46
0.0
 47
0.0
 48
0.0
 49
0.0
140
0.0
141
0.0
142
1.0
143
1.0
 70
  1712
 72
     1
 73
     0
 74
     2
  7
カラー.ctb
 75
    16
147
1.0
148
0.0
149
0.0
  0
PLOTSETTINGS
  5
602
102
{ACAD_XDICTIONARY
360
2FED
102
}
102
{ACAD_REACTORS
330
5DD
102
}
330
5DD
100
AcDbPlotSettings
  1
DJ750C(A2)モノクロ
  2
HP DesignJet 750C (C3195A)
  4
User1290
  6
V0
 40
4.995333194732666
 41
16.93333625793457
 42
4.99530029296875
 43
16.93331909179687
 44
593.9366455078125
 45
419.8619995117187
 46
0.0
 47
0.0
 48
0.0
 49
0.0
140
0.0
141
0.0
142
1.0
143
1.0
 70
  1712
 72
     1
 73
     0
 74
     2
  7
モノクロ.ctb
 75
    16
147
1.0
148
0.0
149
0.0
  0
PLOTSETTINGS
  5
F00
102
{ACAD_XDICTIONARY
360
2FF3
102
}
102
{ACAD_REACTORS
330
5DD
102
}
330
5DD
100
AcDbPlotSettings
  1
LP8200(A3)
  2
EPSON LP-8200.pc3
  4
A3
  6
V0
 40
5.873749732971191
 41
5.873747825622558
 42
5.873748779296875
 43
5.873748779296875
 44
419.9466552734374
 45
297.0106506347656
 46
0.0
 47
0.0
 48
0.0
 49
0.0
140
0.0
141
0.0
142
1.0
143
1.0
 70
  1712
 72
     1
 73
     0
 74
     2
  7
モノクロ.ctb
 75
    16
147
1.0
148
0.0
149
0.0
  0
PLOTSETTINGS
  5
604
102
{ACAD_XDICTIONARY
360
2FEF
102
}
102
{ACAD_REACTORS
330
5DD
102
}
330
5DD
100
AcDbPlotSettings
  1
NEC(A3)
  2
NEC PICTY4000 Printer
  4
A3
  6
V0
 40
5.873749732971191
 41
13.7477388381958
 42
5.450408935546875
 43
3.757080078125
 44
296.9259948730469
 45
419.9466552734374
 46
0.0
 47
0.0
 48
0.0
 49
0.0
140
0.0
141
0.0
142
1.0
143
1.0
 70
  1712
 72
     1
 73
     1
 74
     2
  7
カラー.ctb
 75
    16
147
1.0
148
0.0
149
0.0
  0
PLOTSETTINGS
  5
605
102
{ACAD_XDICTIONARY
360
2FF1
102
}
102
{ACAD_REACTORS
330
5DD
102
}
330
5DD
100
AcDbPlotSettings
  1
NEC(A4)
  2
NEC PICTY4000 Printer
  4
A4
  6
V0
 40
4.180416584014892
 41
13.7477388381958
 42
4.180404663085937
 43
3.757080078125
 44
209.9733276367187
 45
296.9259948730469
 46
0.0
 47
0.0
 48
0.0
 49
0.0
140
0.0
141
0.0
142
1.0
143
1.0
 70
  1712
 72
     1
 73
     1
 74
     2
  7
カラー.ctb
 75
    16
147
1.0
148
0.0
149
0.0
  0
ACDBPLACEHOLDER
  5
5DB
102
{ACAD_REACTORS
330
5DA
102
}
330
5DA
  0
SCALE
  5
2334
102
{ACAD_REACTORS
330
2333
102
}
330
2333
100
AcDbScale
 70
     0
300
1:1
140
1.0
141
1.0
290
     1
  0
SCALE
  5
2335
102
{ACAD_REACTORS
330
2333
102
}
330
2333
100
AcDbScale
 70
     0
300
1/128" = 1'-0"
140
0.0078125
141
12.0
290
     0
  0
SCALE
  5
2336
102
{ACAD_REACTORS
330
2333
102
}
330
2333
100
AcDbScale
 70
     0
300
1/64" = 1'-0"
140
0.015625
141
12.0
290
     0
  0
SCALE
  5
2337
102
{ACAD_REACTORS
330
2333
102
}
330
2333
100
AcDbScale
 70
     0
300
1/32" = 1'-0"
140
0.03125
141
12.0
290
     0
  0
SCALE
  5
2338
102
{ACAD_REACTORS
330
2333
102
}
330
2333
100
AcDbScale
 70
     0
300
1/16" = 1'-0"
140
0.0625
141
12.0
290
     0
  0
SCALE
  5
2339
102
{ACAD_REACTORS
330
2333
102
}
330
2333
100
AcDbScale
 70
     0
300
3/32" = 1'-0"
140
0.09375
141
12.0
290
     0
  0
SCALE
  5
233A
102
{ACAD_REACTORS
330
2333
102
}
330
2333
100
AcDbScale
 70
     0
300
1/8" = 1'-0"
140
0.125
141
12.0
290
     0
  0
SCALE
  5
233B
102
{ACAD_REACTORS
330
2333
102
}
330
2333
100
AcDbScale
 70
     0
300
3/16" = 1'-0"
140
0.1875
141
12.0
290
     0
  0
SCALE
  5
233C
102
{ACAD_REACTORS
330
2333
102
}
330
2333
100
AcDbScale
 70
     0
300
1/4" = 1'-0"
140
0.25
141
12.0
290
     0
  0
SCALE
  5
233D
102
{ACAD_REACTORS
330
2333
102
}
330
2333
100
AcDbScale
 70
     0
300
3/8" = 1'-0"
140
0.375
141
12.0
290
     0
  0
SCALE
  5
233E
102
{ACAD_REACTORS
330
2333
102
}
330
2333
100
AcDbScale
 70
     0
300
1/2" = 1'-0"
140
0.5
141
12.0
290
     0
  0
SCALE
  5
233F
102
{ACAD_REACTORS
330
2333
102
}
330
2333
100
AcDbScale
 70
     0
300
3/4" = 1'-0"
140
0.75
141
12.0
290
     0
  0
SCALE
  5
2340
102
{ACAD_REACTORS
330
2333
102
}
330
2333
100
AcDbScale
 70
     0
300
1" = 1'-0"
140
1.0
141
12.0
290
     0
  0
SCALE
  5
2341
102
{ACAD_REACTORS
330
2333
102
}
330
2333
100
AcDbScale
 70
     0
300
1-1/2" = 1'-0"
140
1.5
141
12.0
290
     0
  0
SCALE
  5
2342
102
{ACAD_REACTORS
330
2333
102
}
330
2333
100
AcDbScale
 70
     0
300
3" = 1'-0"
140
3.0
141
12.0
290
     0
  0
SCALE
  5
2343
102
{ACAD_REACTORS
330
2333
102
}
330
2333
100
AcDbScale
 70
     0
300
6" = 1'-0"
140
6.0
141
12.0
290
     0
  0
SCALE
  5
2344
102
{ACAD_REACTORS
330
2333
102
}
330
2333
100
AcDbScale
 70
     0
300
1'-0" = 1'-0"
140
12.0
141
12.0
290
     0
  0
TABLESTYLE
  5
2332
102
{ACAD_XDICTIONARY
360
2368
102
}
102
{ACAD_REACTORS
330
2331
102
}
330
2331
100
AcDbTableStyle
  3
Standard
 70
     0
 71
     0
 40
0.06
 41
0.06
280
     0
281
     0
  7
STANDARD
140
0.18
170
     2
 62
     0
 63
     7
283
     0
274
    -2
284
     1
 64
     0
275
    -2
285
     1
 65
     0
276
    -2
286
     1
 66
     0
277
    -2
287
     1
 67
     0
278
    -2
288
     1
 68
     0
279
    -2
289
     1
 69
     0
  7
STANDARD
140
0.25
170
     5
 62
     0
 63
     7
283
     0
274
    -2
284
     1
 64
     0
275
    -2
285
     1
 65
     0
276
    -2
286
     1
 66
     0
277
    -2
287
     1
 67
     0
278
    -2
288
     1
 68
     0
279
    -2
289
     1
 69
     0
  7
STANDARD
140
0.18
170
     5
 62
     0
 63
     7
283
     0
274
    -2
284
     1
 64
     0
275
    -2
285
     1
 65
     0
276
    -2
286
     1
 66
     0
277
    -2
287
     1
 67
     0
278
    -2
288
     1
 68
     0
279
    -2
289
     1
 69
     0
  0
VISUALSTYLE
  5
231D
102
{ACAD_XDICTIONARY
360
3002
102
}
102
{ACAD_REACTORS
330
2317
102
}
330
2317
100
AcDbVisualStyle
  2
2dWireframe
 70
     4
 71
     0
 72
     2
 73
     0
 90
        0
 40
-0.6
 41
-30.0
 62
     5
 63
     7
 74
     1
 91
        4
 64
     7
 65
   257
 75
     1
175
     1
 42
1.0
 92
        0
 66
   257
 43
1.0
 76
     1
 77
     6
 78
     2
 67
     7
 79
     5
170
     0
171
     0
290
     0
174
     0
 93
        1
 44
0.0
173
     0
291
     0
 45
0.0
1001
ACAD
1000
AcDbSavedByObjectVersion
1070
     0
  0
VISUALSTYLE
  5
231C
102
{ACAD_XDICTIONARY
360
3000
102
}
102
{ACAD_REACTORS
330
2317
102
}
330
2317
100
AcDbVisualStyle
  2
Basic
 70
     7
 71
     1
 72
     0
 73
     1
 90
        0
 40
-0.6
 41
-30.0
 62
     5
 63
     7
 74
     0
 91
        4
 64
     7
 65
   257
 75
     1
175
     1
 42
1.0
 92
        8
 66
     7
 43
1.0
 76
     1
 77
     6
 78
     2
 67
     7
 79
     5
170
     0
171
     0
290
     0
174
     0
 93
        1
 44
0.0
173
     0
291
     1
 45
0.0
1001
ACAD
1000
AcDbSavedByObjectVersion
1070
     0
  0
VISUALSTYLE
  5
2323
102
{ACAD_XDICTIONARY
360
300E
102
}
102
{ACAD_REACTORS
330
2317
102
}
330
2317
100
AcDbVisualStyle
  2
Brighten
 70
    12
 71
     2
 72
     2
 73
     0
 90
        0
 40
-0.6
 41
-30.0
 62
     5
 63
     7
 74
     1
 91
        4
 64
     7
 65
   257
 75
     1
175
     1
 42
1.0
 92
        8
 66
     7
 43
1.0
 76
     1
 77
     6
 78
     2
 67
     7
 79
     5
170
     0
171
     0
290
     0
174
     0
 93
        1
 44
50.0
173
     0
291
     1
 45
0.0
1001
ACAD
1000
AcDbSavedByObjectVersion
1070
     0
  0
VISUALSTYLE
  5
2327
102
{ACAD_XDICTIONARY
360
3016
102
}
102
{ACAD_REACTORS
330
2317
102
}
330
2317
100
AcDbVisualStyle
  2
ColorChange
 70
    16
 71
     2
 72
     2
 73
     3
 90
        0
 40
-0.6
 41
-30.0
 62
     5
 63
     8
 74
     1
 91
        4
 64
     7
 65
   257
 75
     1
175
     1
 42
1.0
 92
        8
 66
     8
 43
1.0
 76
     1
 77
     6
 78
     2
 67
     7
 79
     5
170
     0
171
     0
290
     0
174
     0
 93
        1
 44
0.0
173
     0
291
     1
 45
0.0
1001
ACAD
1000
AcDbSavedByObjectVersion
1070
     0
  0
VISUALSTYLE
  5
2320
102
{ACAD_XDICTIONARY
360
3008
102
}
102
{ACAD_REACTORS
330
2317
102
}
330
2317
100
AcDbVisualStyle
  2
Conceptual
 70
     9
 71
     3
 72
     2
 73
     0
 90
        0
 40
-0.6
 41
-30.0
 62
     5
 63
     7
 74
     2
 91
        2
 64
     7
 65
   257
 75
     1
175
     1
 42
179.0
 92
        8
 66
     7
 43
1.0
 76
     1
 77
     6
 78
     2
 67
     7
 79
     3
170
     0
171
     0
290
     0
174
     0
 93
        1
 44
0.0
173
     0
291
     0
 45
0.0
1001
ACAD
1000
AcDbSavedByObjectVersion
1070
     0
  0
VISUALSTYLE
  5
2322
102
{ACAD_XDICTIONARY
360
300C
102
}
102
{ACAD_REACTORS
330
2317
102
}
330
2317
100
AcDbVisualStyle
  2
Dim
 70
    11
 71
     2
 72
     2
 73
     0
 90
        0
 40
-0.6
 41
-30.0
 62
     5
 63
     7
 74
     1
 91
        4
 64
     7
 65
   257
 75
     1
175
     1
 42
1.0
 92
        8
 66
     7
 43
1.0
 76
     1
 77
     6
 78
     2
 67
     7
 79
     5
170
     0
171
     0
290
     0
174
     0
 93
        1
 44
-50.0
173
     0
291
     1
 45
0.0
1001
ACAD
1000
AcDbSavedByObjectVersion
1070
     0
  0
VISUALSTYLE
  5
232F
102
{ACAD_XDICTIONARY
360
3026
102
}
102
{ACAD_REACTORS
330
2317
102
}
330
2317
100
AcDbVisualStyle
  2
EdgeColorOff
 70
    22
 71
     2
 72
     2
 73
     0
 90
        0
 40
-0.6
 41
-30.0
 62
     5
 63
     7
 74
     1
 91
        4
 64
     7
 65
   257
 75
     1
175
     1
 42
1.0
 92
        8
 66
     7
 43
1.0
 76
     1
 77
     6
 78
     2
 67
     7
 79
     5
170
     0
171
     0
290
     0
174
     0
 93
        1
 44
0.0
173
     0
291
     1
 45
0.0
1001
ACAD
1000
AcDbSavedByObjectVersion
1070
     0
  0
VISUALSTYLE
  5
2326
102
{ACAD_XDICTIONARY
360
3014
102
}
102
{ACAD_REACTORS
330
2317
102
}
330
2317
100
AcDbVisualStyle
  2
Facepattern
 70
    15
 71
     2
 72
     2
 73
     0
 90
        0
 40
-0.6
 41
-30.0
 62
     5
 63
     7
 74
     1
 91
        4
 64
     7
 65
   257
 75
     1
175
     1
 42
1.0
 92
        8
 66
     7
 43
1.0
 76
     1
 77
     6
 78
     2
 67
     7
 79
     5
170
     0
171
     0
290
     0
174
     0
 93
        1
 44
0.0
173
     0
291
     1
 45
0.0
1001
ACAD
1000
AcDbSavedByObjectVersion
1070
     0
  0
VISUALSTYLE
  5
2318
102
{ACAD_XDICTIONARY
360
2FF8
102
}
102
{ACAD_REACTORS
330
2317
102
}
330
2317
100
AcDbVisualStyle
  2
Flat
 70
     0
 71
     2
 72
     1
 73
     1
 90
        2
 40
-0.6
 41
30.0
 62
     5
 63
     7
 74
     0
 91
        0
 64
     7
 65
   257
 75
     1
175
     1
 42
1.0
 92
        8
 66
     7
 43
1.0
 76
     1
 77
     6
 78
     2
 67
     7
 79
     5
170
     0
171
     0
290
     0
174
     0
 93
       13
 44
0.0
173
     0
291
     1
 45
0.0
1001
ACAD
1000
AcDbSavedByObjectVersion
1070
     0
  0
VISUALSTYLE
  5
2319
102
{ACAD_XDICTIONARY
360
2FFA
102
}
102
{ACAD_REACTORS
330
2317
102
}
330
2317
100
AcDbVisualStyle
  2
FlatWithEdges
 70
     1
 71
     2
 72
     1
 73
     1
 90
        2
 40
-0.6
 41
30.0
 62
     5
 63
     7
 74
     1
 91
        0
 64
     7
 65
   257
 75
     1
175
     1
 42
1.0
 92
        0
 66
   257
 43
1.0
 76
     1
 77
     6
 78
     2
 67
     7
 79
     5
170
     0
171
     0
290
     0
174
     0
 93
       13
 44
0.0
173
     0
291
     1
 45
0.0
1001
ACAD
1000
AcDbSavedByObjectVersion
1070
     0
  0
VISUALSTYLE
  5
231A
102
{ACAD_XDICTIONARY
360
2FFC
102
}
102
{ACAD_REACTORS
330
2317
102
}
330
2317
100
AcDbVisualStyle
  2
Gouraud
 70
     2
 71
     2
 72
     2
 73
     1
 90
        2
 40
-0.6
 41
30.0
 62
     5
 63
     7
 74
     0
 91
        0
 64
     7
 65
   257
 75
     1
175
     1
 42
1.0
 92
        0
 66
     7
 43
1.0
 76
     1
 77
     6
 78
     2
 67
     7
 79
     5
170
     0
171
     0
290
     0
174
     0
 93
       13
 44
0.0
173
     0
291
     1
 45
0.0
1001
ACAD
1000
AcDbSavedByObjectVersion
1070
     0
  0
VISUALSTYLE
  5
231B
102
{ACAD_XDICTIONARY
360
2FFE
102
}
102
{ACAD_REACTORS
330
2317
102
}
330
2317
100
AcDbVisualStyle
  2
GouraudWithEdges
 70
     3
 71
     2
 72
     2
 73
     1
 90
        2
 40
-0.6
 41
30.0
 62
     5
 63
     7
 74
     1
 91
        0
 64
     7
 65
   257
 75
     1
175
     1
 42
1.0
 92
        0
 66
   257
 43
1.0
 76
     1
 77
     6
 78
     2
 67
     7
 79
     5
170
     0
171
     0
290
     0
174
     0
 93
       13
 44
0.0
173
     0
291
     1
 45
0.0
1001
ACAD
1000
AcDbSavedByObjectVersion
1070
     0
  0
VISUALSTYLE
  5
231F
102
{ACAD_XDICTIONARY
360
3006
102
}
102
{ACAD_REACTORS
330
2317
102
}
330
2317
100
AcDbVisualStyle
  2
Hidden
 70
     6
 71
     1
 72
     2
 73
     2
 90
        0
 40
-0.6
 41
-30.0
 62
     5
 63
     7
 74
     2
 91
        2
 64
     7
 65
   257
 75
     2
175
     1
 42
40.0
 92
        0
 66
   257
 43
1.0
 76
     1
 77
     6
 78
     2
 67
     7
 79
     3
170
     0
171
     0
290
     0
174
     0
 93
        1
 44
0.0
173
     0
291
     0
 45
0.0
1001
ACAD
1000
AcDbSavedByObjectVersion
1070
     0
  0
VISUALSTYLE
  5
232D
102
{ACAD_XDICTIONARY
360
3022
102
}
102
{ACAD_REACTORS
330
2317
102
}
330
2317
100
AcDbVisualStyle
  2
JitterOff
 70
    20
 71
     2
 72
     2
 73
     0
 90
        0
 40
-0.6
 41
-30.0
 62
     5
 63
     7
 74
     1
 91
        4
 64
     7
 65
   257
 75
     1
175
     1
 42
1.0
 92
       10
 66
     7
 43
1.0
 76
     1
 77
     6
 78
     2
 67
     7
 79
     5
170
     0
171
     0
290
     0
174
     0
 93
        1
 44
0.0
173
     0
291
     1
 45
0.0
1001
ACAD
1000
AcDbSavedByObjectVersion
1070
     0
  0
VISUALSTYLE
  5
2325
102
{ACAD_XDICTIONARY
360
3012
102
}
102
{ACAD_REACTORS
330
2317
102
}
330
2317
100
AcDbVisualStyle
  2
Linepattern
 70
    14
 71
     2
 72
     2
 73
     0
 90
        0
 40
-0.6
 41
-30.0
 62
     5
 63
     7
 74
     1
 91
        4
 64
     7
 65
   257
 75
     7
175
     7
 42
1.0
 92
        8
 66
     7
 43
1.0
 76
     1
 77
     6
 78
     2
 67
     7
 79
     5
170
     0
171
     0
290
     0
174
     0
 93
        1
 44
0.0
173
     0
291
     1
 45
0.0
1001
ACAD
1000
AcDbSavedByObjectVersion
1070
     0
  0
VISUALSTYLE
  5
232E
102
{ACAD_XDICTIONARY
360
3024
102
}
102
{ACAD_REACTORS
330
2317
102
}
330
2317
100
AcDbVisualStyle
  2
OverhangOff
 70
    21
 71
     2
 72
     2
 73
     0
 90
        0
 40
-0.6
 41
-30.0
 62
     5
 63
     7
 74
     1
 91
        4
 64
     7
 65
   257
 75
     1
175
     1
 42
1.0
 92
        9
 66
     7
 43
1.0
 76
     1
 77
     6
 78
     2
 67
     7
 79
     5
170
     0
171
     0
290
     0
174
     0
 93
        1
 44
0.0
173
     0
291
     1
 45
0.0
1001
ACAD
1000
AcDbSavedByObjectVersion
1070
     0
  0
VISUALSTYLE
  5
2321
102
{ACAD_XDICTIONARY
360
300A
102
}
102
{ACAD_REACTORS
330
2317
102
}
330
2317
100
AcDbVisualStyle
  2
Realistic
 70
     8
 71
     2
 72
     2
 73
     0
 90
        2
 40
-0.6
 41
30.0
 62
     5
 63
     7
 74
     0
 91
        0
 64
     7
 65
   257
 75
     1
175
     1
 42
1.0
 92
        8
 66
   257
 43
1.0
 76
     1
 77
     6
 78
     2
 67
     7
 79
     3
170
     0
171
     0
290
     0
174
     0
 93
       13
 44
0.0
173
     0
291
     0
 45
0.0
1001
ACAD
1000
AcDbSavedByObjectVersion
1070
     0
  0
VISUALSTYLE
  5
232C
102
{ACAD_XDICTIONARY
360
3020
102
}
102
{ACAD_REACTORS
330
2317
102
}
330
2317
100
AcDbVisualStyle
  2
Shaded
 70
    27
 71
     2
 72
     2
 73
     1
 90
        2
 40
-0.6
 41
30.0
 62
     5
 63
     7
 74
     0
 91
        4
 64
     7
 65
   257
 75
     1
175
     1
 42
1.0
 92
        8
 66
   257
 43
1.0
 76
     1
 77
     6
 78
     2
 67
     8
 79
     3
170
     0
171
     0
290
     0
174
     0
 93
        5
 44
0.0
173
     0
291
     0
 45
0.0
1001
ACAD
1000
AcDbSavedByObjectVersion
1070
     0
  0
VISUALSTYLE
  5
232B
102
{ACAD_XDICTIONARY
360
301E
102
}
102
{ACAD_REACTORS
330
2317
102
}
330
2317
100
AcDbVisualStyle
  2
Shaded with edges
 70
    26
 71
     2
 72
     2
 73
     1
 90
        2
 40
-0.6
 41
30.0
 62
     5
 63
     7
 74
     1
 91
       10
 64
     7
 65
   257
 75
     2
175
     1
 42
1.0
 92
        8
 66
   257
 43
1.0
 76
     1
 77
     6
 78
     2
 67
     7
 79
     3
170
     0
171
     0
290
     0
174
     0
 93
        5
 44
0.0
173
     0
291
     0
 45
0.0
1001
ACAD
1000
AcDbSavedByObjectVersion
1070
     0
  0
VISUALSTYLE
  5
2328
102
{ACAD_XDICTIONARY
360
3018
102
}
102
{ACAD_REACTORS
330
2317
102
}
330
2317
100
AcDbVisualStyle
  2
Shades of Gray
 70
    23
 71
     2
 72
     2
 73
     3
 90
        0
 40
-0.6
 41
-30.0
 62
     5
 63
     7
 74
     2
 91
        2
 64
     7
 65
     7
 75
     1
175
     1
 42
40.0
 92
        8
 66
     7
 43
1.0
 76
     1
 77
     6
 78
     2
 67
     7
 79
     3
170
     0
171
     0
290
     0
174
     0
 93
        1
 44
0.0
173
     0
291
     0
 45
0.0
1001
ACAD
1000
AcDbSavedByObjectVersion
1070
     0
  0
VISUALSTYLE
  5
2329
102
{ACAD_XDICTIONARY
360
301A
102
}
102
{ACAD_REACTORS
330
2317
102
}
330
2317
100
AcDbVisualStyle
  2
Sketchy
 70
    24
 71
     1
 72
     2
 73
     2
 90
        0
 40
-0.6
 41
-30.0
 62
     5
 63
     7
 74
     2
 91
        2
 64
     7
 65
     7
 75
     1
175
     1
 42
40.0
 92
       11
 66
     7
 43
1.0
 76
     1
 77
     6
 78
     2
 67
     7
 79
     6
170
     0
171
     0
290
     0
174
     0
 93
        1
 44
0.0
173
     0
291
     0
 45
0.0
1001
ACAD
1000
AcDbSavedByObjectVersion
1070
     0
  0
VISUALSTYLE
  5
2324
102
{ACAD_XDICTIONARY
360
3010
102
}
102
{ACAD_REACTORS
330
2317
102
}
330
2317
100
AcDbVisualStyle
  2
Thicken
 70
    13
 71
     2
 72
     2
 73
     0
 90
        0
 40
-0.6
 41
-30.0
 62
     5
 63
     7
 74
     1
 91
        4
 64
     7
 65
   257
 75
     1
175
     1
 42
1.0
 92
       12
 66
     7
 43
1.0
 76
     1
 77
     6
 78
     2
 67
     7
 79
     5
170
     0
171
     0
290
     0
174
     0
 93
        1
 44
0.0
173
     0
291
     1
 45
0.0
1001
ACAD
1000
AcDbSavedByObjectVersion
1070
     0
  0
VISUALSTYLE
  5
231E
102
{ACAD_XDICTIONARY
360
3004
102
}
102
{ACAD_REACTORS
330
2317
102
}
330
2317
100
AcDbVisualStyle
  2
Wireframe
 70
     5
 71
     0
 72
     2
 73
     0
 90
        0
 40
-0.6
 41
-30.0
 62
     5
 63
     7
 74
     1
 91
        4
 64
     7
 65
   257
 75
     1
175
     1
 42
1.0
 92
        0
 66
   257
 43
1.0
 76
     1
 77
     6
 78
     2
 67
     7
 79
     3
170
     0
171
     0
290
     0
174
     0
 93
        1
 44
0.0
173
     0
291
     0
 45
0.0
1001
ACAD
1000
AcDbSavedByObjectVersion
1070
     0
  0
VISUALSTYLE
  5
232A
102
{ACAD_XDICTIONARY
360
301C
102
}
102
{ACAD_REACTORS
330
2317
102
}
330
2317
100
AcDbVisualStyle
  2
X-Ray
 70
    25
 71
     2
 72
     2
 73
     1
 90
        1
 40
0.5
 41
-30.0
 62
     5
 63
     7
 74
     1
 91
        0
 64
     7
 65
   257
 75
     1
175
     1
 42
1.0
 92
        8
 66
     7
 43
1.0
 76
     1
 77
     6
 78
     2
 67
     7
 79
     3
170
     0
171
     0
290
     0
174
     0
 93
       13
 44
0.0
173
     0
291
     0
 45
0.0
1001
ACAD
1000
AcDbSavedByObjectVersion
1070
     0
  0
DICTIONARYVAR
  5
23B9
102
{ACAD_REACTORS
330
3C4
102
}
330
3C4
100
DictionaryVariables
280
     0
  1
1:1
  0
DICTIONARYVAR
  5
23B8
102
{ACAD_REACTORS
330
3C4
102
}
330
3C4
100
DictionaryVariables
280
     0
  1
STANDARD
  0
DICTIONARYVAR
  5
23B7
102
{ACAD_REACTORS
330
3C4
102
}
330
3C4
100
DictionaryVariables
280
     0
  1
STANDARD
  0
DICTIONARYVAR
  5
23BA
102
{ACAD_REACTORS
330
3C4
102
}
330
3C4
100
DictionaryVariables
280
     0
  1
1
  0
DICTIONARYVAR
  5
3C5
102
{ACAD_REACTORS
330
3C4
102
}
330
3C4
100
DictionaryVariables
280
     0
  1
1
  0
DICTIONARYVAR
  5
3D3
102
{ACAD_REACTORS
330
3C4
102
}
330
3C4
100
DictionaryVariables
280
     0
  1
99
  0
DICTIONARYVAR
  5
2FDF
102
{ACAD_REACTORS
330
3C4
102
}
330
3C4
100
DictionaryVariables
280
     0
  1
2
  0
ACAD_PROXY_OBJECT
  5
3D1
102
{ACAD_REACTORS
330
3D0
102
}
330
3D0
100
AcDbProxyObject
 90
      499
 91
      512
 95
   983063
 70
     0
 93
      118
310
405010040CA904C415CD5B074D502B
350
3D2
 94
        0
1001
ACAD
1000
AcRTDxfName
1000
ACMDATADICTIONARY
1000
AcRTDxfName
1000
ACMDATADICTIONARY
1000
AcRTDxfName
1000
ACMDATADICTIONARY
1000
AcRTDxfName
1000
ACMDATADICTIONARY
1000
AcRTDxfName
1000
ACMDATADICTIONARY
  0
ACAD_PROXY_OBJECT
  5
3C7
330
0
100
AcDbProxyObject
 90
      499
 91
      507
 95
   983063
 70
     0
 93
      156
310
00010143D050D351505391D5531054925390D49F
330
3C1
 94
        0
1001
ACAD
1000
AcRTDxfName
1000
ACIMREALSYSVAR
1000
AcRTDxfName
1000
ACIMREALSYSVAR
1000
AcRTDxfName
1000
ACIMREALSYSVAR
1000
AcRTDxfName
1000
ACIMREALSYSVAR
1000
AcRTDxfName
1000
ACIMREALSYSVAR
  0
ACAD_PROXY_OBJECT
  5
3C8
330
0
100
AcDbProxyObject
 90
      499
 91
      507
 95
   983063
 70
     0
 93
      148
310
000101439050D351531253915054925390D49F
330
3C1
 94
        0
1001
ACAD
1000
AcRTDxfName
1000
ACIMREALSYSVAR
1000
AcRTDxfName
1000
ACIMREALSYSVAR
1000
AcRTDxfName
1000
ACIMREALSYSVAR
1000
AcRTDxfName
1000
ACIMREALSYSVAR
1000
AcRTDxfName
1000
ACIMREALSYSVAR
  0
ACAD_PROXY_OBJECT
  5
3C9
330
0
100
AcDbProxyObject
 90
      499
 91
      508
 95
   983063
 70
     0
 93
      156
310
000101439050D35154D6535093D314D25691508F
330
3C1
 94
        0
1001
ACAD
1000
AcRTDxfName
1000
ACIMINTSYSVAR
1000
AcRTDxfName
1000
ACIMINTSYSVAR
1000
AcRTDxfName
1000
ACIMINTSYSVAR
1000
AcRTDxfName
1000
ACIMINTSYSVAR
1000
AcRTDxfName
1000
ACIMINTSYSVAR
  0
ACAD_PROXY_OBJECT
  5
3CE
330
0
100
AcDbProxyObject
 90
      499
 91
      510
 95
   983063
 70
     0
 93
       88
310
000101411093D34C402B0000
330
3C1
330
0
330
0
 94
        0
1001
ACAD
1000
AcRTDxfName
1000
ACMEVIEW
1000
AcRTDxfName
1000
ACMEVIEW
1000
AcRTDxfName
1000
ACMEVIEW
1000
AcRTDxfName
1000
ACMEVIEW
1000
AcRTDxfName
1000
ACMEVIEW
  0
ACAD_PROXY_OBJECT
  5
2243
330
0
100
AcDbProxyObject
 90
      499
 91
      526
 95
   983063
 70
     0
 93
      366
310
0001014124FEA55D00507342E312E332E35014124FEA55D00507342E312E332E3540501000041905394D24CCC65B
330
3C1
330
2244
330
2248
 94
        0
1001
ACAD
1000
AcRTDxfName
1000
AM_DRAWING_MGR
1000
AcRTDxfName
1000
AM_DRAWING_MGR
1000
AcRTDxfName
1000
AM_DRAWING_MGR
1000
AcRTDxfName
1000
AM_DRAWING_MGR
1000
AcRTDxfName
1000
AM_DRAWING_MGR
  0
ACAD_PROXY_OBJECT
  5
2244
330
0
100
AcDbProxyObject
 90
      499
 91
      527
 95
   983063
 70
     0
 93
       48
310
000190142200A5
330
3C1
330
2245
 94
        0
1001
ACAD
1000
AcRTDxfName
1000
AM_DWG_DOCUMENT
1000
AcRTDxfName
1000
AM_DWG_DOCUMENT
1000
AcRTDxfName
1000
AM_DWG_DOCUMENT
1000
AcRTDxfName
1000
AM_DWG_DOCUMENT
1000
AcRTDxfName
1000
AM_DWG_DOCUMENT
  0
ACAD_PROXY_OBJECT
  5
2245
330
0
100
AcDbProxyObject
 90
      499
 91
      528
 95
   983063
 70
     0
 93
       48
310
0001AA000000D3
330
3C1
330
5DF
330
2246
330
0
 94
        0
1001
ACAD
1000
AcRTDxfName
1000
AM_DWG_SHEET
1000
AcRTDxfName
1000
AM_DWG_SHEET
1000
AcRTDxfName
1000
AM_DWG_SHEET
1000
AcRTDxfName
1000
AM_DWG_SHEET
1000
AcRTDxfName
1000
AM_DWG_SHEET
  0
ACAD_PROXY_OBJECT
  5
2246
330
0
100
AcDbProxyObject
 90
      499
 91
      529
 95
   983063
 70
     0
 93
       28
310
0001AAAF
330
3C1
 94
        0
1001
ACAD
1000
AcRTDxfName
1000
AM_VIEWDIMPARMAP
1000
AcRTDxfName
1000
AM_VIEWDIMPARMAP
1000
AcRTDxfName
1000
AM_VIEWDIMPARMAP
1000
AcRTDxfName
1000
AM_VIEWDIMPARMAP
1000
AcRTDxfName
1000
AM_VIEWDIMPARMAP
  0
ACAD_PROXY_OBJECT
  5
2249
330
0
100
AcDbProxyObject
 90
      499
 91
      508
 95
   983063
 70
     0
 93
      108
310
000101421053521310D05310D01F
330
3C1
 94
        0
1001
ACAD
1000
AcRTDxfName
1000
ACIMINTSYSVAR
1000
AcRTDxfName
1000
ACIMINTSYSVAR
1000
AcRTDxfName
1000
ACIMINTSYSVAR
1000
AcRTDxfName
1000
ACIMINTSYSVAR
1000
AcRTDxfName
1000
ACIMINTSYSVAR
  0
ACAD_PROXY_OBJECT
  5
224A
330
0
100
AcDbProxyObject
 90
      499
 91
      508
 95
   983063
 70
     0
 93
      124
310
000101429053541493D295165411501F
330
3C1
 94
        0
1001
ACAD
1000
AcRTDxfName
1000
ACIMINTSYSVAR
1000
AcRTDxfName
1000
ACIMINTSYSVAR
1000
AcRTDxfName
1000
ACIMINTSYSVAR
1000
AcRTDxfName
1000
ACIMINTSYSVAR
1000
AcRTDxfName
1000
ACIMINTSYSVAR
  0
ACAD_PROXY_OBJECT
  5
224B
330
0
100
AcDbProxyObject
 90
      499
 91
      508
 95
   983063
 70
     0
 93
      124
310
00010142905354915554D1511253501F
330
3C1
 94
        0
1001
ACAD
1000
AcRTDxfName
1000
ACIMINTSYSVAR
1000
AcRTDxfName
1000
ACIMINTSYSVAR
1000
AcRTDxfName
1000
ACIMINTSYSVAR
1000
AcRTDxfName
1000
ACIMINTSYSVAR
1000
AcRTDxfName
1000
ACIMINTSYSVAR
  0
ACAD_PROXY_OBJECT
  5
224C
330
0
100
AcDbProxyObject
 90
      499
 91
      508
 95
   983063
 70
     0
 93
      132
310
00010143105354D150D51253D39112536F
330
3C1
 94
        0
1001
ACAD
1000
AcRTDxfName
1000
ACIMINTSYSVAR
1000
AcRTDxfName
1000
ACIMINTSYSVAR
1000
AcRTDxfName
1000
ACIMINTSYSVAR
1000
AcRTDxfName
1000
ACIMINTSYSVAR
1000
AcRTDxfName
1000
ACIMINTSYSVAR
  0
ACAD_PROXY_OBJECT
  5
224D
330
0
100
AcDbProxyObject
 90
      499
 91
      508
 95
   983063
 70
     0
 93
      124
310
00010142905355941093D4911154901F
330
3C1
 94
        0
1001
ACAD
1000
AcRTDxfName
1000
ACIMINTSYSVAR
1000
AcRTDxfName
1000
ACIMINTSYSVAR
1000
AcRTDxfName
1000
ACIMINTSYSVAR
1000
AcRTDxfName
1000
ACIMINTSYSVAR
1000
AcRTDxfName
1000
ACIMINTSYSVAR
  0
ACAD_PROXY_OBJECT
  5
224E
330
0
100
AcDbProxyObject
 90
      499
 91
      508
 95
   983063
 70
     0
 93
      116
310
0001014290535115D1D0D3D313D4AF
330
3C1
 94
        0
1001
ACAD
1000
AcRTDxfName
1000
ACIMINTSYSVAR
1000
AcRTDxfName
1000
ACIMINTSYSVAR
1000
AcRTDxfName
1000
ACIMINTSYSVAR
1000
AcRTDxfName
1000
ACIMINTSYSVAR
1000
AcRTDxfName
1000
ACIMINTSYSVAR
  0
ACAD_PROXY_OBJECT
  5
224F
330
0
100
AcDbProxyObject
 90
      499
 91
      508
 95
   983063
 70
     0
 93
      148
310
00010143505355925155D49151949154D2101F
330
3C1
 94
        0
1001
ACAD
1000
AcRTDxfName
1000
ACIMINTSYSVAR
1000
AcRTDxfName
1000
ACIMINTSYSVAR
1000
AcRTDxfName
1000
ACIMINTSYSVAR
1000
AcRTDxfName
1000
ACIMINTSYSVAR
1000
AcRTDxfName
1000
ACIMINTSYSVAR
  0
ACAD_PROXY_OBJECT
  5
2250
330
0
100
AcDbProxyObject
 90
      499
 91
      508
 95
   983063
 70
     0
 93
      172
310
00010144105350539393D51154149154D1549591501F
330
3C1
 94
        0
1001
ACAD
1000
AcRTDxfName
1000
ACIMINTSYSVAR
1000
AcRTDxfName
1000
ACIMINTSYSVAR
1000
AcRTDxfName
1000
ACIMINTSYSVAR
1000
AcRTDxfName
1000
ACIMINTSYSVAR
1000
AcRTDxfName
1000
ACIMINTSYSVAR
  0
ACAD_PROXY_OBJECT
  5
2254
330
0
100
AcDbProxyObject
 90
      499
 91
      508
 95
   983063
 70
     0
 93
      108
310
00010142105354D51114D0D5106F
330
3C1
 94
        0
1001
ACAD
1000
AcRTDxfName
1000
ACIMINTSYSVAR
1000
AcRTDxfName
1000
ACIMINTSYSVAR
1000
AcRTDxfName
1000
ACIMINTSYSVAR
1000
AcRTDxfName
1000
ACIMINTSYSVAR
1000
AcRTDxfName
1000
ACIMINTSYSVAR
  0
ACAD_PROXY_OBJECT
  5
2255
330
0
100
AcDbProxyObject
 90
      499
 91
      508
 95
   983063
 70
     0
 93
      108
310
00010142105354D511151054106F
330
3C1
 94
        0
1001
ACAD
1000
AcRTDxfName
1000
ACIMINTSYSVAR
1000
AcRTDxfName
1000
ACIMINTSYSVAR
1000
AcRTDxfName
1000
ACIMINTSYSVAR
1000
AcRTDxfName
1000
ACIMINTSYSVAR
1000
AcRTDxfName
1000
ACIMINTSYSVAR
  0
ACAD_PROXY_OBJECT
  5
2256
330
0
100
AcDbProxyObject
 90
      499
 91
      508
 95
   983063
 70
     0
 93
      108
310
00010142105354D511111513106F
330
3C1
 94
        0
1001
ACAD
1000
AcRTDxfName
1000
ACIMINTSYSVAR
1000
AcRTDxfName
1000
ACIMINTSYSVAR
1000
AcRTDxfName
1000
ACIMINTSYSVAR
1000
AcRTDxfName
1000
ACIMINTSYSVAR
1000
AcRTDxfName
1000
ACIMINTSYSVAR
  0
ACAD_PROXY_OBJECT
  5
2257
330
0
100
AcDbProxyObject
 90
      499
 91
      507
 95
   983063
 70
     0
 93
      148
310
00010141905350D310D34295C8FC2F528BC3FF
330
3C1
 94
        0
1001
ACAD
1000
AcRTDxfName
1000
ACIMREALSYSVAR
1000
AcRTDxfName
1000
ACIMREALSYSVAR
1000
AcRTDxfName
1000
ACIMREALSYSVAR
1000
AcRTDxfName
1000
ACIMREALSYSVAR
1000
AcRTDxfName
1000
ACIMREALSYSVAR
  0
ACAD_PROXY_OBJECT
  5
2258
330
0
100
AcDbProxyObject
 90
      499
 91
      507
 95
   983063
 70
     0
 93
      156
310
00010141D05350D311D05402B8716D9CEF7C33FF
330
3C1
 94
        0
1001
ACAD
1000
AcRTDxfName
1000
ACIMREALSYSVAR
1000
AcRTDxfName
1000
ACIMREALSYSVAR
1000
AcRTDxfName
1000
ACIMREALSYSVAR
1000
AcRTDxfName
1000
ACIMREALSYSVAR
1000
AcRTDxfName
1000
ACIMREALSYSVAR
  0
ACAD_PROXY_OBJECT
  5
2259
330
0
100
AcDbProxyObject
 90
      499
 91
      507
 95
   983063
 70
     0
 93
      164
310
00010142105350D313D4D2150295C8FC2F528BC3FF
330
3C1
 94
        0
1001
ACAD
1000
AcRTDxfName
1000
ACIMREALSYSVAR
1000
AcRTDxfName
1000
ACIMREALSYSVAR
1000
AcRTDxfName
1000
ACIMREALSYSVAR
1000
AcRTDxfName
1000
ACIMREALSYSVAR
1000
AcRTDxfName
1000
ACIMREALSYSVAR
  0
ACAD_PROXY_OBJECT
  5
225A
330
0
100
AcDbProxyObject
 90
      499
 91
      508
 95
   983063
 70
     0
 93
      100
310
00010141D05350D3141054901F
330
3C1
 94
        0
1001
ACAD
1000
AcRTDxfName
1000
ACIMINTSYSVAR
1000
AcRTDxfName
1000
ACIMINTSYSVAR
1000
AcRTDxfName
1000
ACIMINTSYSVAR
1000
AcRTDxfName
1000
ACIMINTSYSVAR
1000
AcRTDxfName
1000
ACIMINTSYSVAR
  0
ACAD_PROXY_OBJECT
  5
225B
330
0
100
AcDbProxyObject
 90
      499
 91
      508
 95
   983063
 70
     0
 93
      100
310
0001014210535590539254D22F
330
3C1
 94
        0
1001
ACAD
1000
AcRTDxfName
1000
ACIMINTSYSVAR
1000
AcRTDxfName
1000
ACIMINTSYSVAR
1000
AcRTDxfName
1000
ACIMINTSYSVAR
1000
AcRTDxfName
1000
ACIMINTSYSVAR
1000
AcRTDxfName
1000
ACIMINTSYSVAR
  0
ACAD_PROXY_OBJECT
  5
225C
330
0
100
AcDbProxyObject
 90
      499
 91
      507
 95
   983063
 70
     0
 93
      188
310
00010142D0535312539155121250D2C295C8FC2F5289C3FF
330
3C1
 94
        0
1001
ACAD
1000
AcRTDxfName
1000
ACIMREALSYSVAR
1000
AcRTDxfName
1000
ACIMREALSYSVAR
1000
AcRTDxfName
1000
ACIMREALSYSVAR
1000
AcRTDxfName
1000
ACIMREALSYSVAR
1000
AcRTDxfName
1000
ACIMREALSYSVAR
  0
ACAD_PROXY_OBJECT
  5
225D
330
0
100
AcDbProxyObject
 90
      499
 91
      508
 95
   983063
 70
     0
 93
      172
310
00010144105350555513D11253505494905391D1501F
330
3C1
 94
        0
1001
ACAD
1000
AcRTDxfName
1000
ACIMINTSYSVAR
1000
AcRTDxfName
1000
ACIMINTSYSVAR
1000
AcRTDxfName
1000
ACIMINTSYSVAR
1000
AcRTDxfName
1000
ACIMINTSYSVAR
1000
AcRTDxfName
1000
ACIMINTSYSVAR
  0
ACAD_PROXY_OBJECT
  5
225E
330
0
100
AcDbProxyObject
 90
      499
 91
      508
 95
   983063
 70
     0
 93
      124
310
00010142D0535156151491519112536F
330
3C1
 94
        0
1001
ACAD
1000
AcRTDxfName
1000
ACIMINTSYSVAR
1000
AcRTDxfName
1000
ACIMINTSYSVAR
1000
AcRTDxfName
1000
ACIMINTSYSVAR
1000
AcRTDxfName
1000
ACIMINTSYSVAR
1000
AcRTDxfName
1000
ACIMINTSYSVAR
  0
ACAD_PROXY_OBJECT
  5
225F
330
0
100
AcDbProxyObject
 90
      499
 91
      508
 95
   983063
 70
     0
 93
      132
310
00010142D05355105410539393D511501F
330
3C1
 94
        0
1001
ACAD
1000
AcRTDxfName
1000
ACIMINTSYSVAR
1000
AcRTDxfName
1000
ACIMINTSYSVAR
1000
AcRTDxfName
1000
ACIMINTSYSVAR
1000
AcRTDxfName
1000
ACIMINTSYSVAR
1000
AcRTDxfName
1000
ACIMINTSYSVAR
  0
ACAD_PROXY_OBJECT
  5
2260
330
0
100
AcDbProxyObject
 90
      499
 91
      508
 95
   983063
 70
     0
 93
      108
310
00010142105350555513D0D3101F
330
3C1
 94
        0
1001
ACAD
1000
AcRTDxfName
1000
ACIMINTSYSVAR
1000
AcRTDxfName
1000
ACIMINTSYSVAR
1000
AcRTDxfName
1000
ACIMINTSYSVAR
1000
AcRTDxfName
1000
ACIMINTSYSVAR
1000
AcRTDxfName
1000
ACIMINTSYSVAR
  0
ACAD_PROXY_OBJECT
  5
2261
330
0
100
AcDbProxyObject
 90
      499
 91
      508
 95
   983063
 70
     0
 93
      108
310
00010142105350D311915055105F
330
3C1
 94
        0
1001
ACAD
1000
AcRTDxfName
1000
ACIMINTSYSVAR
1000
AcRTDxfName
1000
ACIMINTSYSVAR
1000
AcRTDxfName
1000
ACIMINTSYSVAR
1000
AcRTDxfName
1000
ACIMINTSYSVAR
1000
AcRTDxfName
1000
ACIMINTSYSVAR
  0
ACAD_PROXY_OBJECT
  5
2262
330
0
100
AcDbProxyObject
 90
      499
 91
      508
 95
   983063
 70
     0
 93
      108
310
00010142105350D315925155D3FF
330
3C1
 94
        0
1001
ACAD
1000
AcRTDxfName
1000
ACIMINTSYSVAR
1000
AcRTDxfName
1000
ACIMINTSYSVAR
1000
AcRTDxfName
1000
ACIMINTSYSVAR
1000
AcRTDxfName
1000
ACIMINTSYSVAR
1000
AcRTDxfName
1000
ACIMINTSYSVAR
  0
ACAD_PROXY_OBJECT
  5
2263
330
0
100
AcDbProxyObject
 90
      499
 91
      508
 95
   983063
 70
     0
 93
      148
310
0001014350535212511156915493D11253501F
330
3C1
 94
        0
1001
ACAD
1000
AcRTDxfName
1000
ACIMINTSYSVAR
1000
AcRTDxfName
1000
ACIMINTSYSVAR
1000
AcRTDxfName
1000
ACIMINTSYSVAR
1000
AcRTDxfName
1000
ACIMINTSYSVAR
1000
AcRTDxfName
1000
ACIMINTSYSVAR
  0
ACAD_PROXY_OBJECT
  5
2264
330
0
100
AcDbProxyObject
 90
      499
 91
      508
 95
   983063
 70
     0
 93
      116
310
00010142905352105510D21254D3EF
330
3C1
 94
        0
1001
ACAD
1000
AcRTDxfName
1000
ACIMINTSYSVAR
1000
AcRTDxfName
1000
ACIMINTSYSVAR
1000
AcRTDxfName
1000
ACIMINTSYSVAR
1000
AcRTDxfName
1000
ACIMINTSYSVAR
1000
AcRTDxfName
1000
ACIMINTSYSVAR
  0
ACAD_PROXY_OBJECT
  5
2265
330
0
100
AcDbProxyObject
 90
      499
 91
      508
 95
   983063
 70
     0
 93
      148
310
00010143905354D25391D3115210551310566F
330
3C1
 94
        0
1001
ACAD
1000
AcRTDxfName
1000
ACIMINTSYSVAR
1000
AcRTDxfName
1000
ACIMINTSYSVAR
1000
AcRTDxfName
1000
ACIMINTSYSVAR
1000
AcRTDxfName
1000
ACIMINTSYSVAR
1000
AcRTDxfName
1000
ACIMINTSYSVAR
  0
ACAD_PROXY_OBJECT
  5
2271
330
0
100
AcDbProxyObject
 90
      499
 91
      508
 95
   983063
 70
     0
 93
      116
310
000101425053541051D1531153919F
330
3C1
 94
        0
1001
ACAD
1000
AcRTDxfName
1000
ACIMINTSYSVAR
1000
AcRTDxfName
1000
ACIMINTSYSVAR
1000
AcRTDxfName
1000
ACIMINTSYSVAR
1000
AcRTDxfName
1000
ACIMINTSYSVAR
1000
AcRTDxfName
1000
ACIMINTSYSVAR
  0
ACAD_PROXY_OBJECT
  5
2272
330
0
100
AcDbProxyObject
 90
      499
 91
      508
 95
   983063
 70
     0
 93
      108
310
000101421053555312539154D05F
330
3C1
 94
        0
1001
ACAD
1000
AcRTDxfName
1000
ACIMINTSYSVAR
1000
AcRTDxfName
1000
ACIMINTSYSVAR
1000
AcRTDxfName
1000
ACIMINTSYSVAR
1000
AcRTDxfName
1000
ACIMINTSYSVAR
1000
AcRTDxfName
1000
ACIMINTSYSVAR
  0
ACAD_PROXY_OBJECT
  5
2273
330
0
100
AcDbProxyObject
 90
      499
 91
      508
 95
   983063
 70
     0
 93
      108
310
000101421053559312539154D03F
330
3C1
 94
        0
1001
ACAD
1000
AcRTDxfName
1000
ACIMINTSYSVAR
1000
AcRTDxfName
1000
ACIMINTSYSVAR
1000
AcRTDxfName
1000
ACIMINTSYSVAR
1000
AcRTDxfName
1000
ACIMINTSYSVAR
1000
AcRTDxfName
1000
ACIMINTSYSVAR
  0
ACAD_PROXY_OBJECT
  5
2274
330
0
100
AcDbProxyObject
 90
      499
 91
      508
 95
   983063
 70
     0
 93
      140
310
00010143105354D1911254D41353D111501F
330
3C1
 94
        0
1001
ACAD
1000
AcRTDxfName
1000
ACIMINTSYSVAR
1000
AcRTDxfName
1000
ACIMINTSYSVAR
1000
AcRTDxfName
1000
ACIMINTSYSVAR
1000
AcRTDxfName
1000
ACIMINTSYSVAR
1000
AcRTDxfName
1000
ACIMINTSYSVAR
  0
ACAD_PROXY_OBJECT
  5
2275
330
0
100
AcDbProxyObject
 90
      499
 91
      507
 95
   983063
 70
     0
 93
      172
310
00010142505354119255105391C1C052DC9A6F10440F
330
3C1
 94
        0
1001
ACAD
1000
AcRTDxfName
1000
ACIMREALSYSVAR
1000
AcRTDxfName
1000
ACIMREALSYSVAR
1000
AcRTDxfName
1000
ACIMREALSYSVAR
1000
AcRTDxfName
1000
ACIMREALSYSVAR
1000
AcRTDxfName
1000
ACIMREALSYSVAR
  0
ACAD_PROXY_OBJECT
  5
2276
330
0
100
AcDbProxyObject
 90
      499
 91
      507
 95
   983063
 70
     0
 93
      164
310
000101421053559150D05551C000000000000E03FF
330
3C1
 94
        0
1001
ACAD
1000
AcRTDxfName
1000
ACIMREALSYSVAR
1000
AcRTDxfName
1000
ACIMREALSYSVAR
1000
AcRTDxfName
1000
ACIMREALSYSVAR
1000
AcRTDxfName
1000
ACIMREALSYSVAR
1000
AcRTDxfName
1000
ACIMREALSYSVAR
  0
ACAD_PROXY_OBJECT
  5
2277
330
0
100
AcDbProxyObject
 90
      499
 91
      507
 95
   983063
 70
     0
 93
      180
310
00010142905350931153911513D307B14AE47E17A843FF
330
3C1
 94
        0
1001
ACAD
1000
AcRTDxfName
1000
ACIMREALSYSVAR
1000
AcRTDxfName
1000
ACIMREALSYSVAR
1000
AcRTDxfName
1000
ACIMREALSYSVAR
1000
AcRTDxfName
1000
ACIMREALSYSVAR
1000
AcRTDxfName
1000
ACIMREALSYSVAR
  0
ACAD_PROXY_OBJECT
  5
2278
330
0
100
AcDbProxyObject
 90
      499
 91
      507
 95
   983063
 70
     0
 93
      172
310
0001014250535293D25391D05407B14AE47E17A843FF
330
3C1
 94
        0
1001
ACAD
1000
AcRTDxfName
1000
ACIMREALSYSVAR
1000
AcRTDxfName
1000
ACIMREALSYSVAR
1000
AcRTDxfName
1000
ACIMREALSYSVAR
1000
AcRTDxfName
1000
ACIMREALSYSVAR
1000
AcRTDxfName
1000
ACIMREALSYSVAR
  0
ACAD_PROXY_OBJECT
  5
2279
330
0
100
AcDbProxyObject
 90
      499
 91
      507
 95
   983063
 70
     0
 93
      172
310
000101425053541192551311538000000FC83D79741F
330
3C1
 94
        0
1001
ACAD
1000
AcRTDxfName
1000
ACIMREALSYSVAR
1000
AcRTDxfName
1000
ACIMREALSYSVAR
1000
AcRTDxfName
1000
ACIMREALSYSVAR
1000
AcRTDxfName
1000
ACIMREALSYSVAR
1000
AcRTDxfName
1000
ACIMREALSYSVAR
  0
ACAD_PROXY_OBJECT
  5
227A
330
0
100
AcDbProxyObject
 90
      499
 91
      507
 95
   983063
 70
     0
 93
      156
310
00010141D053559150D4D18000000000000E03FF
330
3C1
 94
        0
1001
ACAD
1000
AcRTDxfName
1000
ACIMREALSYSVAR
1000
AcRTDxfName
1000
ACIMREALSYSVAR
1000
AcRTDxfName
1000
ACIMREALSYSVAR
1000
AcRTDxfName
1000
ACIMREALSYSVAR
1000
AcRTDxfName
1000
ACIMREALSYSVAR
  0
ACAD_PROXY_OBJECT
  5
227B
330
0
100
AcDbProxyObject
 90
      499
 91
      507
 95
   983063
 70
     0
 93
      156
310
00010141D05354D19513D30FCA9F1D24D62503FF
330
3C1
 94
        0
1001
ACAD
1000
AcRTDxfName
1000
ACIMREALSYSVAR
1000
AcRTDxfName
1000
ACIMREALSYSVAR
1000
AcRTDxfName
1000
ACIMREALSYSVAR
1000
AcRTDxfName
1000
ACIMREALSYSVAR
1000
AcRTDxfName
1000
ACIMREALSYSVAR
  0
ACAD_PROXY_OBJECT
  5
227C
330
0
100
AcDbProxyObject
 90
      499
 91
      507
 95
   983063
 70
     0
 93
      172
310
000101425053541192551513D307B14AE47E17A843FF
330
3C1
 94
        0
1001
ACAD
1000
AcRTDxfName
1000
ACIMREALSYSVAR
1000
AcRTDxfName
1000
ACIMREALSYSVAR
1000
AcRTDxfName
1000
ACIMREALSYSVAR
1000
AcRTDxfName
1000
ACIMREALSYSVAR
1000
AcRTDxfName
1000
ACIMREALSYSVAR
  0
ACAD_PROXY_OBJECT
  5
227D
330
0
100
AcDbProxyObject
 90
      499
 91
      507
 95
   983063
 70
     0
 93
      188
310
00010142D05354D151D192551513D307B14AE47E17A843FF
330
3C1
 94
        0
1001
ACAD
1000
AcRTDxfName
1000
ACIMREALSYSVAR
1000
AcRTDxfName
1000
ACIMREALSYSVAR
1000
AcRTDxfName
1000
ACIMREALSYSVAR
1000
AcRTDxfName
1000
ACIMREALSYSVAR
1000
AcRTDxfName
1000
ACIMREALSYSVAR
  0
ACAD_PROXY_OBJECT
  5
227E
330
0
100
AcDbProxyObject
 90
      499
 91
      507
 95
   983063
 70
     0
 93
      148
310
000101419053541311538000000FC83D79741F
330
3C1
 94
        0
1001
ACAD
1000
AcRTDxfName
1000
ACIMREALSYSVAR
1000
AcRTDxfName
1000
ACIMREALSYSVAR
1000
AcRTDxfName
1000
ACIMREALSYSVAR
1000
AcRTDxfName
1000
ACIMREALSYSVAR
1000
AcRTDxfName
1000
ACIMREALSYSVAR
  0
ACAD_PROXY_OBJECT
  5
227F
330
0
100
AcDbProxyObject
 90
      499
 91
      507
 95
   983063
 70
     0
 93
      172
310
00010142505354105391D513D301C052DC9A6F10440F
330
3C1
 94
        0
1001
ACAD
1000
AcRTDxfName
1000
ACIMREALSYSVAR
1000
AcRTDxfName
1000
ACIMREALSYSVAR
1000
AcRTDxfName
1000
ACIMREALSYSVAR
1000
AcRTDxfName
1000
ACIMREALSYSVAR
1000
AcRTDxfName
1000
ACIMREALSYSVAR
  0
ACAD_PROXY_OBJECT
  5
2280
330
0
100
AcDbProxyObject
 90
      499
 91
      507
 95
   983063
 70
     0
 93
      132
310
0001014114D2569140000000000002440F
330
3C1
 94
        0
1001
ACAD
1000
AcRTDxfName
1000
ACIMREALSYSVAR
1000
AcRTDxfName
1000
ACIMREALSYSVAR
1000
AcRTDxfName
1000
ACIMREALSYSVAR
1000
AcRTDxfName
1000
ACIMREALSYSVAR
1000
AcRTDxfName
1000
ACIMREALSYSVAR
  0
ACAD_PROXY_OBJECT
  5
2281
330
0
100
AcDbProxyObject
 90
      499
 91
      537
 95
   983063
 70
     0
 93
      156
310
00010142905351D494149151925600503415347F
330
3C1
 94
        0
1001
ACAD
1000
AcRTDxfName
1000
ACIMSTRSYSVAR
1000
AcRTDxfName
1000
ACIMSTRSYSVAR
1000
AcRTDxfName
1000
ACIMSTRSYSVAR
1000
AcRTDxfName
1000
ACIMSTRSYSVAR
1000
AcRTDxfName
1000
ACIMSTRSYSVAR
  0
ACAD_PROXY_OBJECT
  5
2282
330
0
100
AcDbProxyObject
 90
      499
 91
      538
 95
   983063
 70
     0
 93
      314
310
00014080509646973745363616C650000000000003C2FC000000000000F0BF0000003F20F5E5D07F
330
3C1
 94
        0
1001
ACAD
1000
AcRTDxfName
1000
ACIMDBLSTATICVAR
1000
AcRTDxfName
1000
ACIMDBLSTATICVAR
1000
AcRTDxfName
1000
ACIMDBLSTATICVAR
1000
AcRTDxfName
1000
ACIMDBLSTATICVAR
1000
AcRTDxfName
1000
ACIMDBLSTATICVAR
  0
ACAD_PROXY_OBJECT
  5
2283
330
0
100
AcDbProxyObject
 90
      499
 91
      538
 95
   983063
 70
     0
 93
      322
310
0001408050A65646175526F74617465060B51153EC87E4FC182D4454FB2119C0060B51153EC846503F
330
3C1
 94
        0
1001
ACAD
1000
AcRTDxfName
1000
ACIMDBLSTATICVAR
1000
AcRTDxfName
1000
ACIMDBLSTATICVAR
1000
AcRTDxfName
1000
ACIMDBLSTATICVAR
1000
AcRTDxfName
1000
ACIMDBLSTATICVAR
1000
AcRTDxfName
1000
ACIMDBLSTATICVAR
  0
ACAD_PROXY_OBJECT
  5
2284
330
0
100
AcDbProxyObject
 90
      499
 91
      538
 95
   983063
 70
     0
 93
      314
310
00014080509656461755477697374060B51153EC846500000000FC83D797C10000003F20F5E5D07F
330
3C1
 94
        0
1001
ACAD
1000
AcRTDxfName
1000
ACIMDBLSTATICVAR
1000
AcRTDxfName
1000
ACIMDBLSTATICVAR
1000
AcRTDxfName
1000
ACIMDBLSTATICVAR
1000
AcRTDxfName
1000
ACIMDBLSTATICVAR
1000
AcRTDxfName
1000
ACIMDBLSTATICVAR
  0
ACAD_PROXY_OBJECT
  5
2285
330
0
100
AcDbProxyObject
 90
      499
 91
      539
 95
   983063
 70
     0
 93
      294
310
000140C050A656467654F75747075740144F3B7F635ECB74A140A4817D41BDB1E5B1A5B997
330
3C1
 94
        0
1001
ACAD
1000
AcRTDxfName
1000
ACIMSTRSTATICVAR
1000
AcRTDxfName
1000
ACIMSTRSTATICVAR
1000
AcRTDxfName
1000
ACIMSTRSTATICVAR
1000
AcRTDxfName
1000
ACIMSTRSTATICVAR
1000
AcRTDxfName
1000
ACIMSTRSTATICVAR
  0
ACAD_PROXY_OBJECT
  5
2286
330
0
100
AcDbProxyObject
 90
      499
 91
      540
 95
   983063
 70
     0
 93
      154
310
0001404050B6564697450726576696577406407F
330
3C1
 94
        0
1001
ACAD
1000
AcRTDxfName
1000
ACIMINTSTATICVAR
1000
AcRTDxfName
1000
ACIMINTSTATICVAR
1000
AcRTDxfName
1000
ACIMINTSTATICVAR
1000
AcRTDxfName
1000
ACIMINTSTATICVAR
1000
AcRTDxfName
1000
ACIMINTSTATICVAR
  0
ACAD_PROXY_OBJECT
  5
2287
330
0
100
AcDbProxyObject
 90
      499
 91
      540
 95
   983063
 70
     0
 93
      170
310
0001404050A666C6F77556C696E657342A3A00C0003F
330
3C1
 94
        0
1001
ACAD
1000
AcRTDxfName
1000
ACIMINTSTATICVAR
1000
AcRTDxfName
1000
ACIMINTSTATICVAR
1000
AcRTDxfName
1000
ACIMINTSTATICVAR
1000
AcRTDxfName
1000
ACIMINTSTATICVAR
1000
AcRTDxfName
1000
ACIMINTSTATICVAR
  0
ACAD_PROXY_OBJECT
  5
2288
330
0
100
AcDbProxyObject
 90
      499
 91
      540
 95
   983063
 70
     0
 93
      170
310
0001404050A666C6F77566C696E657342A3A00C0003F
330
3C1
 94
        0
1001
ACAD
1000
AcRTDxfName
1000
ACIMINTSTATICVAR
1000
AcRTDxfName
1000
ACIMINTSTATICVAR
1000
AcRTDxfName
1000
ACIMINTSTATICVAR
1000
AcRTDxfName
1000
ACIMINTSTATICVAR
1000
AcRTDxfName
1000
ACIMINTSTATICVAR
  0
ACAD_PROXY_OBJECT
  5
2289
330
0
100
AcDbProxyObject
 90
      499
 91
      538
 95
   983063
 70
     0
 93
      322
310
0001408050A666C7366456E645261640000000000003C2FC000000000000F0BF0000003F20F5E5D07F
330
3C1
 94
        0
1001
ACAD
1000
AcRTDxfName
1000
ACIMDBLSTATICVAR
1000
AcRTDxfName
1000
ACIMDBLSTATICVAR
1000
AcRTDxfName
1000
ACIMDBLSTATICVAR
1000
AcRTDxfName
1000
ACIMDBLSTATICVAR
1000
AcRTDxfName
1000
ACIMDBLSTATICVAR
  0
ACAD_PROXY_OBJECT
  5
228A
330
0
100
AcDbProxyObject
 90
      499
 91
      539
 95
   983063
 70
     0
 93
      246
310
000140C05086A6E33644D6F64650143E3BA24EB8A134A4817D3585B9D585B3
330
3C1
 94
        0
1001
ACAD
1000
AcRTDxfName
1000
ACIMSTRSTATICVAR
1000
AcRTDxfName
1000
ACIMSTRSTATICVAR
1000
AcRTDxfName
1000
ACIMSTRSTATICVAR
1000
AcRTDxfName
1000
ACIMSTRSTATICVAR
1000
AcRTDxfName
1000
ACIMSTRSTATICVAR
  0
ACAD_PROXY_OBJECT
  5
228B
330
0
100
AcDbProxyObject
 90
      499
 91
      539
 95
   983063
 70
     0
 93
      294
310
000140C050A6A6E33644F75747075740144F3B7F635ECB74A140A4817D41BDB1E5B1A5B997
330
3C1
 94
        0
1001
ACAD
1000
AcRTDxfName
1000
ACIMSTRSTATICVAR
1000
AcRTDxfName
1000
ACIMSTRSTATICVAR
1000
AcRTDxfName
1000
ACIMSTRSTATICVAR
1000
AcRTDxfName
1000
ACIMSTRSTATICVAR
1000
AcRTDxfName
1000
ACIMSTRSTATICVAR
  0
ACAD_PROXY_OBJECT
  5
228C
330
0
100
AcDbProxyObject
 90
      499
 91
      538
 95
   983063
 70
     0
 93
      306
310
000140805086C656E675065726300000000002016D002D431CEBE2361A3F0000003F20F5E5D07F
330
3C1
 94
        0
1001
ACAD
1000
AcRTDxfName
1000
ACIMDBLSTATICVAR
1000
AcRTDxfName
1000
ACIMDBLSTATICVAR
1000
AcRTDxfName
1000
ACIMDBLSTATICVAR
1000
AcRTDxfName
1000
ACIMDBLSTATICVAR
1000
AcRTDxfName
1000
ACIMDBLSTATICVAR
  0
ACAD_PROXY_OBJECT
  5
228D
330
0
100
AcDbProxyObject
 90
      499
 91
      538
 95
   983063
 70
     0
 93
      266
310
0001408050B6D61737344656E7369747942D431CEBE2361A3F0000003F20F5E5D07F
330
3C1
 94
        0
1001
ACAD
1000
AcRTDxfName
1000
ACIMDBLSTATICVAR
1000
AcRTDxfName
1000
ACIMDBLSTATICVAR
1000
AcRTDxfName
1000
ACIMDBLSTATICVAR
1000
AcRTDxfName
1000
ACIMDBLSTATICVAR
1000
AcRTDxfName
1000
ACIMDBLSTATICVAR
  0
ACAD_PROXY_OBJECT
  5
228E
330
0
100
AcDbProxyObject
 90
      499
 91
      538
 95
   983063
 70
     0
 93
      186
310
000140805096D617373546869636BA0000003F20F5E5D07F
330
3C1
 94
        0
1001
ACAD
1000
AcRTDxfName
1000
ACIMDBLSTATICVAR
1000
AcRTDxfName
1000
ACIMDBLSTATICVAR
1000
AcRTDxfName
1000
ACIMDBLSTATICVAR
1000
AcRTDxfName
1000
ACIMDBLSTATICVAR
1000
AcRTDxfName
1000
ACIMDBLSTATICVAR
  0
ACAD_PROXY_OBJECT
  5
228F
330
0
100
AcDbProxyObject
 90
      499
 91
      539
 95
   983063
 70
     0
 93
      230
310
000140C05086D6173735479706501436F2AB64A14CA4817D4DA195B1B3
330
3C1
 94
        0
1001
ACAD
1000
AcRTDxfName
1000
ACIMSTRSTATICVAR
1000
AcRTDxfName
1000
ACIMSTRSTATICVAR
1000
AcRTDxfName
1000
ACIMSTRSTATICVAR
1000
AcRTDxfName
1000
ACIMSTRSTATICVAR
1000
AcRTDxfName
1000
ACIMSTRSTATICVAR
  0
ACAD_PROXY_OBJECT
  5
2290
330
0
100
AcDbProxyObject
 90
      499
 91
      538
 95
   983063
 70
     0
 93
      242
310
000140805086F667366446973744000000FC83D797C10000003F20F5E5D07F
330
3C1
 94
        0
1001
ACAD
1000
AcRTDxfName
1000
ACIMDBLSTATICVAR
1000
AcRTDxfName
1000
ACIMDBLSTATICVAR
1000
AcRTDxfName
1000
ACIMDBLSTATICVAR
1000
AcRTDxfName
1000
ACIMDBLSTATICVAR
1000
AcRTDxfName
1000
ACIMDBLSTATICVAR
  0
ACAD_PROXY_OBJECT
  5
2291
330
0
100
AcDbProxyObject
 90
      499
 91
      538
 95
   983063
 70
     0
 93
      258
310
0001408050A7072696D52616469757342D431CEBE2361A3F0000003F20F5E5D07F
330
3C1
 94
        0
1001
ACAD
1000
AcRTDxfName
1000
ACIMDBLSTATICVAR
1000
AcRTDxfName
1000
ACIMDBLSTATICVAR
1000
AcRTDxfName
1000
ACIMDBLSTATICVAR
1000
AcRTDxfName
1000
ACIMDBLSTATICVAR
1000
AcRTDxfName
1000
ACIMDBLSTATICVAR
  0
ACAD_PROXY_OBJECT
  5
2292
330
0
100
AcDbProxyObject
 90
      499
 91
      538
 95
   983063
 70
     0
 93
      194
310
0001408050A7072696D546F70526164A0000003F20F5E5D07F
330
3C1
 94
        0
1001
ACAD
1000
AcRTDxfName
1000
ACIMDBLSTATICVAR
1000
AcRTDxfName
1000
ACIMDBLSTATICVAR
1000
AcRTDxfName
1000
ACIMDBLSTATICVAR
1000
AcRTDxfName
1000
ACIMDBLSTATICVAR
1000
AcRTDxfName
1000
ACIMDBLSTATICVAR
  0
ACAD_PROXY_OBJECT
  5
2293
330
0
100
AcDbProxyObject
 90
      499
 91
      538
 95
   983063
 70
     0
 93
      266
310
0001408050B7072696D5475626552616442D431CEBE2361A3F0000003F20F5E5D07F
330
3C1
 94
        0
1001
ACAD
1000
AcRTDxfName
1000
ACIMDBLSTATICVAR
1000
AcRTDxfName
1000
ACIMDBLSTATICVAR
1000
AcRTDxfName
1000
ACIMDBLSTATICVAR
1000
AcRTDxfName
1000
ACIMDBLSTATICVAR
1000
AcRTDxfName
1000
ACIMDBLSTATICVAR
  0
ACAD_PROXY_OBJECT
  5
2294
330
0
100
AcDbProxyObject
 90
      499
 91
      538
 95
   983063
 70
     0
 93
      258
310
0001408050A7072696D4865696768744000000FC83D797C10000003F20F5E5D07F
330
3C1
 94
        0
1001
ACAD
1000
AcRTDxfName
1000
ACIMDBLSTATICVAR
1000
AcRTDxfName
1000
ACIMDBLSTATICVAR
1000
AcRTDxfName
1000
ACIMDBLSTATICVAR
1000
AcRTDxfName
1000
ACIMDBLSTATICVAR
1000
AcRTDxfName
1000
ACIMDBLSTATICVAR
  0
ACAD_PROXY_OBJECT
  5
2295
330
0
100
AcDbProxyObject
 90
      499
 91
      538
 95
   983063
 70
     0
 93
      250
310
000140805097072696D5374416E678182D4454FB2119C0060B51153EC846503F
330
3C1
 94
        0
1001
ACAD
1000
AcRTDxfName
1000
ACIMDBLSTATICVAR
1000
AcRTDxfName
1000
ACIMDBLSTATICVAR
1000
AcRTDxfName
1000
ACIMDBLSTATICVAR
1000
AcRTDxfName
1000
ACIMDBLSTATICVAR
1000
AcRTDxfName
1000
ACIMDBLSTATICVAR
  0
ACAD_PROXY_OBJECT
  5
2296
330
0
100
AcDbProxyObject
 90
      499
 91
      538
 95
   983063
 70
     0
 93
      322
310
0001408050A7072696D456E64416E67060B51153EC846500182D4454FB2119C0060B51153EC846503F
330
3C1
 94
        0
1001
ACAD
1000
AcRTDxfName
1000
ACIMDBLSTATICVAR
1000
AcRTDxfName
1000
ACIMDBLSTATICVAR
1000
AcRTDxfName
1000
ACIMDBLSTATICVAR
1000
AcRTDxfName
1000
ACIMDBLSTATICVAR
1000
AcRTDxfName
1000
ACIMDBLSTATICVAR
  0
ACAD_PROXY_OBJECT
  5
2297
330
0
100
AcDbProxyObject
 90
      499
 91
      538
 95
   983063
 70
     0
 93
      242
310
000140805087265765374416E678182D4454FB2119C0060B51153EC846503F
330
3C1
 94
        0
1001
ACAD
1000
AcRTDxfName
1000
ACIMDBLSTATICVAR
1000
AcRTDxfName
1000
ACIMDBLSTATICVAR
1000
AcRTDxfName
1000
ACIMDBLSTATICVAR
1000
AcRTDxfName
1000
ACIMDBLSTATICVAR
1000
AcRTDxfName
1000
ACIMDBLSTATICVAR
  0
ACAD_PROXY_OBJECT
  5
2298
330
0
100
AcDbProxyObject
 90
      499
 91
      538
 95
   983063
 70
     0
 93
      314
310
00014080509726576456E64416E67060B51153EC846500182D4454FB2119C0060B51153EC846503F
330
3C1
 94
        0
1001
ACAD
1000
AcRTDxfName
1000
ACIMDBLSTATICVAR
1000
AcRTDxfName
1000
ACIMDBLSTATICVAR
1000
AcRTDxfName
1000
ACIMDBLSTATICVAR
1000
AcRTDxfName
1000
ACIMDBLSTATICVAR
1000
AcRTDxfName
1000
ACIMDBLSTATICVAR
  0
ACAD_PROXY_OBJECT
  5
2299
330
0
100
AcDbProxyObject
 90
      499
 91
      540
 95
   983063
 70
     0
 93
      194
310
0001404050C7266736655706174636865734290139C0C0003F
330
3C1
 94
        0
1001
ACAD
1000
AcRTDxfName
1000
ACIMINTSTATICVAR
1000
AcRTDxfName
1000
ACIMINTSTATICVAR
1000
AcRTDxfName
1000
ACIMINTSTATICVAR
1000
AcRTDxfName
1000
ACIMINTSTATICVAR
1000
AcRTDxfName
1000
ACIMINTSTATICVAR
  0
ACAD_PROXY_OBJECT
  5
229A
330
0
100
AcDbProxyObject
 90
      499
 91
      540
 95
   983063
 70
     0
 93
      194
310
0001404050C7266736656706174636865734290139C0C0003F
330
3C1
 94
        0
1001
ACAD
1000
AcRTDxfName
1000
ACIMINTSTATICVAR
1000
AcRTDxfName
1000
ACIMINTSTATICVAR
1000
AcRTDxfName
1000
ACIMINTSTATICVAR
1000
AcRTDxfName
1000
ACIMINTSTATICVAR
1000
AcRTDxfName
1000
ACIMINTSTATICVAR
  0
ACAD_PROXY_OBJECT
  5
229B
330
0
100
AcDbProxyObject
 90
      499
 91
      539
 95
   983063
 70
     0
 93
      246
310
000140C0508747562654D6F64650143E3BA24EB8A134A4817D3585B9D585B3
330
3C1
 94
        0
1001
ACAD
1000
AcRTDxfName
1000
ACIMSTRSTATICVAR
1000
AcRTDxfName
1000
ACIMSTRSTATICVAR
1000
AcRTDxfName
1000
ACIMSTRSTATICVAR
1000
AcRTDxfName
1000
ACIMSTRSTATICVAR
1000
AcRTDxfName
1000
ACIMSTRSTATICVAR
  0
ACAD_PROXY_OBJECT
  5
229C
330
0
100
AcDbProxyObject
 90
      499
 91
      538
 95
   983063
 70
     0
 93
      274
310
0001408050C747562654469616D6574657242D431CEBE2361A3F0000003F20F5E5D07F
330
3C1
 94
        0
1001
ACAD
1000
AcRTDxfName
1000
ACIMDBLSTATICVAR
1000
AcRTDxfName
1000
ACIMDBLSTATICVAR
1000
AcRTDxfName
1000
ACIMDBLSTATICVAR
1000
AcRTDxfName
1000
ACIMDBLSTATICVAR
1000
AcRTDxfName
1000
ACIMDBLSTATICVAR
  0
ACAD_PROXY_OBJECT
  5
229D
330
0
100
AcDbProxyObject
 90
      499
 91
      538
 95
   983063
 70
     0
 93
      314
310
00014080509626C656E644261636B0000000000000D1002D431CEBE2361A3F00000000000016503F
330
3C1
 94
        0
1001
ACAD
1000
AcRTDxfName
1000
ACIMDBLSTATICVAR
1000
AcRTDxfName
1000
ACIMDBLSTATICVAR
1000
AcRTDxfName
1000
ACIMDBLSTATICVAR
1000
AcRTDxfName
1000
ACIMDBLSTATICVAR
1000
AcRTDxfName
1000
ACIMDBLSTATICVAR
  0
ACAD_PROXY_OBJECT
  5
229E
330
0
100
AcDbProxyObject
 90
      499
 91
      540
 95
   983063
 70
     0
 93
      130
310
00014040509696E746572506F6C79A407F
330
3C1
 94
        0
1001
ACAD
1000
AcRTDxfName
1000
ACIMINTSTATICVAR
1000
AcRTDxfName
1000
ACIMINTSTATICVAR
1000
AcRTDxfName
1000
ACIMINTSTATICVAR
1000
AcRTDxfName
1000
ACIMINTSTATICVAR
1000
AcRTDxfName
1000
ACIMINTSTATICVAR
  0
ACAD_PROXY_OBJECT
  5
229F
330
0
100
AcDbProxyObject
 90
      499
 91
      540
 95
   983063
 70
     0
 93
      146
310
0001404050A70726F6A4F757470757440A40BF
330
3C1
 94
        0
1001
ACAD
1000
AcRTDxfName
1000
ACIMINTSTATICVAR
1000
AcRTDxfName
1000
ACIMINTSTATICVAR
1000
AcRTDxfName
1000
ACIMINTSTATICVAR
1000
AcRTDxfName
1000
ACIMINTSTATICVAR
1000
AcRTDxfName
1000
ACIMINTSTATICVAR
  0
ACAD_PROXY_OBJECT
  5
22A9
330
0
100
AcDbProxyObject
 90
      499
 91
      547
 95
   983063
 70
     0
 93
      666
310
0001000000009AA6A9AA40518576564204D61792031342032303A31383A3032203230303301420D0B8C4B8CCB8C4C00518576564204D61792031342032303A32303A3238203230303301420D0B8C4B8CCB8C4C3F
330
3C1
330
22AA
330
22AB
330
22AD
330
0
 94
        0
1001
ACAD
1000
AcRTDxfName
1000
ADAPPL
1000
AcRTDxfName
1000
ADAPPL
1000
AcRTDxfName
1000
ADAPPL
1000
AcRTDxfName
1000
ADAPPL
1000
AcRTDxfName
1000
ADAPPL
  0
ACAD_PROXY_OBJECT
  5
22AA
330
0
100
AcDbProxyObject
 90
      499
 91
      548
 95
   983063
 70
     0
 93
       70
310
0001AAA80820000003
330
3C1
330
22AA
330
22AA
 94
        0
1001
ACAD
1000
AcRTDxfName
1000
DEPMGR
1000
AcRTDxfName
1000
DEPMGR
1000
AcRTDxfName
1000
DEPMGR
1000
AcRTDxfName
1000
DEPMGR
1000
AcRTDxfName
1000
DEPMGR
  0
ACAD_PROXY_OBJECT
  5
22AB
330
0
100
AcDbProxyObject
 90
      499
 91
      549
 95
   983063
 70
     0
 93
       48
310
00010000000037
330
3C1
330
0
330
22AC
330
0
330
0
 94
        0
1001
ACAD
1000
AcRTDxfName
1000
PARAMMGR
1000
AcRTDxfName
1000
PARAMMGR
1000
AcRTDxfName
1000
PARAMMGR
1000
AcRTDxfName
1000
PARAMMGR
1000
AcRTDxfName
1000
PARAMMGR
  0
ACAD_PROXY_OBJECT
  5
22AC
330
0
100
AcDbProxyObject
 90
      499
 91
      550
 95
   983063
 70
     0
 93
       40
310
000100AAAA00
330
3C1
330
0
 94
        0
1001
ACAD
1000
AcRTDxfName
1000
PARAMSCOPE
1000
AcRTDxfName
1000
PARAMSCOPE
1000
AcRTDxfName
1000
PARAMSCOPE
1000
AcRTDxfName
1000
PARAMSCOPE
1000
AcRTDxfName
1000
PARAMSCOPE
  0
ACAD_PROXY_OBJECT
  5
22AE
330
0
100
AcDbProxyObject
 90
      499
 91
      508
 95
   983063
 70
     0
 93
      124
310
00010142905350D3D39114D414D6905F
330
3C1
 94
        0
1001
ACAD
1000
AcRTDxfName
1000
ACIMINTSYSVAR
1000
AcRTDxfName
1000
ACIMINTSYSVAR
1000
AcRTDxfName
1000
ACIMINTSYSVAR
1000
AcRTDxfName
1000
ACIMINTSYSVAR
1000
AcRTDxfName
1000
ACIMINTSYSVAR
  0
ACAD_PROXY_OBJECT
  5
22AF
330
0
100
AcDbProxyObject
 90
      499
 91
      508
 95
   983063
 70
     0
 93
      124
310
000101429053549553115353D111501F
330
3C1
 94
        0
1001
ACAD
1000
AcRTDxfName
1000
ACIMINTSYSVAR
1000
AcRTDxfName
1000
ACIMINTSYSVAR
1000
AcRTDxfName
1000
ACIMINTSYSVAR
1000
AcRTDxfName
1000
ACIMINTSYSVAR
1000
AcRTDxfName
1000
ACIMINTSYSVAR
  0
ACAD_PROXY_OBJECT
  5
22B0
330
0
100
AcDbProxyObject
 90
      499
 91
      508
 95
   983063
 70
     0
 93
      108
310
00010142105354D2D353D111501F
330
3C1
 94
        0
1001
ACAD
1000
AcRTDxfName
1000
ACIMINTSYSVAR
1000
AcRTDxfName
1000
ACIMINTSYSVAR
1000
AcRTDxfName
1000
ACIMINTSYSVAR
1000
AcRTDxfName
1000
ACIMINTSYSVAR
1000
AcRTDxfName
1000
ACIMINTSYSVAR
  0
ACAD_PROXY_OBJECT
  5
22B1
330
0
100
AcDbProxyObject
 90
      499
 91
      508
 95
   983063
 70
     0
 93
      140
310
000101435053511253511254D41353D1116F
330
3C1
 94
        0
1001
ACAD
1000
AcRTDxfName
1000
ACIMINTSYSVAR
1000
AcRTDxfName
1000
ACIMINTSYSVAR
1000
AcRTDxfName
1000
ACIMINTSYSVAR
1000
AcRTDxfName
1000
ACIMINTSYSVAR
1000
AcRTDxfName
1000
ACIMINTSYSVAR
  0
ACAD_PROXY_OBJECT
  5
22B2
330
0
100
AcDbProxyObject
 90
      499
 91
      507
 95
   983063
 70
     0
 93
      180
310
00010142905354D2D05391D513D300000000000001040F
330
3C1
 94
        0
1001
ACAD
1000
AcRTDxfName
1000
ACIMREALSYSVAR
1000
AcRTDxfName
1000
ACIMREALSYSVAR
1000
AcRTDxfName
1000
ACIMREALSYSVAR
1000
AcRTDxfName
1000
ACIMREALSYSVAR
1000
AcRTDxfName
1000
ACIMREALSYSVAR
  0
ACAD_PROXY_OBJECT
  5
22B3
330
0
100
AcDbProxyObject
 90
      499
 91
      537
 95
   983063
 70
     0
 93
      164
310
00010142505354D2D4D516531140505434F4E542AF
330
3C1
 94
        0
1001
ACAD
1000
AcRTDxfName
1000
ACIMSTRSYSVAR
1000
AcRTDxfName
1000
ACIMSTRSYSVAR
1000
AcRTDxfName
1000
ACIMSTRSYSVAR
1000
AcRTDxfName
1000
ACIMSTRSYSVAR
1000
AcRTDxfName
1000
ACIMSTRSYSVAR
  0
ACAD_PROXY_OBJECT
  5
22B4
330
0
100
AcDbProxyObject
 90
      499
 91
      508
 95
   983063
 70
     0
 93
      108
310
00010142105350D351111253501F
330
3C1
 94
        0
1001
ACAD
1000
AcRTDxfName
1000
ACIMINTSYSVAR
1000
AcRTDxfName
1000
ACIMINTSYSVAR
1000
AcRTDxfName
1000
ACIMINTSYSVAR
1000
AcRTDxfName
1000
ACIMINTSYSVAR
1000
AcRTDxfName
1000
ACIMINTSYSVAR
  0
ACAD_PROXY_OBJECT
  5
22B5
330
0
100
AcDbProxyObject
 90
      499
 91
      508
 95
   983063
 70
     0
 93
      108
310
00010142105350D3D35414D5901F
330
3C1
 94
        0
1001
ACAD
1000
AcRTDxfName
1000
ACIMINTSYSVAR
1000
AcRTDxfName
1000
ACIMINTSYSVAR
1000
AcRTDxfName
1000
ACIMINTSYSVAR
1000
AcRTDxfName
1000
ACIMINTSYSVAR
1000
AcRTDxfName
1000
ACIMINTSYSVAR
  0
ACAD_PROXY_OBJECT
  5
22B6
330
0
100
AcDbProxyObject
 90
      499
 91
      537
 95
   983063
 70
     0
 93
      164
310
0001014290535410549514D411960050450415254F
330
3C1
 94
        0
1001
ACAD
1000
AcRTDxfName
1000
ACIMSTRSYSVAR
1000
AcRTDxfName
1000
ACIMSTRSYSVAR
1000
AcRTDxfName
1000
ACIMSTRSYSVAR
1000
AcRTDxfName
1000
ACIMSTRSYSVAR
1000
AcRTDxfName
1000
ACIMSTRSYSVAR
  0
ACAD_PROXY_OBJECT
  5
22B7
330
0
100
AcDbProxyObject
 90
      499
 91
      537
 95
   983063
 70
     0
 93
      220
310
0001014350535513D3D31093D11654119600508544F4F4C424F4459F
330
3C1
 94
        0
1001
ACAD
1000
AcRTDxfName
1000
ACIMSTRSYSVAR
1000
AcRTDxfName
1000
ACIMSTRSYSVAR
1000
AcRTDxfName
1000
ACIMSTRSYSVAR
1000
AcRTDxfName
1000
ACIMSTRSYSVAR
1000
AcRTDxfName
1000
ACIMSTRSYSVAR
  0
ACAD_PROXY_OBJECT
  5
22B8
330
0
100
AcDbProxyObject
 90
      499
 91
      508
 95
   983063
 70
     0
 93
      116
310
000101425053511254D410D3D3901F
330
3C1
 94
        0
1001
ACAD
1000
AcRTDxfName
1000
ACIMINTSYSVAR
1000
AcRTDxfName
1000
ACIMINTSYSVAR
1000
AcRTDxfName
1000
ACIMINTSYSVAR
1000
AcRTDxfName
1000
ACIMINTSYSVAR
1000
AcRTDxfName
1000
ACIMINTSYSVAR
  0
ACAD_PROXY_OBJECT
  5
22B9
330
0
100
AcDbProxyObject
 90
      499
 91
      508
 95
   983063
 70
     0
 93
      108
310
00010142105350D3D39114D4101F
330
3C1
 94
        0
1001
ACAD
1000
AcRTDxfName
1000
ACIMINTSYSVAR
1000
AcRTDxfName
1000
ACIMINTSYSVAR
1000
AcRTDxfName
1000
ACIMINTSYSVAR
1000
AcRTDxfName
1000
ACIMINTSYSVAR
1000
AcRTDxfName
1000
ACIMINTSYSVAR
  0
ACAD_PROXY_OBJECT
  5
22BA
330
0
100
AcDbProxyObject
 90
      499
 91
      508
 95
   983063
 70
     0
 93
      124
310
0001014290535490511114D414D6919F
330
3C1
 94
        0
1001
ACAD
1000
AcRTDxfName
1000
ACIMINTSYSVAR
1000
AcRTDxfName
1000
ACIMINTSYSVAR
1000
AcRTDxfName
1000
ACIMINTSYSVAR
1000
AcRTDxfName
1000
ACIMINTSYSVAR
1000
AcRTDxfName
1000
ACIMINTSYSVAR
  0
ACAD_PROXY_OBJECT
  5
22BC
330
0
100
AcDbProxyObject
 90
      499
 91
      552
 95
   983063
 70
     0
 93
     3196
310
0001419088050A544852555F4452494C4C0142D09312539117D1149253130050A544852555F43424F52450142D09312539117D0D093D4914050A544852555F4353494E4B0142D09312539117D0D4D25392D0642201459EC94958C8094950535112504815121493D551D20B9F4051C7B252563202525414D444941205820252
310
5414D44455020444545507D014F5EC94958C8094950535112504815121493D551D20B9F57141ED0D093D49148094958C80949505350D112504816080949505350D091115408111151541F405437B252563202525414D4449412058202525414D44455020444545507D5C507B43424F524520252563202525414D4344494120
310
58202525414D434244455020444545507D014EDEC94958C8094950535112504815121493D551D20B9F57141ED0D4D25392C8094958C80949505350D112504816080949505350D4D05391C949591F405417B252563202525414D4449412058202525414D44455020444545507D5C507B4353494E4B20252563202525414D434
310
449412058202525414D4353414E472525647DF
330
3C1
 94
        0
1001
ACAD
1000
AcRTDxfName
1000
ADHNTMPLT
1000
AcRTDxfName
1000
ADHNTMPLT
1000
AcRTDxfName
1000
ADHNTMPLT
1000
AcRTDxfName
1000
ADHNTMPLT
1000
AcRTDxfName
1000
ADHNTMPLT
  0
ACAD_PROXY_OBJECT
  5
22BE
330
0
100
AcDbProxyObject
 90
      499
 91
      508
 95
   983063
 70
     0
 93
      140
310
00010143105354D554141490D3D313D4906F
330
3C1
 94
        0
1001
ACAD
1000
AcRTDxfName
1000
ACIMINTSYSVAR
1000
AcRTDxfName
1000
ACIMINTSYSVAR
1000
AcRTDxfName
1000
ACIMINTSYSVAR
1000
AcRTDxfName
1000
ACIMINTSYSVAR
1000
AcRTDxfName
1000
ACIMINTSYSVAR
  0
ACAD_PROXY_OBJECT
  5
22C1
330
0
100
AcDbProxyObject
 90
      499
 91
      508
 95
   983063
 70
     0
 93
      132
310
00010142D05050555513D4D3D31591501F
330
3C1
 94
        0
1001
ACAD
1000
AcRTDxfName
1000
ACIMINTSYSVAR
1000
AcRTDxfName
1000
ACIMINTSYSVAR
1000
AcRTDxfName
1000
ACIMINTSYSVAR
1000
AcRTDxfName
1000
ACIMINTSYSVAR
1000
AcRTDxfName
1000
ACIMINTSYSVAR
  0
ACAD_PROXY_OBJECT
  5
22C2
330
0
100
AcDbProxyObject
 90
      499
 91
      508
 95
   983063
 70
     0
 93
      156
310
00010143905050555513D054D4D153509311501F
330
3C1
 94
        0
1001
ACAD
1000
AcRTDxfName
1000
ACIMINTSYSVAR
1000
AcRTDxfName
1000
ACIMINTSYSVAR
1000
AcRTDxfName
1000
ACIMINTSYSVAR
1000
AcRTDxfName
1000
ACIMINTSYSVAR
1000
AcRTDxfName
1000
ACIMINTSYSVAR
  0
ACAD_PROXY_OBJECT
  5
22C3
330
0
100
AcDbProxyObject
 90
      499
 91
      508
 95
   983063
 70
     0
 93
      148
310
00010143505055925155D49154D513D491501F
330
3C1
 94
        0
1001
ACAD
1000
AcRTDxfName
1000
ACIMINTSYSVAR
1000
AcRTDxfName
1000
ACIMINTSYSVAR
1000
AcRTDxfName
1000
ACIMINTSYSVAR
1000
AcRTDxfName
1000
ACIMINTSYSVAR
1000
AcRTDxfName
1000
ACIMINTSYSVAR
  0
ACAD_PROXY_OBJECT
  5
22C4
330
0
100
AcDbProxyObject
 90
      499
 91
      508
 95
   983063
 70
     0
 93
      124
310
00010142D050525394D15495105094EF
330
3C1
 94
        0
1001
ACAD
1000
AcRTDxfName
1000
ACIMINTSYSVAR
1000
AcRTDxfName
1000
ACIMINTSYSVAR
1000
AcRTDxfName
1000
ACIMINTSYSVAR
1000
AcRTDxfName
1000
ACIMINTSYSVAR
1000
AcRTDxfName
1000
ACIMINTSYSVAR
  0
ACAD_PROXY_OBJECT
  5
22C5
330
0
100
AcDbProxyObject
 90
      499
 91
      508
 95
   983063
 70
     0
 93
      148
310
00010143505054D0D15391555411105511501F
330
3C1
 94
        0
1001
ACAD
1000
AcRTDxfName
1000
ACIMINTSYSVAR
1000
AcRTDxfName
1000
ACIMINTSYSVAR
1000
AcRTDxfName
1000
ACIMINTSYSVAR
1000
AcRTDxfName
1000
ACIMINTSYSVAR
1000
AcRTDxfName
1000
ACIMINTSYSVAR
  0
ACAD_PROXY_OBJECT
  5
22C6
330
0
100
AcDbProxyObject
 90
      499
 91
      537
 95
   983063
 70
     0
 93
      172
310
00010143105054D5509054D4D354119600503535542F
330
3C1
 94
        0
1001
ACAD
1000
AcRTDxfName
1000
ACIMSTRSYSVAR
1000
AcRTDxfName
1000
ACIMSTRSYSVAR
1000
AcRTDxfName
1000
ACIMSTRSYSVAR
1000
AcRTDxfName
1000
ACIMSTRSYSVAR
1000
AcRTDxfName
1000
ACIMSTRSYSVAR
  0
ACAD_PROXY_OBJECT
  5
22C7
330
0
100
AcDbProxyObject
 90
      499
 91
      537
 95
   983063
 70
     0
 93
      172
310
00010142905054D0D15391541196005055343454E45F
330
3C1
 94
        0
1001
ACAD
1000
AcRTDxfName
1000
ACIMSTRSYSVAR
1000
AcRTDxfName
1000
ACIMSTRSYSVAR
1000
AcRTDxfName
1000
ACIMSTRSYSVAR
1000
AcRTDxfName
1000
ACIMSTRSYSVAR
1000
AcRTDxfName
1000
ACIMSTRSYSVAR
  0
ACAD_PROXY_OBJECT
  5
22C8
330
0
100
AcDbProxyObject
 90
      499
 91
      508
 95
   983063
 70
     0
 93
      148
310
00010143505350555513D313D0D2D4D0D3901F
330
3C1
 94
        0
1001
ACAD
1000
AcRTDxfName
1000
ACIMINTSYSVAR
1000
AcRTDxfName
1000
ACIMINTSYSVAR
1000
AcRTDxfName
1000
ACIMINTSYSVAR
1000
AcRTDxfName
1000
ACIMINTSYSVAR
1000
AcRTDxfName
1000
ACIMINTSYSVAR
  0
ACAD_PROXY_OBJECT
  5
22CD
330
0
100
AcDbProxyObject
 90
      499
 91
      556
 95
   983063
 70
     0
 93
       32
310
0001000000
330
3C1
340
22CA
330
22CF
330
22CA
 94
        0
1001
ACAD
1000
AcRTDxfName
1000
ACAMGRCOMPDEF
1000
AcRTDxfName
1000
ACAMGRCOMPDEF
1000
AcRTDxfName
1000
ACAMGRCOMPDEF
1000
AcRTDxfName
1000
ACAMGRCOMPDEF
1000
AcRTDxfName
1000
ACAMGRCOMPDEF
  0
ACAD_PROXY_OBJECT
  5
22CE
330
0
100
AcDbProxyObject
 90
      499
 91
      557
 95
   983063
 70
     0
 93
       18
310
0001BF
330
3C1
 94
        0
1001
ACAD
1000
AcRTDxfName
1000
ACCMCONTEXT
1000
AcRTDxfName
1000
ACCMCONTEXT
1000
AcRTDxfName
1000
ACCMCONTEXT
1000
AcRTDxfName
1000
ACCMCONTEXT
1000
AcRTDxfName
1000
ACCMCONTEXT
  0
ACAD_PROXY_OBJECT
  5
22CF
330
0
100
AcDbProxyObject
 90
      499
 91
      558
 95
   983063
 70
     0
 93
      119
310
000101419514D14D0D4D5050055401
330
3C1
330
22CD
330
22CE
 94
        0
1001
ACAD
1000
AcRTDxfName
1000
ACAMCOMPDEF
1000
AcRTDxfName
1000
ACAMCOMPDEF
1000
AcRTDxfName
1000
ACAMCOMPDEF
1000
AcRTDxfName
1000
ACAMCOMPDEF
1000
AcRTDxfName
1000
ACAMCOMPDEF
  0
ACAD_PROXY_OBJECT
  5
22D0
330
0
100
AcDbProxyObject
 90
      499
 91
      559
 95
   983063
 70
     0
 93
       40
310
000100AAAA00
330
3C1
330
22CF
 94
        0
1001
ACAD
1000
AcRTDxfName
1000
ACAMCOMPDEFMGR
1000
AcRTDxfName
1000
ACAMCOMPDEFMGR
1000
AcRTDxfName
1000
ACAMCOMPDEFMGR
1000
AcRTDxfName
1000
ACAMCOMPDEFMGR
1000
AcRTDxfName
1000
ACAMCOMPDEFMGR
  0
ACAD_PROXY_OBJECT
  5
22D1
330
0
100
AcDbProxyObject
 90
      499
 91
      560
 95
   983063
 70
     0
 93
       96
310
0001901422000000000000AA00
330
3C1
330
22D2
330
22D2
330
22D2
330
22D2
330
22D2
330
0
 94
        0
1001
ACAD
1000
AcRTDxfName
1000
AMCONTEXTMGR
1000
AcRTDxfName
1000
AMCONTEXTMGR
1000
AcRTDxfName
1000
AMCONTEXTMGR
1000
AcRTDxfName
1000
AMCONTEXTMGR
1000
AcRTDxfName
1000
AMCONTEXTMGR
  0
ACAD_PROXY_OBJECT
  5
22D2
330
0
100
AcDbProxyObject
 90
      499
 91
      561
 95
   983063
 70
     0
 93
      141
310
00010000406AAAAAAAAAAAAAA9A9806AAAA7
330
3C1
330
22D1
330
22CF
 94
        0
1001
ACAD
1000
AcRTDxfName
1000
ACAMCONTEXTMODELER
1000
AcRTDxfName
1000
ACAMCONTEXTMODELER
1000
AcRTDxfName
1000
ACAMCONTEXTMODELER
1000
AcRTDxfName
1000
ACAMCONTEXTMODELER
1000
AcRTDxfName
1000
ACAMCONTEXTMODELER
  0
DICTIONARY
  5
2238
102
{ACAD_REACTORS
330
2237
102
}
330
2237
100
AcDbDictionary
281
     1
  3
DWGSETTINGS
350
2239
  3
TRANSSETTINGS
350
223D
  0
ACAD_PROXY_OBJECT
  5
22DE
102
{ACAD_REACTORS
330
2237
102
}
330
2237
100
AcDbProxyObject
 90
      499
 91
      568
 95
   983063
 70
     0
 93
    16352
310
40903491013041105357CC10747A404C504414D5F314391E9013241105357CC90547A404CD04414D5F334190F9013441105357CD10343E404D504414D5F3540D0F9013641105357CD90247A404DD04414D5F374110F9013841105357CE10143E404E504414D5F397F641102324141505357CC4C10747A408D10505414D5F31
310
3140D0F902495041505357CC4C90747902408C13905414D5F304E41D1E902314E41505357CC5390E47A408C93905414D5F324E4151E902334E41505357CCD390643E408D13905414D5F344E40D0F902354E41505357CD5390343E408D93905414D5F364E4091E902374E41505357CDD390443E408E13905414D5F384E4050F
310
902394E41505357CE539FD90440CC9053906414D5F31304E41D1E90334414E41905357CC4C5390343E40D25413906414D5F31324E41D1E409044B4C494E41505357D0D310143D094112539193D08414D5F50415245464110F42D055241484D3541905357D093D4907479094115925155D08414D5F56494557534050F42D064
310
24548494E4441905357D253959FD90D415514905253105414D5F545240D0F4250348494441905357D2125110743D0940D59254D06414D5F56495341D1E4250650415244494D42505357D4105491125350343D0941949151911253509414D5F52454644494D4110F4257641105315149013441D1E411091531250134CFFFFFF
310
FF411092139590139CFFFFFFFF415092139594D06424548494E44CFFFFFFFF41109312511023441CFFFFFFFF411093D0541023441CFFFFFFFF411093D48C9055241484D354050F411093D48CD055241484D354091E411093D48D5055241484D35CFFFFFFFF411093D48DD055241484D354793C41109410541023441CFFFFFF
310
FF41109411561023441CFFFFFFFF411095111250135CFFFFFFFF4110D0530C90134CFFFFFFFF4110D0530CD01344091E4110D0530D5013441D1E4110D0530DD01344793C4110D1539390137CFFFFFFFF4110D15395D0137CFFFFFFFF4110D312539044B4C494ECFFFFFFFF4110D3D38C50130CFFFFFFFF4110D3D38C90131C
310
FFFFFFFF4110D3D38CD0132CFFFFFFFF4110D3D38D10132CFFFFFFFF411111549410134CFFFFFFFF411111551050134CFFFFFFFF4111125051D0135CFFFFFFFF411112531250135CFFFFFFFF411112535410650415244494DCFFFFFFFF411112535490652454644494DCFFFFFFFF41115613541023441CFFFFFFFF41119153
310
5390138CFFFFFFFF4151915354139013840CFFFFFFFF4151915354D41023441CFFFFFFFF4151915354D5102344140D0F41519153559390132CFFFFFFFF4151915355951013240D0F411193105510130CFFFFFFFF41119490549023441CFFFFFFFF4111D4931250135CFFFFFFFF4111D593125023441CFFFFFFFF4112105510
310
D0138CFFFFFFFF411212511390133CFFFFFFFF4112125115D0133CFFFFFFFF411213125390134CFFFFFFFF411213D0D390137CFFFFFFFF411213D0D5D0137CFFFFFFFF4112539193D04494E464FCFFFFFFFF411310511250134CFFFFFFFF411311505110135CFFFFFFFF419397D0921395902394ECFFFFFFFF419397D0D3D3
310
8C502304ECFFFFFFFF419397D0D3D38C902314ECFFFFFFFF419397D0D3D38CD02324ECFFFFFFFF419397D0D3D38D102324ECFFFFFFFF419397D0D15393902374ECFFFFFFFF419397D0D15395D02374ECFFFFFFFF419397D1125312502354ECFFFFFFFF419397D2105510D02384ECFFFFFFFF419397D2125113902334ECFFFF
310
FFFF419397D2125115D02334ECFFFFFFFF419397D3115051102354ECFFFFFFFF419397D391D25410349504ECFFFFFFFF419397D412105390334414ECFFFFFFFF419397D510D3D3902304ECFFFFFFFF419397D5121312502344ECFFFFFFFF419397D5131153902304ECFFFFFFFF419397D516150CD02364ECFFFFFFFF419397
310
D594131250332414ECFFFFFFFF411391D2541024950CFFFFFFFF411410530C9055241484D354050F411410530CD055241484D354091E411410530D5055241484D35CFFFFFFFF411410530DD055241484D354793C41141210539023441CFFFFFFFF411413D4D39013641D1E419413D4D49151901364151E411413D4D610136C
310
FFFFFFFF411414D150D023441CFFFFFFFF411490D1D390137CFFFFFFFF411490D1D5D0137CFFFFFFFF411491911250134CFFFFFFFF41149455149013441D1E411494D093D0130CFFFFFFFF4114D09492D013441D1E4114D0D15390137CFFFFFFFF4114D150D510134CFFFFFFFF4114D1531390137CFFFFFFFF4114D15315D0
310
137CFFFFFFFF4114D4D654D0130CFFFFFFFF4114D513125013441D1E4114D6508C50135CFFFFFFFF4114D6508C90135CFFFFFFFF4114D6508CD01354091E4114D6508D5013541D1E4114D6535390137CFFFFFFFF4114D65355D0137CFFFFFFFF411510D3D390130CFFFFFFFF411512131250134CFFFFFFFF411512550C9055
310
241484D354050F411512550CD055241484D354091E411512550D5055241484D35CFFFFFFFF411512550DD055241484D354793C411513115390130CFFFFFFFF415514905253105545241494CCFFFFFFFF41151492D390137CFFFFFFFF41151492D5D0137CFFFFFFFF411514931250134CFFFFFFFF411516150C5013640D0F41
310
1516150C9013640D0F411516150CD0136CFFFFFFFF411516150D5013641D1E411516150DD01364793C4115925155D0456494557CFFFFFFFF4115915112103484944CFFFFFFFF4115915115903564953CFFFFFFFF41159413125023241CFFFFFFFF411692569050134CFFFFFFFFAA7F5013F90A4391E41D1E4190F4151E4110
310
F40D0F4091E4050F4793C7F600
340
14
340
14
340
14
340
2251
340
14
340
14
340
14
340
2253
340
14
340
14
340
2253
340
2252
340
14
340
14
340
14
340
14
340
2251
340
14
340
14
340
14
340
2253
340
14
340
14
340
2253
340
2252
340
14
340
22E2
340
14
340
14
340
14
340
14
340
14
340
2251
340
14
340
14
340
14
340
22E8
340
13
340
13
340
13
340
13
340
13
340
13
340
13
340
13
340
13
340
13
340
13
340
13
340
13
340
13
340
13
340
13
340
22E9
340
13
340
13
340
13
340
13
340
13
340
13
340
2252
340
13
340
13
340
13
340
13
340
13
340
13
340
13
340
13
340
14
340
13
340
13
340
13
340
13
340
13
340
13
340
13
340
13
340
22E8
340
13
340
13
340
22E9
340
13
340
13
340
13
340
13
340
13
340
13
340
13
340
13
340
13
340
22E9
340
13
340
13
340
13
340
22E8
340
13
340
13
340
13
340
13
340
13
340
22E8
340
13
340
13
340
2252
340
13
340
13
340
13
340
13
340
13
340
13
340
13
340
13
340
13
340
13
340
22E9
340
13
340
13
340
22E9
340
13
340
13
340
14
340
13
340
22E9
340
13
340
13
340
22E8
340
13
340
13
340
14
340
13
340
22E9
340
13
340
13
340
22E8
340
13
340
13
340
13
340
13
340
13
340
13
340
22E9
340
13
340
13
340
13
340
13
340
13
340
13
340
13
340
13
340
13
340
13
340
2252
340
22EA
 94
        0
1001
ACAD
1000
AcRTDxfName
1000
AMGOBJPROPCFG
1000
AcRTDxfName
1000
AMGOBJPROPCFG
1000
AcRTDxfName
1000
AMGOBJPROPCFG
1000
AcRTDxfName
1000
AMGOBJPROPCFG
1000
AcRTDxfName
1000
AMGOBJPROPCFG
  0
ACAD_PROXY_OBJECT
  5
22F1
102
{ACAD_REACTORS
330
22EC
102
}
330
22EC
100
AcDbProxyObject
 90
      499
 91
      569
 95
   983063
 70
     0
 93
      253
310
43D1444494D454E53494F4E2C414D44545F2A5F44494D404A9012A404A9012AF
 94
        0
1001
ACAD
1000
AcRTDxfName
1000
ACAMGFILTERDAT
1000
AcRTDxfName
1000
ACAMGFILTERDAT
1000
AcRTDxfName
1000
ACAMGFILTERDAT
1000
AcRTDxfName
1000
ACAMGFILTERDAT
1000
AcRTDxfName
1000
ACAMGFILTERDAT
  0
ACAD_PROXY_OBJECT
  5
22F0
102
{ACAD_REACTORS
330
22EC
102
}
330
22EC
100
AcDbProxyObject
 90
      499
 91
      569
 95
   983063
 70
     0
 93
      181
310
43D012A42D05357D191504B505357CA9012A404A9012AF
 94
        0
1001
ACAD
1000
AcRTDxfName
1000
ACAMGFILTERDAT
1000
AcRTDxfName
1000
ACAMGFILTERDAT
1000
AcRTDxfName
1000
ACAMGFILTERDAT
1000
AcRTDxfName
1000
ACAMGFILTERDAT
1000
AcRTDxfName
1000
ACAMGFILTERDAT
  0
ACAD_PROXY_OBJECT
  5
22ED
102
{ACAD_REACTORS
330
22EC
102
}
330
22EC
100
AcDbProxyObject
 90
      499
 91
      569
 95
   983063
 70
     0
 93
      133
310
43D054841544348404A9012A404A9012AF
 94
        0
1001
ACAD
1000
AcRTDxfName
1000
ACAMGFILTERDAT
1000
AcRTDxfName
1000
ACAMGFILTERDAT
1000
AcRTDxfName
1000
ACAMGFILTERDAT
1000
AcRTDxfName
1000
ACAMGFILTERDAT
1000
AcRTDxfName
1000
ACAMGFILTERDAT
  0
ACAD_PROXY_OBJECT
  5
22EE
102
{ACAD_REACTORS
330
22EC
102
}
330
22EC
100
AcDbProxyObject
 90
      499
 91
      569
 95
   983063
 70
     0
 93
      549
310
43D044C494E4549CE0B0E138B0A8B4E0B0A8B4E138B105357CE0B105357CE138B0A8B505357CE0B0A8B505357CE139012A404A910494E534552542C535444504152543244F
 94
        0
1001
ACAD
1000
AcRTDxfName
1000
ACAMGFILTERDAT
1000
AcRTDxfName
1000
ACAMGFILTERDAT
1000
AcRTDxfName
1000
ACAMGFILTERDAT
1000
AcRTDxfName
1000
ACAMGFILTERDAT
1000
AcRTDxfName
1000
ACAMGFILTERDAT
  0
ACAD_PROXY_OBJECT
  5
22EF
102
{ACAD_REACTORS
330
22EC
102
}
330
22EC
100
AcDbProxyObject
 90
      499
 91
      569
 95
   983063
 70
     0
 93
      909
310
43D6641434D46434652414D452C41434D444154554D5441524745542C41434D444154554D49442C41434D57454C4453594D2C41434D5355524653594D2C41434D4645415449442C41434D504152545245462C41434D42414C4C4F4F4E2C414D44544544474553594D404A9012A404A9012AF
 94
        0
1001
ACAD
1000
AcRTDxfName
1000
ACAMGFILTERDAT
1000
AcRTDxfName
1000
ACAMGFILTERDAT
1000
AcRTDxfName
1000
ACAMGFILTERDAT
1000
AcRTDxfName
1000
ACAMGFILTERDAT
1000
AcRTDxfName
1000
ACAMGFILTERDAT
  0
XRECORD
  5
2FDE
102
{ACAD_REACTORS
330
B3C
102
}
330
B3C
100
AcDbXrecord
280
     1
300
ASK2000BIKOU>>A3横 1/5        <<                                                                                                                                                                                                                                                                                
  0
XRECORD
  5
B3D
102
{ACAD_REACTORS
330
B3C
102
}
330
B3C
100
AcDbXrecord
280
     1
  1
DwgScale
  0
XRECORD
  5
E23
102
{ACAD_REACTORS
330
B3C
102
}
330
B3C
100
AcDbXrecord
280
     1
 70
   255
  0
LAYER_INDEX
  5
2E43
102
{ACAD_REACTORS
330
2E42
102
}
330
2E42
100
AcDbIndex
 40
2457329.467550868
100
AcDbLayerIndex
  8
0
360
2E44
 90
      187
  8
ASKPAPERSIZE
360
2E45
 90
        2
  8
9図面枠
360
2E46
 90
       26
  8
9図面文字
360
2E47
 90
       53
  8
Defpoints
360
2E48
 90
        0
  8
非表示破線
360
2E49
 90
        8
  8
TEXT_0
360
2E4A
 90
        1
  0
DICTIONARY
  5
2FE3
330
5DE
100
AcDbDictionary
280
     1
281
     1
  3
ACAD_XREC_ROUNDTRIP
360
2FE4
  0
DICTIONARY
  5
2FE5
330
5DF
100
AcDbDictionary
280
     1
281
     1
  3
ACAD_XREC_ROUNDTRIP
360
2FE6
  0
DICTIONARY
  5
2308
330
2307
100
AcDbDictionary
280
     1
281
     1
  3
ACAD_XREC_ROUNDTRIP
360
2FF6
  3
BUMPTILE
360
230A
  3
DIFFUSETILE
360
2309
  3
OPACITYTILE
360
230D
  3
REFLECTIONTILE
360
230C
  3
REFRACTIONTILE
360
230E
  3
SPECULARTILE
360
230B
  0
DICTIONARY
  5
2300
330
22FF
100
AcDbDictionary
280
     1
281
     1
  3
ACAD_XREC_ROUNDTRIP
360
2FF5
  3
BUMPTILE
360
2302
  3
DIFFUSETILE
360
2301
  3
OPACITYTILE
360
2305
  3
REFLECTIONTILE
360
2304
  3
REFRACTIONTILE
360
2306
  3
SPECULARTILE
360
2303
  0
DICTIONARY
  5
2310
330
230F
100
AcDbDictionary
280
     1
281
     1
  3
ACAD_XREC_ROUNDTRIP
360
2FF7
  3
BUMPTILE
360
2312
  3
DIFFUSETILE
360
2311
  3
OPACITYTILE
360
2315
  3
REFLECTIONTILE
360
2314
  3
REFRACTIONTILE
360
2316
  3
SPECULARTILE
360
2313
  0
DICTIONARY
  5
2FE7
330
5FF
100
AcDbDictionary
280
     1
281
     1
  3
ACAD_XREC_ROUNDTRIP
360
2FE8
  0
DICTIONARY
  5
2FE9
330
600
100
AcDbDictionary
280
     1
281
     1
  3
ACAD_XREC_ROUNDTRIP
360
2FEA
  0
DICTIONARY
  5
2FEB
330
601
100
AcDbDictionary
280
     1
281
     1
  3
ACAD_XREC_ROUNDTRIP
360
2FEC
  0
DICTIONARY
  5
2FED
330
602
100
AcDbDictionary
280
     1
281
     1
  3
ACAD_XREC_ROUNDTRIP
360
2FEE
  0
DICTIONARY
  5
2FF3
330
F00
100
AcDbDictionary
280
     1
281
     1
  3
ACAD_XREC_ROUNDTRIP
360
2FF4
  0
DICTIONARY
  5
2FEF
330
604
100
AcDbDictionary
280
     1
281
     1
  3
ACAD_XREC_ROUNDTRIP
360
2FF0
  0
DICTIONARY
  5
2FF1
330
605
100
AcDbDictionary
280
     1
281
     1
  3
ACAD_XREC_ROUNDTRIP
360
2FF2
  0
DICTIONARY
  5
2368
330
2332
100
AcDbDictionary
280
     1
281
     1
  3
ACAD_ROUNDTRIP_2008_TABLESTYLE_CELLSTYLEMAP
360
2FE0
  3
ACAD_XREC_ROUNDTRIP
360
3028
  0
DICTIONARY
  5
3002
330
231D
100
AcDbDictionary
280
     1
281
     1
  3
ACAD_XREC_ROUNDTRIP
360
3003
  0
DICTIONARY
  5
3000
330
231C
100
AcDbDictionary
280
     1
281
     1
  3
ACAD_XREC_ROUNDTRIP
360
3001
  0
DICTIONARY
  5
300E
330
2323
100
AcDbDictionary
280
     1
281
     1
  3
ACAD_XREC_ROUNDTRIP
360
300F
  0
DICTIONARY
  5
3016
330
2327
100
AcDbDictionary
280
     1
281
     1
  3
ACAD_XREC_ROUNDTRIP
360
3017
  0
DICTIONARY
  5
3008
330
2320
100
AcDbDictionary
280
     1
281
     1
  3
ACAD_XREC_ROUNDTRIP
360
3009
  0
DICTIONARY
  5
300C
330
2322
100
AcDbDictionary
280
     1
281
     1
  3
ACAD_XREC_ROUNDTRIP
360
300D
  0
DICTIONARY
  5
3026
330
232F
100
AcDbDictionary
280
     1
281
     1
  3
ACAD_XREC_ROUNDTRIP
360
3027
  0
DICTIONARY
  5
3014
330
2326
100
AcDbDictionary
280
     1
281
     1
  3
ACAD_XREC_ROUNDTRIP
360
3015
  0
DICTIONARY
  5
2FF8
330
2318
100
AcDbDictionary
280
     1
281
     1
  3
ACAD_XREC_ROUNDTRIP
360
2FF9
  0
DICTIONARY
  5
2FFA
330
2319
100
AcDbDictionary
280
     1
281
     1
  3
ACAD_XREC_ROUNDTRIP
360
2FFB
  0
DICTIONARY
  5
2FFC
330
231A
100
AcDbDictionary
280
     1
281
     1
  3
ACAD_XREC_ROUNDTRIP
360
2FFD
  0
DICTIONARY
  5
2FFE
330
231B
100
AcDbDictionary
280
     1
281
     1
  3
ACAD_XREC_ROUNDTRIP
360
2FFF
  0
DICTIONARY
  5
3006
330
231F
100
AcDbDictionary
280
     1
281
     1
  3
ACAD_XREC_ROUNDTRIP
360
3007
  0
DICTIONARY
  5
3022
330
232D
100
AcDbDictionary
280
     1
281
     1
  3
ACAD_XREC_ROUNDTRIP
360
3023
  0
DICTIONARY
  5
3012
330
2325
100
AcDbDictionary
280
     1
281
     1
  3
ACAD_XREC_ROUNDTRIP
360
3013
  0
DICTIONARY
  5
3024
330
232E
100
AcDbDictionary
280
     1
281
     1
  3
ACAD_XREC_ROUNDTRIP
360
3025
  0
DICTIONARY
  5
300A
330
2321
100
AcDbDictionary
280
     1
281
     1
  3
ACAD_XREC_ROUNDTRIP
360
300B
  0
DICTIONARY
  5
3020
330
232C
100
AcDbDictionary
280
     1
281
     1
  3
ACAD_XREC_ROUNDTRIP
360
3021
  0
DICTIONARY
  5
301E
330
232B
100
AcDbDictionary
280
     1
281
     1
  3
ACAD_XREC_ROUNDTRIP
360
301F
  0
DICTIONARY
  5
3018
330
2328
100
AcDbDictionary
280
     1
281
     1
  3
ACAD_XREC_ROUNDTRIP
360
3019
  0
DICTIONARY
  5
301A
330
2329
100
AcDbDictionary
280
     1
281
     1
  3
ACAD_XREC_ROUNDTRIP
360
301B
  0
DICTIONARY
  5
3010
330
2324
100
AcDbDictionary
280
     1
281
     1
  3
ACAD_XREC_ROUNDTRIP
360
3011
  0
DICTIONARY
  5
3004
330
231E
100
AcDbDictionary
280
     1
281
     1
  3
ACAD_XREC_ROUNDTRIP
360
3005
  0
DICTIONARY
  5
301C
330
232A
100
AcDbDictionary
280
     1
281
     1
  3
ACAD_XREC_ROUNDTRIP
360
301D
  0
ACAD_PROXY_OBJECT
  5
3D2
102
{ACAD_REACTORS
330
3D1
102
}
330
3D1
100
AcDbProxyObject
 90
      499
 91
      513
 95
   983063
 70
     0
 93
      139
310
057356C1D35406406AA8FFFFFFFF09AA405F
330
18
330
0
330
0
 94
        0
1001
ACAD
1000
AcRTDxfName
1000
ACMDATAENTRYBLOCK
1000
AcRTDxfName
1000
ACMDATAENTRYBLOCK
1000
AcRTDxfName
1000
ACMDATAENTRYBLOCK
1000
AcRTDxfName
1000
ACMDATAENTRYBLOCK
1000
AcRTDxfName
1000
ACMDATAENTRYBLOCK
  0
ACAD_PROXY_OBJECT
  5
2239
102
{ACAD_REACTORS
330
2238
102
}
330
2238
100
AcDbProxyObject
 90
      499
 91
      522
 95
   983063
 70
     0
 93
     2619
310
4050B44574753455454494E4753A0E8482A68AA6A88882A08829CA69284A1A0A723A0A92920ACA0A8419983E1A1ABE1B1820C868A9C829C8E82A12686AF87260F862666A8321A2A72224A0A50000000000000701FA0E868A9C889282A682A16605C6AF8625C60F8625C6A83A1A2A72224A9AA250000000000000601FA0C868
310
A9C988A9C940000000000001C07E8321A2A727A323250000000000000701FA128698929C82A4A482B282A1C605C62646AF8605C646AF8605C6A8421A624A722AA2CA820A82AC2624A722A1288AE8EAAA68682988A94283A620A9AA27A12520A80982109A82968AAC928AAE9FA04832922AB24A9A4A0A809820AA68682988A8
310
2A0662746A8429AA20A72220A92220A8220A729A4A12A8929A8AA6A8829AA0940F32A74468634E68283AB22A929A4A7A720A82989A971818220F688AE8EA68AA8A8929C8EA68A9C88FBF
 94
        0
1001
ACAD
1000
AcRTDxfName
1000
AMGSETTINGSOBJ
1000
AcRTDxfName
1000
AMGSETTINGSOBJ
1000
AcRTDxfName
1000
AMGSETTINGSOBJ
1000
AcRTDxfName
1000
AMGSETTINGSOBJ
1000
AcRTDxfName
1000
AMGSETTINGSOBJ
  0
ACAD_PROXY_OBJECT
  5
223D
102
{ACAD_REACTORS
330
2238
102
}
330
2238
100
AcDbProxyObject
 90
      499
 91
      522
 95
   983063
 70
     0
 93
      852
310
4050D5452414E5353455454494E4753A2488A482AE929C8EA8A4829CA69882A8929E9C0C00800050D4F524947494E414C4C595F4F4E0600400008529A7AAA921A2A620A723A0A81A52827212AAA0A48AA68AA4AC8A0C0080001107B44574753455454494E4753454E447DF
 94
        0
1001
ACAD
1000
AcRTDxfName
1000
AMGSETTINGSOBJ
1000
AcRTDxfName
1000
AMGSETTINGSOBJ
1000
AcRTDxfName
1000
AMGSETTINGSOBJ
1000
AcRTDxfName
1000
AMGSETTINGSOBJ
1000
AcRTDxfName
1000
AMGSETTINGSOBJ
  0
IDBUFFER
  5
2E44
330
0
100
AcDbIdBuffer
330
17EF
330
1E7B
330
1E7C
330
1E7D
330
1E7E
330
1E7F
330
1E80
330
1E81
330
1E82
330
1E83
330
1E84
330
1E86
330
1E87
330
1E88
330
1E89
330
1E8A
330
1E8B
330
1E8C
330
1E8D
330
1E8E
330
1E8F
330
1E90
330
1E91
330
1E92
330
1E93
330
1E94
330
1E95
330
1E96
330
1E97
330
1E98
330
1E99
330
1E9A
330
1E9B
330
1E9C
330
1E9D
330
1E9E
330
1E9F
330
1EA0
330
1EA1
330
1EA2
330
1EA3
330
1EA4
330
1EA5
330
1EA6
330
1EA7
330
1EA8
330
1EA9
330
1EAA
330
1EAB
330
1EAC
330
1EAD
330
1EAE
330
1EAF
330
1EB0
330
1EB1
330
1EB2
330
1EB3
330
1EB4
330
1EB5
330
1EB6
330
1EB7
330
1EB8
330
1EB9
330
1EBA
330
1EBB
330
1EBC
330
1EBD
330
1EBE
330
1EBF
330
1EC0
330
1EC1
330
1EC2
330
1EC3
330
1EC4
330
1EC5
330
1EC6
330
1EC7
330
1EC8
330
1EC9
330
1ECA
330
1ECB
330
1ECC
330
1ECD
330
1ECE
330
1ECF
330
1ED0
330
1ED1
330
1ED2
330
1ED3
330
1ED4
330
1ED5
330
1ED6
330
1ED7
330
1ED8
330
1ED9
330
1EDA
330
1EDB
330
1EDC
330
1EDD
330
1EDE
330
1EDF
330
1EE0
330
1EE1
330
1EE2
330
1EE3
330
1EE4
330
1EE5
330
1EE6
330
1EE7
330
1EE8
330
1EE9
330
1EEA
330
1EEB
330
1EEC
330
1EED
330
1EEE
330
1EEF
330
1EF0
330
1EF1
330
1EF2
330
1EF3
330
1EF4
330
1EF5
330
1EF6
330
1EF7
330
1EF8
330
1EF9
330
1EFA
330
1EFB
330
1EFC
330
1EFD
330
1EFE
330
1EFF
330
1F00
330
1F01
330
1F02
330
1F03
330
1F04
330
1F05
330
1F06
330
1F07
330
1F08
330
1F09
330
1F0A
330
1F0B
330
1F0C
330
1F0D
330
1F0E
330
1F0F
330
1F10
330
1F11
330
1F12
330
1F13
330
1F14
330
1F15
330
1F16
330
1F17
330
1F18
330
1F19
330
1F1A
330
1F1B
330
1F1C
330
1F1D
330
1F1E
330
1F1F
330
1F20
330
1F21
330
1F22
330
1F23
330
1F24
330
1F25
330
1F26
330
1F27
330
1F28
330
1F29
330
1F2A
330
1F2B
330
1F2C
330
1F2D
330
1F2E
330
1F2F
330
1F30
330
21E3
330
2202
330
2210
330
2D13
330
2D14
  0
IDBUFFER
  5
2E45
330
0
100
AcDbIdBuffer
330
56C
330
2899
  0
IDBUFFER
  5
2E46
330
0
100
AcDbIdBuffer
330
E46
330
E48
330
E53
330
E8C
330
EAE
330
28AB
330
28AC
330
28AD
330
28B2
330
28B4
330
28B5
330
28BB
330
28BC
330
28BD
330
28BE
330
28BF
330
28C0
330
28C1
330
28C3
330
28C8
330
28C9
330
28CA
330
28CB
330
28CC
330
2D07
330
2D0A
  0
IDBUFFER
  5
2E47
330
0
100
AcDbIdBuffer
330
E45
330
E49
330
E4A
330
E4B
330
E4C
330
E4E
330
E4F
330
E50
330
E51
330
E96
330
E97
330
E98
330
216D
330
289A
330
289B
330
289C
330
289D
330
289E
330
289F
330
28A0
330
28A1
330
28A2
330
28A3
330
28A4
330
28A5
330
28A6
330
28A7
330
28A8
330
28A9
330
28AA
330
28AE
330
28AF
330
28B0
330
28B1
330
28B3
330
28B6
330
28B7
330
28B8
330
28B9
330
28BA
330
28C4
330
28C5
330
28C7
330
28CD
330
2D04
330
2D05
330
2D06
330
2D08
330
2D09
330
2D0B
330
2D0C
330
2D0D
330
2E28
  0
IDBUFFER
  5
2E48
330
0
100
AcDbIdBuffer
  0
IDBUFFER
  5
2E49
330
0
100
AcDbIdBuffer
330
E47
330
E52
330
E54
330
E56
330
28C6
330
28CE
330
28CF
330
28D0
  0
IDBUFFER
  5
2E4A
330
0
100
AcDbIdBuffer
330
2D12
  0
XRECORD
  5
2FE4
102
{ACAD_REACTORS
330
2FE3
102
}
330
2FE3
100
AcDbXrecord
280
     1
102
SHADEPLOT
 70
     0
102
SHADEPLOTRESLEVEL
 70
     2
102
SHADEPLOTCUSTOMDPI
 70
   300
  0
XRECORD
  5
2FE6
102
{ACAD_REACTORS
330
2FE5
102
}
330
2FE5
100
AcDbXrecord
280
     1
102
SHADEPLOT
 70
     0
102
SHADEPLOTRESLEVEL
 70
     2
102
SHADEPLOTCUSTOMDPI
 70
   300
  0
XRECORD
  5
2FF6
102
{ACAD_REACTORS
330
2308
102
}
330
2308
100
AcDbXrecord
280
     1
102
MATERIAL
148
0.0
149
0.0
149
0.0
 93
        0
 94
      127
282
     0
 72
     0
 77
     0
171
     0
175
     0
179
     0
273
     0
  0
XRECORD
  5
230A
102
{ACAD_REACTORS
330
2308
102
}
330
2308
100
AcDbXrecord
280
     1
270
     1
271
     1
  0
XRECORD
  5
2309
102
{ACAD_REACTORS
330
2308
102
}
330
2308
100
AcDbXrecord
280
     1
270
     1
271
     1
  0
XRECORD
  5
230D
102
{ACAD_REACTORS
330
2308
102
}
330
2308
100
AcDbXrecord
280
     1
270
     1
271
     1
  0
XRECORD
  5
230C
102
{ACAD_REACTORS
330
2308
102
}
330
2308
100
AcDbXrecord
280
     1
270
     1
271
     1
  0
XRECORD
  5
230E
102
{ACAD_REACTORS
330
2308
102
}
330
2308
100
AcDbXrecord
280
     1
270
     1
271
     1
  0
XRECORD
  5
230B
102
{ACAD_REACTORS
330
2308
102
}
330
2308
100
AcDbXrecord
280
     1
270
     1
271
     1
  0
XRECORD
  5
2FF5
102
{ACAD_REACTORS
330
2300
102
}
330
2300
100
AcDbXrecord
280
     1
102
MATERIAL
148
0.0
149
0.0
149
0.0
 93
        0
 94
      127
282
     0
 72
     0
 77
     0
171
     0
175
     0
179
     0
273
     0
  0
XRECORD
  5
2302
102
{ACAD_REACTORS
330
2300
102
}
330
2300
100
AcDbXrecord
280
     1
270
     1
271
     1
  0
XRECORD
  5
2301
102
{ACAD_REACTORS
330
2300
102
}
330
2300
100
AcDbXrecord
280
     1
270
     1
271
     1
  0
XRECORD
  5
2305
102
{ACAD_REACTORS
330
2300
102
}
330
2300
100
AcDbXrecord
280
     1
270
     1
271
     1
  0
XRECORD
  5
2304
102
{ACAD_REACTORS
330
2300
102
}
330
2300
100
AcDbXrecord
280
     1
270
     1
271
     1
  0
XRECORD
  5
2306
102
{ACAD_REACTORS
330
2300
102
}
330
2300
100
AcDbXrecord
280
     1
270
     1
271
     1
  0
XRECORD
  5
2303
102
{ACAD_REACTORS
330
2300
102
}
330
2300
100
AcDbXrecord
280
     1
270
     1
271
     1
  0
XRECORD
  5
2FF7
102
{ACAD_REACTORS
330
2310
102
}
330
2310
100
AcDbXrecord
280
     1
102
MATERIAL
148
0.0
149
0.0
149
0.0
 93
        0
 94
      127
282
     0
 72
     0
 77
     0
171
     0
175
     0
179
     0
273
     0
  0
XRECORD
  5
2312
102
{ACAD_REACTORS
330
2310
102
}
330
2310
100
AcDbXrecord
280
     1
270
     1
271
     1
  0
XRECORD
  5
2311
102
{ACAD_REACTORS
330
2310
102
}
330
2310
100
AcDbXrecord
280
     1
270
     1
271
     1
  0
XRECORD
  5
2315
102
{ACAD_REACTORS
330
2310
102
}
330
2310
100
AcDbXrecord
280
     1
270
     1
271
     1
  0
XRECORD
  5
2314
102
{ACAD_REACTORS
330
2310
102
}
330
2310
100
AcDbXrecord
280
     1
270
     1
271
     1
  0
XRECORD
  5
2316
102
{ACAD_REACTORS
330
2310
102
}
330
2310
100
AcDbXrecord
280
     1
270
     1
271
     1
  0
XRECORD
  5
2313
102
{ACAD_REACTORS
330
2310
102
}
330
2310
100
AcDbXrecord
280
     1
270
     1
271
     1
  0
XRECORD
  5
2FE8
102
{ACAD_REACTORS
330
2FE7
102
}
330
2FE7
100
AcDbXrecord
280
     1
102
SHADEPLOT
 70
     0
102
SHADEPLOTRESLEVEL
 70
     2
102
SHADEPLOTCUSTOMDPI
 70
   300
  0
XRECORD
  5
2FEA
102
{ACAD_REACTORS
330
2FE9
102
}
330
2FE9
100
AcDbXrecord
280
     1
102
SHADEPLOT
 70
     0
102
SHADEPLOTRESLEVEL
 70
     2
102
SHADEPLOTCUSTOMDPI
 70
   300
  0
XRECORD
  5
2FEC
102
{ACAD_REACTORS
330
2FEB
102
}
330
2FEB
100
AcDbXrecord
280
     1
102
SHADEPLOT
 70
     0
102
SHADEPLOTRESLEVEL
 70
     2
102
SHADEPLOTCUSTOMDPI
 70
   300
  0
XRECORD
  5
2FEE
102
{ACAD_REACTORS
330
2FED
102
}
330
2FED
100
AcDbXrecord
280
     1
102
SHADEPLOT
 70
     0
102
SHADEPLOTRESLEVEL
 70
     2
102
SHADEPLOTCUSTOMDPI
 70
   300
  0
XRECORD
  5
2FF4
102
{ACAD_REACTORS
330
2FF3
102
}
330
2FF3
100
AcDbXrecord
280
     1
102
SHADEPLOT
 70
     0
102
SHADEPLOTRESLEVEL
 70
     2
102
SHADEPLOTCUSTOMDPI
 70
   300
  0
XRECORD
  5
2FF0
102
{ACAD_REACTORS
330
2FEF
102
}
330
2FEF
100
AcDbXrecord
280
     1
102
SHADEPLOT
 70
     0
102
SHADEPLOTRESLEVEL
 70
     2
102
SHADEPLOTCUSTOMDPI
 70
   300
  0
XRECORD
  5
2FF2
102
{ACAD_REACTORS
330
2FF1
102
}
330
2FF1
100
AcDbXrecord
280
     1
102
SHADEPLOT
 70
     0
102
SHADEPLOTRESLEVEL
 70
     2
102
SHADEPLOTCUSTOMDPI
 70
   300
  0
CELLSTYLEMAP
  5
2FE0
102
{ACAD_REACTORS
330
2368
102
}
330
2368
100
AcDbCellStyleMap
 90
        3
300
CELLSTYLE
  1
TABLEFORMAT_BEGIN
 90
        5
170
     1
 91
        0
 92
    32768
 62
   257
 93
        1
300
CONTENTFORMAT
  1
CONTENTFORMAT_BEGIN
 90
        0
 91
        0
 92
      512
 93
        0
300

 40
0.0
140
1.0
 94
        5
 62
     0
340
10
144
0.25
309
CONTENTFORMAT_END
171
     0
 94
        0
309
TABLEFORMAT_END
  1
CELLSTYLE_BEGIN
 90
        1
 91
        1
300
_TITLE
309
CELLSTYLE_END
300
CELLSTYLE
  1
TABLEFORMAT_BEGIN
 90
        5
170
     1
 91
        0
 92
        0
 62
   257
 93
        1
300
CONTENTFORMAT
  1
CONTENTFORMAT_BEGIN
 90
        0
 91
        0
 92
      512
 93
        0
300

 40
0.0
140
1.0
 94
        5
 62
     0
340
10
144
0.18
309
CONTENTFORMAT_END
171
     0
 94
        0
309
TABLEFORMAT_END
  1
CELLSTYLE_BEGIN
 90
        2
 91
        1
300
_HEADER
309
CELLSTYLE_END
300
CELLSTYLE
  1
TABLEFORMAT_BEGIN
 90
        5
170
     1
 91
        0
 92
        0
 62
   257
 93
        1
300
CONTENTFORMAT
  1
CONTENTFORMAT_BEGIN
 90
        0
 91
        0
 92
      512
 93
        0
300

 40
0.0
140
1.0
 94
        2
 62
     0
340
10
144
0.18
309
CONTENTFORMAT_END
171
     0
 94
        0
309
TABLEFORMAT_END
  1
CELLSTYLE_BEGIN
 90
        3
 91
        2
300
_DATA
309
CELLSTYLE_END
  0
XRECORD
  5
3028
102
{ACAD_REACTORS
330
2368
102
}
330
2368
100
AcDbXrecord
280
     1
102
ACAD_ROUNDTRIP_PRE2007_TABLESTYLE
 90
      512
 91
        0
  1

 92
      512
 93
        0
  2

 94
      512
 95
        0
  3

  0
XRECORD
  5
3003
102
{ACAD_REACTORS
330
3002
102
}
330
3002
100
AcDbXrecord
280
     1
102
RTVSPropertyOp0
 70
     1
102
RTVSPropertyOp1
 70
     1
102
RTVSPropertyOp2
 70
     1
102
RTVSPropertyOp3
 70
     1
102
RTVSPropertyOp4
 70
     1
102
RTVSPropertyOp5
 70
     1
102
RTVSPropertyOp6
 70
     1
102
RTVSPropertyOp7
 70
     1
102
RTVSPropertyOp8
 70
     1
102
RTVSPropertyOp9
 70
     1
102
RTVSPropertyOp10
 70
     1
102
RTVSPropertyOp11
 70
     1
102
RTVSPropertyOp12
 70
     1
102
RTVSPropertyOp13
 70
     1
102
RTVSPropertyOp14
 70
     1
102
RTVSPropertyOp15
 70
     1
102
RTVSPropertyOp16
 70
     1
102
RTVSPropertyOp17
 70
     1
102
RTVSPropertyOp18
 70
     1
102
RTVSPropertyOp19
 70
     1
102
RTVSPropertyOp20
 70
     1
102
RTVSPropertyOp21
 70
     1
102
RTVSPropertyOp22
 70
     1
102
RTVSPropertyOp23
 70
     1
102
RTVSPropertyOp24
 70
     1
102
RTVSPropertyOp25
 70
     1
102
RTVSPropertyOp26
 70
     1
102
RTVSPropertyOp27
 70
     1
102
RTVSPropertyOp28
 70
     1
102
RTVSPropertyOp29
 70
     1
102
RTVSPropertyOp30
 70
     1
102
RTVSPropertyOp31
 70
     1
102
RTVSPropertyOp32
 70
     1
  0
XRECORD
  5
3001
102
{ACAD_REACTORS
330
3000
102
}
330
3000
100
AcDbXrecord
280
     1
102
RTVSPropertyOp0
 70
     1
102
RTVSPropertyOp1
 70
     1
102
RTVSPropertyOp2
 70
     1
102
RTVSPropertyOp3
 70
     1
102
RTVSPropertyOp4
 70
     1
102
RTVSPropertyOp5
 70
     1
102
RTVSPropertyOp6
 70
     1
102
RTVSPropertyOp7
 70
     1
102
RTVSPropertyOp8
 70
     1
102
RTVSPropertyOp9
 70
     1
102
RTVSPropertyOp10
 70
     1
102
RTVSPropertyOp11
 70
     1
102
RTVSPropertyOp12
 70
     1
102
RTVSPropertyOp13
 70
     1
102
RTVSPropertyOp14
 70
     1
102
RTVSPropertyOp15
 70
     1
102
RTVSPropertyOp16
 70
     1
102
RTVSPropertyOp17
 70
     1
102
RTVSPropertyOp18
 70
     1
102
RTVSPropertyOp19
 70
     1
102
RTVSPropertyOp20
 70
     1
102
RTVSPropertyOp21
 70
     1
102
RTVSPropertyOp22
 70
     1
102
RTVSPropertyOp23
 70
     1
102
RTVSPropertyOp24
 70
     1
102
RTVSPropertyOp25
 70
     1
102
RTVSPropertyOp26
 70
     1
102
RTVSPropertyOp27
 70
     1
102
RTVSPropertyOp28
 70
     1
102
RTVSPropertyOp29
 70
     1
102
RTVSPropertyOp30
 70
     1
102
RTVSPropertyOp31
 70
     1
102
RTVSPropertyOp32
 70
     1
  0
XRECORD
  5
300F
102
{ACAD_REACTORS
330
300E
102
}
330
300E
100
AcDbXrecord
280
     1
102
RTVSPropertyOp0
 70
     1
102
RTVSPropertyOp1
 70
     1
102
RTVSPropertyOp2
 70
     1
102
RTVSPropertyOp3
 70
     1
102
RTVSPropertyOp4
 70
     1
102
RTVSPropertyOp5
 70
     1
102
RTVSPropertyOp6
 70
     1
102
RTVSPropertyOp7
 70
     1
102
RTVSPropertyOp8
 70
     1
102
RTVSPropertyOp9
 70
     1
102
RTVSPropertyOp10
 70
     1
102
RTVSPropertyOp11
 70
     1
102
RTVSPropertyOp12
 70
     1
102
RTVSPropertyOp13
 70
     1
102
RTVSPropertyOp14
 70
     1
102
RTVSPropertyOp15
 70
     1
102
RTVSPropertyOp16
 70
     1
102
RTVSPropertyOp17
 70
     1
102
RTVSPropertyOp18
 70
     1
102
RTVSPropertyOp19
 70
     1
102
RTVSPropertyOp20
 70
     1
102
RTVSPropertyOp21
 70
     1
102
RTVSPropertyOp22
 70
     1
102
RTVSPropertyOp23
 70
     1
102
RTVSPropertyOp24
 70
     1
102
RTVSPropertyOp25
 70
     1
102
RTVSPropertyOp26
 70
     1
102
RTVSPropertyOp27
 70
     1
102
RTVSPropertyOp28
 70
     1
102
RTVSPropertyOp29
 70
     1
102
RTVSPropertyOp30
 70
     1
102
RTVSPropertyOp31
 70
     1
102
RTVSPropertyOp32
 70
     1
  0
XRECORD
  5
3017
102
{ACAD_REACTORS
330
3016
102
}
330
3016
100
AcDbXrecord
280
     1
102
RTVSPropertyOp0
 70
     1
102
RTVSPropertyOp1
 70
     1
102
RTVSPropertyOp2
 70
     1
102
RTVSPropertyOp3
 70
     1
102
RTVSPropertyOp4
 70
     1
102
RTVSPropertyOp5
 70
     1
102
RTVSPropertyOp6
 70
     1
102
RTVSPropertyOp7
 70
     1
102
RTVSPropertyOp8
 70
     1
102
RTVSPropertyOp9
 70
     1
102
RTVSPropertyOp10
 70
     1
102
RTVSPropertyOp11
 70
     1
102
RTVSPropertyOp12
 70
     1
102
RTVSPropertyOp13
 70
     1
102
RTVSPropertyOp14
 70
     1
102
RTVSPropertyOp15
 70
     1
102
RTVSPropertyOp16
 70
     1
102
RTVSPropertyOp17
 70
     1
102
RTVSPropertyOp18
 70
     1
102
RTVSPropertyOp19
 70
     1
102
RTVSPropertyOp20
 70
     1
102
RTVSPropertyOp21
 70
     1
102
RTVSPropertyOp22
 70
     1
102
RTVSPropertyOp23
 70
     1
102
RTVSPropertyOp24
 70
     1
102
RTVSPropertyOp25
 70
     1
102
RTVSPropertyOp26
 70
     1
102
RTVSPropertyOp27
 70
     1
102
RTVSPropertyOp28
 70
     1
102
RTVSPropertyOp29
 70
     1
102
RTVSPropertyOp30
 70
     1
102
RTVSPropertyOp31
 70
     1
102
RTVSPropertyOp32
 70
     1
  0
XRECORD
  5
3009
102
{ACAD_REACTORS
330
3008
102
}
330
3008
100
AcDbXrecord
280
     1
102
RTVSPropertyOp0
 70
     1
102
RTVSPropertyOp1
 70
     1
102
RTVSPropertyOp2
 70
     1
102
RTVSPropertyOp3
 70
     1
102
RTVSPropertyOp4
 70
     1
102
RTVSPropertyOp5
 70
     1
102
RTVSPropertyOp6
 70
     1
102
RTVSPropertyOp7
 70
     1
102
RTVSPropertyOp8
 70
     1
102
RTVSPropertyOp9
 70
     1
102
RTVSPropertyOp10
 70
     1
102
RTVSPropertyOp11
 70
     1
102
RTVSPropertyOp12
 70
     1
102
RTVSPropertyOp13
 70
     1
102
RTVSPropertyOp14
 70
     1
102
RTVSPropertyOp15
 70
     1
102
RTVSPropertyOp16
 70
     1
102
RTVSPropertyOp17
 70
     1
102
RTVSPropertyOp18
 70
     1
102
RTVSPropertyOp19
 70
     1
102
RTVSPropertyOp20
 70
     1
102
RTVSPropertyOp21
 70
     1
102
RTVSPropertyOp22
 70
     1
102
RTVSPropertyOp23
 70
     1
102
RTVSPropertyOp24
 70
     1
102
RTVSPropertyOp25
 70
     1
102
RTVSPropertyOp26
 70
     1
102
RTVSPropertyOp27
 70
     1
102
RTVSPropertyOp28
 70
     1
102
RTVSPropertyOp29
 70
     1
102
RTVSPropertyOp30
 70
     1
102
RTVSPropertyOp31
 70
     1
102
RTVSPropertyOp32
 70
     1
  0
XRECORD
  5
300D
102
{ACAD_REACTORS
330
300C
102
}
330
300C
100
AcDbXrecord
280
     1
102
RTVSPropertyOp0
 70
     1
102
RTVSPropertyOp1
 70
     1
102
RTVSPropertyOp2
 70
     1
102
RTVSPropertyOp3
 70
     1
102
RTVSPropertyOp4
 70
     1
102
RTVSPropertyOp5
 70
     1
102
RTVSPropertyOp6
 70
     1
102
RTVSPropertyOp7
 70
     1
102
RTVSPropertyOp8
 70
     1
102
RTVSPropertyOp9
 70
     1
102
RTVSPropertyOp10
 70
     1
102
RTVSPropertyOp11
 70
     1
102
RTVSPropertyOp12
 70
     1
102
RTVSPropertyOp13
 70
     1
102
RTVSPropertyOp14
 70
     1
102
RTVSPropertyOp15
 70
     1
102
RTVSPropertyOp16
 70
     1
102
RTVSPropertyOp17
 70
     1
102
RTVSPropertyOp18
 70
     1
102
RTVSPropertyOp19
 70
     1
102
RTVSPropertyOp20
 70
     1
102
RTVSPropertyOp21
 70
     1
102
RTVSPropertyOp22
 70
     1
102
RTVSPropertyOp23
 70
     1
102
RTVSPropertyOp24
 70
     1
102
RTVSPropertyOp25
 70
     1
102
RTVSPropertyOp26
 70
     1
102
RTVSPropertyOp27
 70
     1
102
RTVSPropertyOp28
 70
     1
102
RTVSPropertyOp29
 70
     1
102
RTVSPropertyOp30
 70
     1
102
RTVSPropertyOp31
 70
     1
102
RTVSPropertyOp32
 70
     1
  0
XRECORD
  5
3027
102
{ACAD_REACTORS
330
3026
102
}
330
3026
100
AcDbXrecord
280
     1
102
RTVSPropertyOp0
 70
     0
102
RTVSPropertyOp1
 70
     0
102
RTVSPropertyOp2
 70
     0
102
RTVSPropertyOp3
 70
     0
102
RTVSPropertyOp4
 70
     0
102
RTVSPropertyOp5
 70
     0
102
RTVSPropertyOp6
 70
     0
102
RTVSPropertyOp7
 70
     0
102
RTVSPropertyOp8
 70
     0
102
RTVSPropertyOp9
 70
     0
102
RTVSPropertyOp10
 70
     0
102
RTVSPropertyOp11
 70
     0
102
RTVSPropertyOp12
 70
     0
102
RTVSPropertyOp13
 70
     0
102
RTVSPropertyOp14
 70
     2
102
RTVSPropertyOp15
 70
     0
102
RTVSPropertyOp16
 70
     0
102
RTVSPropertyOp17
 70
     0
102
RTVSPropertyOp18
 70
     0
102
RTVSPropertyOp19
 70
     0
102
RTVSPropertyOp20
 70
     0
102
RTVSPropertyOp21
 70
     0
102
RTVSPropertyOp22
 70
     0
102
RTVSPropertyOp23
 70
     0
102
RTVSPropertyOp24
 70
     0
102
RTVSPropertyOp25
 70
     0
102
RTVSPropertyOp26
 70
     0
102
RTVSPropertyOp27
 70
     0
102
RTVSPropertyOp28
 70
     0
102
RTVSPropertyOp29
 70
     0
102
RTVSPropertyOp30
 70
     0
102
RTVSPropertyOp31
 70
     0
102
RTVSPropertyOp32
 70
     0
  0
XRECORD
  5
3015
102
{ACAD_REACTORS
330
3014
102
}
330
3014
100
AcDbXrecord
280
     1
102
RTVSPropertyOp0
 70
     1
102
RTVSPropertyOp1
 70
     1
102
RTVSPropertyOp2
 70
     1
102
RTVSPropertyOp3
 70
     1
102
RTVSPropertyOp4
 70
     1
102
RTVSPropertyOp5
 70
     1
102
RTVSPropertyOp6
 70
     1
102
RTVSPropertyOp7
 70
     1
102
RTVSPropertyOp8
 70
     1
102
RTVSPropertyOp9
 70
     1
102
RTVSPropertyOp10
 70
     1
102
RTVSPropertyOp11
 70
     1
102
RTVSPropertyOp12
 70
     1
102
RTVSPropertyOp13
 70
     1
102
RTVSPropertyOp14
 70
     1
102
RTVSPropertyOp15
 70
     1
102
RTVSPropertyOp16
 70
     1
102
RTVSPropertyOp17
 70
     1
102
RTVSPropertyOp18
 70
     1
102
RTVSPropertyOp19
 70
     1
102
RTVSPropertyOp20
 70
     1
102
RTVSPropertyOp21
 70
     1
102
RTVSPropertyOp22
 70
     1
102
RTVSPropertyOp23
 70
     1
102
RTVSPropertyOp24
 70
     1
102
RTVSPropertyOp25
 70
     1
102
RTVSPropertyOp26
 70
     1
102
RTVSPropertyOp27
 70
     1
102
RTVSPropertyOp28
 70
     1
102
RTVSPropertyOp29
 70
     1
102
RTVSPropertyOp30
 70
     1
102
RTVSPropertyOp31
 70
     1
102
RTVSPropertyOp32
 70
     1
  0
XRECORD
  5
2FF9
102
{ACAD_REACTORS
330
2FF8
102
}
330
2FF8
100
AcDbXrecord
280
     1
102
RTVSPropertyOp0
 70
     1
102
RTVSPropertyOp1
 70
     1
102
RTVSPropertyOp2
 70
     1
102
RTVSPropertyOp3
 70
     1
102
RTVSPropertyOp4
 70
     1
102
RTVSPropertyOp5
 70
     1
102
RTVSPropertyOp6
 70
     1
102
RTVSPropertyOp7
 70
     1
102
RTVSPropertyOp8
 70
     1
102
RTVSPropertyOp9
 70
     1
102
RTVSPropertyOp10
 70
     1
102
RTVSPropertyOp11
 70
     1
102
RTVSPropertyOp12
 70
     1
102
RTVSPropertyOp13
 70
     1
102
RTVSPropertyOp14
 70
     1
102
RTVSPropertyOp15
 70
     1
102
RTVSPropertyOp16
 70
     1
102
RTVSPropertyOp17
 70
     1
102
RTVSPropertyOp18
 70
     1
102
RTVSPropertyOp19
 70
     1
102
RTVSPropertyOp20
 70
     1
102
RTVSPropertyOp21
 70
     1
102
RTVSPropertyOp22
 70
     1
102
RTVSPropertyOp23
 70
     1
102
RTVSPropertyOp24
 70
     1
102
RTVSPropertyOp25
 70
     1
102
RTVSPropertyOp26
 70
     1
102
RTVSPropertyOp27
 70
     1
102
RTVSPropertyOp28
 70
     1
102
RTVSPropertyOp29
 70
     1
102
RTVSPropertyOp30
 70
     1
102
RTVSPropertyOp31
 70
     1
102
RTVSPropertyOp32
 70
     1
  0
XRECORD
  5
2FFB
102
{ACAD_REACTORS
330
2FFA
102
}
330
2FFA
100
AcDbXrecord
280
     1
102
RTVSPropertyOp0
 70
     1
102
RTVSPropertyOp1
 70
     1
102
RTVSPropertyOp2
 70
     1
102
RTVSPropertyOp3
 70
     1
102
RTVSPropertyOp4
 70
     1
102
RTVSPropertyOp5
 70
     1
102
RTVSPropertyOp6
 70
     1
102
RTVSPropertyOp7
 70
     1
102
RTVSPropertyOp8
 70
     1
102
RTVSPropertyOp9
 70
     1
102
RTVSPropertyOp10
 70
     1
102
RTVSPropertyOp11
 70
     1
102
RTVSPropertyOp12
 70
     1
102
RTVSPropertyOp13
 70
     1
102
RTVSPropertyOp14
 70
     1
102
RTVSPropertyOp15
 70
     1
102
RTVSPropertyOp16
 70
     1
102
RTVSPropertyOp17
 70
     1
102
RTVSPropertyOp18
 70
     1
102
RTVSPropertyOp19
 70
     1
102
RTVSPropertyOp20
 70
     1
102
RTVSPropertyOp21
 70
     1
102
RTVSPropertyOp22
 70
     1
102
RTVSPropertyOp23
 70
     1
102
RTVSPropertyOp24
 70
     1
102
RTVSPropertyOp25
 70
     1
102
RTVSPropertyOp26
 70
     1
102
RTVSPropertyOp27
 70
     1
102
RTVSPropertyOp28
 70
     1
102
RTVSPropertyOp29
 70
     1
102
RTVSPropertyOp30
 70
     1
102
RTVSPropertyOp31
 70
     1
102
RTVSPropertyOp32
 70
     1
  0
XRECORD
  5
2FFD
102
{ACAD_REACTORS
330
2FFC
102
}
330
2FFC
100
AcDbXrecord
280
     1
102
RTVSPropertyOp0
 70
     1
102
RTVSPropertyOp1
 70
     1
102
RTVSPropertyOp2
 70
     1
102
RTVSPropertyOp3
 70
     1
102
RTVSPropertyOp4
 70
     1
102
RTVSPropertyOp5
 70
     1
102
RTVSPropertyOp6
 70
     1
102
RTVSPropertyOp7
 70
     1
102
RTVSPropertyOp8
 70
     1
102
RTVSPropertyOp9
 70
     1
102
RTVSPropertyOp10
 70
     1
102
RTVSPropertyOp11
 70
     1
102
RTVSPropertyOp12
 70
     1
102
RTVSPropertyOp13
 70
     1
102
RTVSPropertyOp14
 70
     1
102
RTVSPropertyOp15
 70
     1
102
RTVSPropertyOp16
 70
     1
102
RTVSPropertyOp17
 70
     1
102
RTVSPropertyOp18
 70
     1
102
RTVSPropertyOp19
 70
     1
102
RTVSPropertyOp20
 70
     1
102
RTVSPropertyOp21
 70
     1
102
RTVSPropertyOp22
 70
     1
102
RTVSPropertyOp23
 70
     1
102
RTVSPropertyOp24
 70
     1
102
RTVSPropertyOp25
 70
     1
102
RTVSPropertyOp26
 70
     1
102
RTVSPropertyOp27
 70
     1
102
RTVSPropertyOp28
 70
     1
102
RTVSPropertyOp29
 70
     1
102
RTVSPropertyOp30
 70
     1
102
RTVSPropertyOp31
 70
     1
102
RTVSPropertyOp32
 70
     1
  0
XRECORD
  5
2FFF
102
{ACAD_REACTORS
330
2FFE
102
}
330
2FFE
100
AcDbXrecord
280
     1
102
RTVSPropertyOp0
 70
     1
102
RTVSPropertyOp1
 70
     1
102
RTVSPropertyOp2
 70
     1
102
RTVSPropertyOp3
 70
     1
102
RTVSPropertyOp4
 70
     1
102
RTVSPropertyOp5
 70
     1
102
RTVSPropertyOp6
 70
     1
102
RTVSPropertyOp7
 70
     1
102
RTVSPropertyOp8
 70
     1
102
RTVSPropertyOp9
 70
     1
102
RTVSPropertyOp10
 70
     1
102
RTVSPropertyOp11
 70
     1
102
RTVSPropertyOp12
 70
     1
102
RTVSPropertyOp13
 70
     1
102
RTVSPropertyOp14
 70
     1
102
RTVSPropertyOp15
 70
     1
102
RTVSPropertyOp16
 70
     1
102
RTVSPropertyOp17
 70
     1
102
RTVSPropertyOp18
 70
     1
102
RTVSPropertyOp19
 70
     1
102
RTVSPropertyOp20
 70
     1
102
RTVSPropertyOp21
 70
     1
102
RTVSPropertyOp22
 70
     1
102
RTVSPropertyOp23
 70
     1
102
RTVSPropertyOp24
 70
     1
102
RTVSPropertyOp25
 70
     1
102
RTVSPropertyOp26
 70
     1
102
RTVSPropertyOp27
 70
     1
102
RTVSPropertyOp28
 70
     1
102
RTVSPropertyOp29
 70
     1
102
RTVSPropertyOp30
 70
     1
102
RTVSPropertyOp31
 70
     1
102
RTVSPropertyOp32
 70
     1
  0
XRECORD
  5
3007
102
{ACAD_REACTORS
330
3006
102
}
330
3006
100
AcDbXrecord
280
     1
102
RTVSPropertyOp0
 70
     1
102
RTVSPropertyOp1
 70
     1
102
RTVSPropertyOp2
 70
     1
102
RTVSPropertyOp3
 70
     1
102
RTVSPropertyOp4
 70
     1
102
RTVSPropertyOp5
 70
     1
102
RTVSPropertyOp6
 70
     1
102
RTVSPropertyOp7
 70
     1
102
RTVSPropertyOp8
 70
     1
102
RTVSPropertyOp9
 70
     1
102
RTVSPropertyOp10
 70
     1
102
RTVSPropertyOp11
 70
     1
102
RTVSPropertyOp12
 70
     1
102
RTVSPropertyOp13
 70
     1
102
RTVSPropertyOp14
 70
     1
102
RTVSPropertyOp15
 70
     1
102
RTVSPropertyOp16
 70
     1
102
RTVSPropertyOp17
 70
     1
102
RTVSPropertyOp18
 70
     1
102
RTVSPropertyOp19
 70
     1
102
RTVSPropertyOp20
 70
     1
102
RTVSPropertyOp21
 70
     1
102
RTVSPropertyOp22
 70
     1
102
RTVSPropertyOp23
 70
     1
102
RTVSPropertyOp24
 70
     1
102
RTVSPropertyOp25
 70
     1
102
RTVSPropertyOp26
 70
     1
102
RTVSPropertyOp27
 70
     1
102
RTVSPropertyOp28
 70
     1
102
RTVSPropertyOp29
 70
     1
102
RTVSPropertyOp30
 70
     1
102
RTVSPropertyOp31
 70
     1
102
RTVSPropertyOp32
 70
     1
  0
XRECORD
  5
3023
102
{ACAD_REACTORS
330
3022
102
}
330
3022
100
AcDbXrecord
280
     1
102
RTVSPropertyOp0
 70
     0
102
RTVSPropertyOp1
 70
     0
102
RTVSPropertyOp2
 70
     0
102
RTVSPropertyOp3
 70
     0
102
RTVSPropertyOp4
 70
     0
102
RTVSPropertyOp5
 70
     0
102
RTVSPropertyOp6
 70
     0
102
RTVSPropertyOp7
 70
     0
102
RTVSPropertyOp8
 70
     0
102
RTVSPropertyOp9
 70
     0
102
RTVSPropertyOp10
 70
     0
102
RTVSPropertyOp11
 70
     0
102
RTVSPropertyOp12
 70
     0
102
RTVSPropertyOp13
 70
     0
102
RTVSPropertyOp14
 70
     2
102
RTVSPropertyOp15
 70
     0
102
RTVSPropertyOp16
 70
     0
102
RTVSPropertyOp17
 70
     0
102
RTVSPropertyOp18
 70
     0
102
RTVSPropertyOp19
 70
     0
102
RTVSPropertyOp20
 70
     0
102
RTVSPropertyOp21
 70
     0
102
RTVSPropertyOp22
 70
     0
102
RTVSPropertyOp23
 70
     0
102
RTVSPropertyOp24
 70
     0
102
RTVSPropertyOp25
 70
     0
102
RTVSPropertyOp26
 70
     0
102
RTVSPropertyOp27
 70
     0
102
RTVSPropertyOp28
 70
     0
102
RTVSPropertyOp29
 70
     0
102
RTVSPropertyOp30
 70
     0
102
RTVSPropertyOp31
 70
     0
102
RTVSPropertyOp32
 70
     0
  0
XRECORD
  5
3013
102
{ACAD_REACTORS
330
3012
102
}
330
3012
100
AcDbXrecord
280
     1
102
RTVSPropertyOp0
 70
     1
102
RTVSPropertyOp1
 70
     1
102
RTVSPropertyOp2
 70
     1
102
RTVSPropertyOp3
 70
     1
102
RTVSPropertyOp4
 70
     1
102
RTVSPropertyOp5
 70
     1
102
RTVSPropertyOp6
 70
     1
102
RTVSPropertyOp7
 70
     1
102
RTVSPropertyOp8
 70
     1
102
RTVSPropertyOp9
 70
     1
102
RTVSPropertyOp10
 70
     1
102
RTVSPropertyOp11
 70
     1
102
RTVSPropertyOp12
 70
     1
102
RTVSPropertyOp13
 70
     1
102
RTVSPropertyOp14
 70
     1
102
RTVSPropertyOp15
 70
     1
102
RTVSPropertyOp16
 70
     1
102
RTVSPropertyOp17
 70
     1
102
RTVSPropertyOp18
 70
     1
102
RTVSPropertyOp19
 70
     1
102
RTVSPropertyOp20
 70
     1
102
RTVSPropertyOp21
 70
     1
102
RTVSPropertyOp22
 70
     1
102
RTVSPropertyOp23
 70
     1
102
RTVSPropertyOp24
 70
     1
102
RTVSPropertyOp25
 70
     1
102
RTVSPropertyOp26
 70
     1
102
RTVSPropertyOp27
 70
     1
102
RTVSPropertyOp28
 70
     1
102
RTVSPropertyOp29
 70
     1
102
RTVSPropertyOp30
 70
     1
102
RTVSPropertyOp31
 70
     1
102
RTVSPropertyOp32
 70
     1
  0
XRECORD
  5
3025
102
{ACAD_REACTORS
330
3024
102
}
330
3024
100
AcDbXrecord
280
     1
102
RTVSPropertyOp0
 70
     0
102
RTVSPropertyOp1
 70
     0
102
RTVSPropertyOp2
 70
     0
102
RTVSPropertyOp3
 70
     0
102
RTVSPropertyOp4
 70
     0
102
RTVSPropertyOp5
 70
     0
102
RTVSPropertyOp6
 70
     0
102
RTVSPropertyOp7
 70
     0
102
RTVSPropertyOp8
 70
     0
102
RTVSPropertyOp9
 70
     0
102
RTVSPropertyOp10
 70
     0
102
RTVSPropertyOp11
 70
     0
102
RTVSPropertyOp12
 70
     0
102
RTVSPropertyOp13
 70
     0
102
RTVSPropertyOp14
 70
     2
102
RTVSPropertyOp15
 70
     0
102
RTVSPropertyOp16
 70
     0
102
RTVSPropertyOp17
 70
     0
102
RTVSPropertyOp18
 70
     0
102
RTVSPropertyOp19
 70
     0
102
RTVSPropertyOp20
 70
     0
102
RTVSPropertyOp21
 70
     0
102
RTVSPropertyOp22
 70
     0
102
RTVSPropertyOp23
 70
     0
102
RTVSPropertyOp24
 70
     0
102
RTVSPropertyOp25
 70
     0
102
RTVSPropertyOp26
 70
     0
102
RTVSPropertyOp27
 70
     0
102
RTVSPropertyOp28
 70
     0
102
RTVSPropertyOp29
 70
     0
102
RTVSPropertyOp30
 70
     0
102
RTVSPropertyOp31
 70
     0
102
RTVSPropertyOp32
 70
     0
  0
XRECORD
  5
300B
102
{ACAD_REACTORS
330
300A
102
}
330
300A
100
AcDbXrecord
280
     1
102
RTVSPropertyOp0
 70
     1
102
RTVSPropertyOp1
 70
     1
102
RTVSPropertyOp2
 70
     1
102
RTVSPropertyOp3
 70
     1
102
RTVSPropertyOp4
 70
     1
102
RTVSPropertyOp5
 70
     1
102
RTVSPropertyOp6
 70
     1
102
RTVSPropertyOp7
 70
     1
102
RTVSPropertyOp8
 70
     1
102
RTVSPropertyOp9
 70
     1
102
RTVSPropertyOp10
 70
     1
102
RTVSPropertyOp11
 70
     1
102
RTVSPropertyOp12
 70
     1
102
RTVSPropertyOp13
 70
     1
102
RTVSPropertyOp14
 70
     1
102
RTVSPropertyOp15
 70
     1
102
RTVSPropertyOp16
 70
     1
102
RTVSPropertyOp17
 70
     1
102
RTVSPropertyOp18
 70
     1
102
RTVSPropertyOp19
 70
     1
102
RTVSPropertyOp20
 70
     1
102
RTVSPropertyOp21
 70
     1
102
RTVSPropertyOp22
 70
     1
102
RTVSPropertyOp23
 70
     1
102
RTVSPropertyOp24
 70
     1
102
RTVSPropertyOp25
 70
     1
102
RTVSPropertyOp26
 70
     1
102
RTVSPropertyOp27
 70
     1
102
RTVSPropertyOp28
 70
     1
102
RTVSPropertyOp29
 70
     1
102
RTVSPropertyOp30
 70
     1
102
RTVSPropertyOp31
 70
     1
102
RTVSPropertyOp32
 70
     1
  0
XRECORD
  5
3021
102
{ACAD_REACTORS
330
3020
102
}
330
3020
100
AcDbXrecord
280
     1
102
RTVSPropertyOp0
 70
     1
102
RTVSPropertyOp1
 70
     1
102
RTVSPropertyOp2
 70
     1
102
RTVSPropertyOp3
 70
     1
102
RTVSPropertyOp4
 70
     1
102
RTVSPropertyOp5
 70
     1
102
RTVSPropertyOp6
 70
     1
102
RTVSPropertyOp7
 70
     1
102
RTVSPropertyOp8
 70
     1
102
RTVSPropertyOp9
 70
     1
102
RTVSPropertyOp10
 70
     1
102
RTVSPropertyOp11
 70
     1
102
RTVSPropertyOp12
 70
     1
102
RTVSPropertyOp13
 70
     1
102
RTVSPropertyOp14
 70
     1
102
RTVSPropertyOp15
 70
     1
102
RTVSPropertyOp16
 70
     1
102
RTVSPropertyOp17
 70
     1
102
RTVSPropertyOp18
 70
     1
102
RTVSPropertyOp19
 70
     1
102
RTVSPropertyOp20
 70
     1
102
RTVSPropertyOp21
 70
     1
102
RTVSPropertyOp22
 70
     1
102
RTVSPropertyOp23
 70
     1
102
RTVSPropertyOp24
 70
     1
102
RTVSPropertyOp25
 70
     1
102
RTVSPropertyOp26
 70
     1
102
RTVSPropertyOp27
 70
     1
102
RTVSPropertyOp28
 70
     1
102
RTVSPropertyOp29
 70
     1
102
RTVSPropertyOp30
 70
     1
102
RTVSPropertyOp31
 70
     1
102
RTVSPropertyOp32
 70
     1
  0
XRECORD
  5
301F
102
{ACAD_REACTORS
330
301E
102
}
330
301E
100
AcDbXrecord
280
     1
102
RTVSPropertyOp0
 70
     1
102
RTVSPropertyOp1
 70
     1
102
RTVSPropertyOp2
 70
     1
102
RTVSPropertyOp3
 70
     1
102
RTVSPropertyOp4
 70
     1
102
RTVSPropertyOp5
 70
     1
102
RTVSPropertyOp6
 70
     1
102
RTVSPropertyOp7
 70
     1
102
RTVSPropertyOp8
 70
     1
102
RTVSPropertyOp9
 70
     1
102
RTVSPropertyOp10
 70
     1
102
RTVSPropertyOp11
 70
     1
102
RTVSPropertyOp12
 70
     1
102
RTVSPropertyOp13
 70
     1
102
RTVSPropertyOp14
 70
     1
102
RTVSPropertyOp15
 70
     1
102
RTVSPropertyOp16
 70
     1
102
RTVSPropertyOp17
 70
     1
102
RTVSPropertyOp18
 70
     1
102
RTVSPropertyOp19
 70
     1
102
RTVSPropertyOp20
 70
     1
102
RTVSPropertyOp21
 70
     1
102
RTVSPropertyOp22
 70
     1
102
RTVSPropertyOp23
 70
     1
102
RTVSPropertyOp24
 70
     1
102
RTVSPropertyOp25
 70
     1
102
RTVSPropertyOp26
 70
     1
102
RTVSPropertyOp27
 70
     1
102
RTVSPropertyOp28
 70
     1
102
RTVSPropertyOp29
 70
     1
102
RTVSPropertyOp30
 70
     1
102
RTVSPropertyOp31
 70
     1
102
RTVSPropertyOp32
 70
     1
  0
XRECORD
  5
3019
102
{ACAD_REACTORS
330
3018
102
}
330
3018
100
AcDbXrecord
280
     1
102
RTVSPropertyOp0
 70
     1
102
RTVSPropertyOp1
 70
     1
102
RTVSPropertyOp2
 70
     1
102
RTVSPropertyOp3
 70
     1
102
RTVSPropertyOp4
 70
     1
102
RTVSPropertyOp5
 70
     1
102
RTVSPropertyOp6
 70
     1
102
RTVSPropertyOp7
 70
     1
102
RTVSPropertyOp8
 70
     1
102
RTVSPropertyOp9
 70
     1
102
RTVSPropertyOp10
 70
     1
102
RTVSPropertyOp11
 70
     1
102
RTVSPropertyOp12
 70
     1
102
RTVSPropertyOp13
 70
     1
102
RTVSPropertyOp14
 70
     1
102
RTVSPropertyOp15
 70
     1
102
RTVSPropertyOp16
 70
     1
102
RTVSPropertyOp17
 70
     1
102
RTVSPropertyOp18
 70
     1
102
RTVSPropertyOp19
 70
     1
102
RTVSPropertyOp20
 70
     1
102
RTVSPropertyOp21
 70
     1
102
RTVSPropertyOp22
 70
     1
102
RTVSPropertyOp23
 70
     1
102
RTVSPropertyOp24
 70
     1
102
RTVSPropertyOp25
 70
     1
102
RTVSPropertyOp26
 70
     1
102
RTVSPropertyOp27
 70
     1
102
RTVSPropertyOp28
 70
     1
102
RTVSPropertyOp29
 70
     1
102
RTVSPropertyOp30
 70
     1
102
RTVSPropertyOp31
 70
     1
102
RTVSPropertyOp32
 70
     1
  0
XRECORD
  5
301B
102
{ACAD_REACTORS
330
301A
102
}
330
301A
100
AcDbXrecord
280
     1
102
RTVSPropertyOp0
 70
     1
102
RTVSPropertyOp1
 70
     1
102
RTVSPropertyOp2
 70
     1
102
RTVSPropertyOp3
 70
     1
102
RTVSPropertyOp4
 70
     1
102
RTVSPropertyOp5
 70
     1
102
RTVSPropertyOp6
 70
     1
102
RTVSPropertyOp7
 70
     1
102
RTVSPropertyOp8
 70
     1
102
RTVSPropertyOp9
 70
     1
102
RTVSPropertyOp10
 70
     1
102
RTVSPropertyOp11
 70
     1
102
RTVSPropertyOp12
 70
     1
102
RTVSPropertyOp13
 70
     1
102
RTVSPropertyOp14
 70
     1
102
RTVSPropertyOp15
 70
     1
102
RTVSPropertyOp16
 70
     1
102
RTVSPropertyOp17
 70
     1
102
RTVSPropertyOp18
 70
     1
102
RTVSPropertyOp19
 70
     1
102
RTVSPropertyOp20
 70
     1
102
RTVSPropertyOp21
 70
     1
102
RTVSPropertyOp22
 70
     1
102
RTVSPropertyOp23
 70
     1
102
RTVSPropertyOp24
 70
     1
102
RTVSPropertyOp25
 70
     1
102
RTVSPropertyOp26
 70
     1
102
RTVSPropertyOp27
 70
     1
102
RTVSPropertyOp28
 70
     1
102
RTVSPropertyOp29
 70
     1
102
RTVSPropertyOp30
 70
     1
102
RTVSPropertyOp31
 70
     1
102
RTVSPropertyOp32
 70
     1
  0
XRECORD
  5
3011
102
{ACAD_REACTORS
330
3010
102
}
330
3010
100
AcDbXrecord
280
     1
102
RTVSPropertyOp0
 70
     1
102
RTVSPropertyOp1
 70
     1
102
RTVSPropertyOp2
 70
     1
102
RTVSPropertyOp3
 70
     1
102
RTVSPropertyOp4
 70
     1
102
RTVSPropertyOp5
 70
     1
102
RTVSPropertyOp6
 70
     1
102
RTVSPropertyOp7
 70
     1
102
RTVSPropertyOp8
 70
     1
102
RTVSPropertyOp9
 70
     1
102
RTVSPropertyOp10
 70
     1
102
RTVSPropertyOp11
 70
     1
102
RTVSPropertyOp12
 70
     1
102
RTVSPropertyOp13
 70
     1
102
RTVSPropertyOp14
 70
     1
102
RTVSPropertyOp15
 70
     1
102
RTVSPropertyOp16
 70
     1
102
RTVSPropertyOp17
 70
     1
102
RTVSPropertyOp18
 70
     1
102
RTVSPropertyOp19
 70
     1
102
RTVSPropertyOp20
 70
     1
102
RTVSPropertyOp21
 70
     1
102
RTVSPropertyOp22
 70
     1
102
RTVSPropertyOp23
 70
     1
102
RTVSPropertyOp24
 70
     1
102
RTVSPropertyOp25
 70
     1
102
RTVSPropertyOp26
 70
     1
102
RTVSPropertyOp27
 70
     1
102
RTVSPropertyOp28
 70
     1
102
RTVSPropertyOp29
 70
     1
102
RTVSPropertyOp30
 70
     1
102
RTVSPropertyOp31
 70
     1
102
RTVSPropertyOp32
 70
     1
  0
XRECORD
  5
3005
102
{ACAD_REACTORS
330
3004
102
}
330
3004
100
AcDbXrecord
280
     1
102
RTVSPropertyOp0
 70
     1
102
RTVSPropertyOp1
 70
     1
102
RTVSPropertyOp2
 70
     1
102
RTVSPropertyOp3
 70
     1
102
RTVSPropertyOp4
 70
     1
102
RTVSPropertyOp5
 70
     1
102
RTVSPropertyOp6
 70
     1
102
RTVSPropertyOp7
 70
     1
102
RTVSPropertyOp8
 70
     1
102
RTVSPropertyOp9
 70
     1
102
RTVSPropertyOp10
 70
     1
102
RTVSPropertyOp11
 70
     1
102
RTVSPropertyOp12
 70
     1
102
RTVSPropertyOp13
 70
     1
102
RTVSPropertyOp14
 70
     1
102
RTVSPropertyOp15
 70
     1
102
RTVSPropertyOp16
 70
     1
102
RTVSPropertyOp17
 70
     1
102
RTVSPropertyOp18
 70
     1
102
RTVSPropertyOp19
 70
     1
102
RTVSPropertyOp20
 70
     1
102
RTVSPropertyOp21
 70
     1
102
RTVSPropertyOp22
 70
     1
102
RTVSPropertyOp23
 70
     1
102
RTVSPropertyOp24
 70
     1
102
RTVSPropertyOp25
 70
     1
102
RTVSPropertyOp26
 70
     1
102
RTVSPropertyOp27
 70
     1
102
RTVSPropertyOp28
 70
     1
102
RTVSPropertyOp29
 70
     1
102
RTVSPropertyOp30
 70
     1
102
RTVSPropertyOp31
 70
     1
102
RTVSPropertyOp32
 70
     1
  0
XRECORD
  5
301D
102
{ACAD_REACTORS
330
301C
102
}
330
301C
100
AcDbXrecord
280
     1
102
RTVSPropertyOp0
 70
     1
102
RTVSPropertyOp1
 70
     1
102
RTVSPropertyOp2
 70
     1
102
RTVSPropertyOp3
 70
     1
102
RTVSPropertyOp4
 70
     1
102
RTVSPropertyOp5
 70
     1
102
RTVSPropertyOp6
 70
     1
102
RTVSPropertyOp7
 70
     1
102
RTVSPropertyOp8
 70
     1
102
RTVSPropertyOp9
 70
     1
102
RTVSPropertyOp10
 70
     1
102
RTVSPropertyOp11
 70
     1
102
RTVSPropertyOp12
 70
     1
102
RTVSPropertyOp13
 70
     1
102
RTVSPropertyOp14
 70
     1
102
RTVSPropertyOp15
 70
     1
102
RTVSPropertyOp16
 70
     1
102
RTVSPropertyOp17
 70
     1
102
RTVSPropertyOp18
 70
     1
102
RTVSPropertyOp19
 70
     1
102
RTVSPropertyOp20
 70
     1
102
RTVSPropertyOp21
 70
     1
102
RTVSPropertyOp22
 70
     1
102
RTVSPropertyOp23
 70
     1
102
RTVSPropertyOp24
 70
     1
102
RTVSPropertyOp25
 70
     1
102
RTVSPropertyOp26
 70
     1
102
RTVSPropertyOp27
 70
     1
102
RTVSPropertyOp28
 70
     1
102
RTVSPropertyOp29
 70
     1
102
RTVSPropertyOp30
 70
     1
102
RTVSPropertyOp31
 70
     1
102
RTVSPropertyOp32
 70
     1
  0
ENDSEC
  0
EOF
