  0
SECTION
  2
HEADER
  9
$ACADVER
  1
AC1015
  9
$ACADMAINTVER
 70
     6
  9
$DWGCODEPAGE
  3
ANSI_932
  9
$INSBASE
 10
0.0
 20
0.0
 30
0.0
  9
$EXTMIN
 10
0.0
 20
-400.4618930181264
 30
0.0
  9
$EXTMAX
 10
4200.0
 20
2970.0
 30
0.0
  9
$LIMMIN
 10
0.0
 20
0.0
  9
$LIMMAX
 10
4200.0
 20
2970.0
  9
$ORTHOMODE
 70
     1
  9
$REGENMODE
 70
     0
  9
$FILLMODE
 70
     1
  9
$QTEXTMODE
 70
     0
  9
$MIRRTEXT
 70
     1
  9
$LTSCALE
 40
10.0
  9
$ATTMODE
 70
     1
  9
$TEXTSIZE
 40
30.0
  9
$TRACEWID
 40
9.0
  9
$TEXTSTYLE
  7
STD
  9
$CLAYER
  8
0
  9
$CELTYPE
  6
CONTINUOUS
  9
$CECOLOR
 62
     7
  9
$CELTSCALE
 40
1.0
  9
$DISPSILH
 70
     0
  9
$DIMSCALE
 40
10.0
  9
$DIMASZ
 40
2.0
  9
$DIMEXO
 40
1.0
  9
$DIMDLI
 40
0.0
  9
$DIMRND
 40
0.0
  9
$DIMDLE
 40
2.0
  9
$DIMEXE
 40
1.0
  9
$DIMTP
 40
0.0
  9
$DIMTM
 40
0.0
  9
$DIMTXT
 40
2.0
  9
$DIMCEN
 40
0.0
  9
$DIMTSZ
 40
0.0
  9
$DIMTOL
 70
     0
  9
$DIMLIM
 70
     0
  9
$DIMTIH
 70
     0
  9
$DIMTOH
 70
     0
  9
$DIMSE1
 70
     0
  9
$DIMSE2
 70
     0
  9
$DIMTAD
 70
     0
  9
$DIMZIN
 70
     8
  9
$DIMBLK
  1

  9
$DIMASO
 70
     1
  9
$DIMSHO
 70
     0
  9
$DIMPOST
  1

  9
$DIMAPOST
  1

  9
$DIMALT
 70
     0
  9
$DIMALTD
 70
     2
  9
$DIMALTF
 40
25.4
  9
$DIMLFAC
 40
1.0
  9
$DIMTOFL
 70
     1
  9
$DIMTVP
 40
1.0
  9
$DIMTIX
 70
     0
  9
$DIMSOXD
 70
     0
  9
$DIMSAH
 70
     0
  9
$DIMBLK1
  1

  9
$DIMBLK2
  1
ARRI
  9
$DIMSTYLE
  2
ASKSTANDARD
  9
$DIMCLRD
 70
     3
  9
$DIMCLRE
 70
     3
  9
$DIMCLRT
 70
     3
  9
$DIMTFAC
 40
0.7
  9
$DIMGAP
 40
0.09
  9
$DIMJUST
 70
     0
  9
$DIMSD1
 70
     0
  9
$DIMSD2
 70
     0
  9
$DIMTOLJ
 70
     1
  9
$DIMTZIN
 70
     0
  9
$DIMALTZ
 70
     0
  9
$DIMALTTZ
 70
     0
  9
$DIMUPT
 70
     0
  9
$DIMDEC
 70
     2
  9
$DIMTDEC
 70
     2
  9
$DIMALTU
 70
     2
  9
$DIMALTTD
 70
     2
  9
$DIMTXSTY
  7
STD
  9
$DIMAUNIT
 70
     0
  9
$DIMADEC
 70
     0
  9
$DIMALTRND
 40
0.0
  9
$DIMAZIN
 70
     0
  9
$DIMDSEP
 70
    46
  9
$DIMATFIT
 70
     3
  9
$DIMFRAC
 70
     0
  9
$DIMLDRBLK
  1

  9
$DIMLUNIT
 70
     2
  9
$DIMLWD
 70
    -2
  9
$DIMLWE
 70
    -2
  9
$DIMTMOVE
 70
     2
  9
$LUNITS
 70
     2
  9
$LUPREC
 70
     2
  9
$SKETCHINC
 40
0.1
  9
$FILLETRAD
 40
0.0
  9
$AUNITS
 70
     0
  9
$AUPREC
 70
     2
  9
$MENU
  1
sk
  9
$ELEVATION
 40
0.0
  9
$PELEVATION
 40
0.0
  9
$THICKNESS
 40
0.0
  9
$LIMCHECK
 70
     0
  9
$CHAMFERA
 40
2.0
  9
$CHAMFERB
 40
2.0
  9
$CHAMFERC
 40
0.0
  9
$CHAMFERD
 40
0.0
  9
$SKPOLY
 70
     0
  9
$TDCREATE
 40
2449749.614178241
  9
$TDUCREATE
 40
2449749.239178241
  9
$TDUPDATE
 40
2458698.610940718
  9
$TDUUPDATE
 40
2458698.235940718
  9
$TDINDWG
 40
0.0574656944
  9
$TDUSRTIMER
 40
0.0013823495
  9
$USRTIMER
 70
     1
  9
$ANGBASE
 50
0.0
  9
$ANGDIR
 70
     0
  9
$PDMODE
 70
     3
  9
$PDSIZE
 40
0.0
  9
$PLINEWID
 40
0.0
  9
$SPLFRAME
 70
     0
  9
$SPLINETYPE
 70
     6
  9
$SPLINESEGS
 70
     8
  9
$HANDSEED
  5
DE5
  9
$SURFTAB1
 70
     6
  9
$SURFTAB2
 70
     6
  9
$SURFTYPE
 70
     6
  9
$SURFU
 70
     6
  9
$SURFV
 70
     6
  9
$UCSBASE
  2

  9
$UCSNAME
  2

  9
$UCSORG
 10
0.0
 20
0.0
 30
0.0
  9
$UCSXDIR
 10
1.0
 20
0.0
 30
0.0
  9
$UCSYDIR
 10
0.0
 20
1.0
 30
0.0
  9
$UCSORTHOREF
  2

  9
$UCSORTHOVIEW
 70
     0
  9
$UCSORGTOP
 10
0.0
 20
0.0
 30
0.0
  9
$UCSORGBOTTOM
 10
0.0
 20
0.0
 30
0.0
  9
$UCSORGLEFT
 10
0.0
 20
0.0
 30
0.0
  9
$UCSORGRIGHT
 10
0.0
 20
0.0
 30
0.0
  9
$UCSORGFRONT
 10
0.0
 20
0.0
 30
0.0
  9
$UCSORGBACK
 10
0.0
 20
0.0
 30
0.0
  9
$PUCSBASE
  2

  9
$PUCSNAME
  2

  9
$PUCSORG
 10
0.0
 20
0.0
 30
0.0
  9
$PUCSXDIR
 10
1.0
 20
0.0
 30
0.0
  9
$PUCSYDIR
 10
0.0
 20
1.0
 30
0.0
  9
$PUCSORTHOREF
  2

  9
$PUCSORTHOVIEW
 70
     0
  9
$PUCSORGTOP
 10
0.0
 20
0.0
 30
0.0
  9
$PUCSORGBOTTOM
 10
0.0
 20
0.0
 30
0.0
  9
$PUCSORGLEFT
 10
0.0
 20
0.0
 30
0.0
  9
$PUCSORGRIGHT
 10
0.0
 20
0.0
 30
0.0
  9
$PUCSORGFRONT
 10
0.0
 20
0.0
 30
0.0
  9
$PUCSORGBACK
 10
0.0
 20
0.0
 30
0.0
  9
$USERI1
 70
     0
  9
$USERI2
 70
     0
  9
$USERI3
 70
     1
  9
$USERI4
 70
     0
  9
$USERI5
 70
    15
  9
$USERR1
 40
0.0
  9
$USERR2
 40
0.0
  9
$USERR3
 40
0.0
  9
$USERR4
 40
0.0
  9
$USERR5
 40
0.0
  9
$WORLDVIEW
 70
     1
  9
$SHADEDGE
 70
     3
  9
$SHADEDIF
 70
    70
  9
$TILEMODE
 70
     1
  9
$MAXACTVP
 70
    16
  9
$PINSBASE
 10
0.0
 20
0.0
 30
0.0
  9
$PLIMCHECK
 70
     0
  9
$PEXTMIN
 10
1.000000000000000E+20
 20
1.000000000000000E+20
 30
1.000000000000000E+20
  9
$PEXTMAX
 10
-1.000000000000000E+20
 20
-1.000000000000000E+20
 30
-1.000000000000000E+20
  9
$PLIMMIN
 10
0.0
 20
0.0
  9
$PLIMMAX
 10
0.0
 20
0.0
  9
$UNITMODE
 70
     0
  9
$VISRETAIN
 70
     0
  9
$PLINEGEN
 70
     0
  9
$PSLTSCALE
 70
     0
  9
$TREEDEPTH
 70
  3020
  9
$CMLSTYLE
  2
STANDARD
  9
$CMLJUST
 70
     0
  9
$CMLSCALE
 40
1.0
  9
$PROXYGRAPHICS
 70
     1
  9
$MEASUREMENT
 70
     0
  9
$CELWEIGHT
370
    -1
  9
$ENDCAPS
280
     0
  9
$JOINSTYLE
280
     0
  9
$LWDISPLAY
290
     0
  9
$INSUNITS
 70
     0
  9
$HYPERLINKBASE
  1

  9
$STYLESHEET
  1
モノクロ.ctb
  9
$XEDIT
290
     1
  9
$CEPSNTYPE
380
     0
  9
$PSTYLEMODE
290
     1
  9
$FINGERPRINTGUID
  2
{C8763EA9-8B4C-4E1E-BE68-0DD41ADA9AE2}
  9
$VERSIONGUID
  2
{090EA47A-9315-4D35-869A-C6254D7C01DD}
  9
$EXTNAMES
290
     1
  9
$PSVPSCALE
 40
0.0
  9
$OLESTARTUP
290
     0
  0
ENDSEC
  0
SECTION
  2
CLASSES
  0
CLASS
  1
DICTIONARYVAR
  2
AcDbDictionaryVar
  3
ObjectDBX Classes
 90
        0
280
     0
281
     0
  0
CLASS
  1
ACDBDICTIONARYWDFLT
  2
AcDbDictionaryWithDefault
  3
ObjectDBX Classes
 90
        0
280
     0
281
     0
  0
CLASS
  1
ACDBPLACEHOLDER
  2
AcDbPlaceHolder
  3
ObjectDBX Classes
 90
        0
280
     0
281
     0
  0
CLASS
  1
LAYOUT
  2
AcDbLayout
  3
ObjectDBX Classes
 90
        0
280
     0
281
     0
  0
CLASS
  1
ACME_DOCUMENT
  2
AcMeDbDoc
  3
AcMeServices
 90
   -65536
280
     1
281
     0
  0
CLASS
  1
AMGSETTINGSOBJ
  2
AmgSettingsObj
  3
"AcadM|Product Description: AutoCAD Mechanical 2000|Company: Autodesk"
 90
        0
280
     1
281
     0
  0
CLASS
  1
ACMESCOPE
  2
AcMeScope
  3
AcMeServices
 90
        0
280
     1
281
     0
  0
CLASS
  1
ACMECOMMANDHISTORY
  2
AcMeCommandHistory
  3
AcMeServices
 90
        0
280
     1
281
     0
  0
CLASS
  1
ACIMSYSVARMAN
  2
AcImSysVarManager
  3
AcMeServices
 90
        0
280
     1
281
     0
  0
CLASS
  1
ACIMREALSYSVAR
  2
AcImRealSysVar
  3
AcMeServices
 90
        0
280
     1
281
     0
  0
CLASS
  1
ACIMINTSYSVAR
  2
AcImIntSysVar
  3
AcMeServices
 90
        0
280
     1
281
     0
  0
CLASS
  1
ACMEDRAWINGMAN
  2
AcMeDrawingMan
  3
AcMeServices
 90
        0
280
     1
281
     0
  0
CLASS
  1
ACMEVIEW
  2
AcMeView
  3
AcMeServices
 90
        0
280
     1
281
     0
  0
CLASS
  1
ACDBENTITYCACHE
  2
AcMeEntityCache
  3
AcMeServices
 90
   -65536
280
     1
281
     0
  0
CLASS
  1
GSMANAGER
  2
AcMeGSManager
  3
AcMeServices
 90
   -65536
280
     1
281
     0
  0
CLASS
  1
AmdtInternalReactor
  2
AmdtInternalReactor
  3
AcMeServices
 90
   -65536
280
     1
281
     0
  0
CLASS
  1
ACMESTATEMGR
  2
AcMeStateMgr
  3
AcMeServices
 90
        0
280
     1
281
     0
  0
CLASS
  1
ACGREFMASTER
  2
AcGrefMaster
  3
AcAttribServices
 90
   -65536
280
     1
281
     0
  0
CLASS
  1
AM_DRAWING_MGR
  2
AcDmDwgMgr
  3
AcMechDwgViewMgmt
 90
        0
280
     1
281
     0
  0
CLASS
  1
AM_DWG_DOCUMENT
  2
AcDmDwgDocument
  3
AcMechDwgViewMgmt
 90
        0
280
     1
281
     0
  0
CLASS
  1
AM_DWG_SHEET
  2
AcDmSheet
  3
AcMechDwgViewMgmt
 90
        0
280
     1
281
     0
  0
CLASS
  1
AM_VIEWDIMPARMAP
  2
AcDmViewDimParMap
  3
AcMechDwgViewMgmt
 90
        0
280
     1
281
     0
  0
CLASS
  1
AM_DWGMGR_NAME
  2
AcDmDwgMgrName
  3
AcMechDwgViewMgmt
 90
        0
280
     1
281
     0
  0
CLASS
  1
ACME_DATABASE
  2
AcMeDbDatabase
  3
AcMeServices
 90
   -65536
280
     1
281
     0
  0
CLASS
  1
ACRFINSADJUSTERMGR
  2
AcRfInsAdjusterMgr
  3
AcMeServices
 90
   -65536
280
     1
281
     0
  0
CLASS
  1
ACGREFMASTER
  2
AcGrefacadMaster
  3
AcGrefServices
 90
        0
280
     1
281
     0
  0
CLASS
  1
AMDTMENUSTATEMGR
  2
AmdtMenuStateMgr
  3
McadcomServices
 90
   -65536
280
     1
281
     0
  0
CLASS
  1
AMDTMCOMMENUSTATE
  2
AmdtMcomMenuState
  3
McadcomServices
 90
   -65536
280
     1
281
     0
  0
CLASS
  1
ASAPP
  2
AcAsAppObject
  3
AutoSurfServices
 90
        0
280
     1
281
     0
  0
CLASS
  1
IM_STATIC_MAN
  2
AcImStaticVarManager
  3
AcMeServices
 90
        0
280
     1
281
     0
  0
CLASS
  1
ACIMSTRSYSVAR
  2
AcImStrSysVar
  3
AcMeServices
 90
        0
280
     1
281
     0
  0
CLASS
  1
ACIMDBLSTATICVAR
  2
AcImDblStaticVar
  3
AcMeServices
 90
        0
280
     1
281
     0
  0
CLASS
  1
ACIMSTRSTATICVAR
  2
AcImStrStaticVar
  3
AcMeServices
 90
        0
280
     1
281
     0
  0
CLASS
  1
ACIMINTSTATICVAR
  2
AcImIntStaticVar
  3
AcMeServices
 90
        0
280
     1
281
     0
  0
CLASS
  1
ACADGREFMODULE
  2
AcAdGrefModule
  3
AdGrefServices
 90
        0
280
     1
281
     0
  0
CLASS
  1
AMIMASTER
  2
AmiMaster
  3
AmiServices
 90
        0
280
     1
281
     0
  0
CLASS
  1
ACASGREFMASTER
  2
AcAsGrefMaster
  3
AutoSurfResolverServices
 90
        0
280
     1
281
     0
  0
CLASS
  1
MAPIAMMOUDLE
  2
MApiAmModule
  3
MApiAmServices
 90
        0
280
     1
281
     0
  0
CLASS
  1
AMDTDMMENUSTATE
  2
AmdtDmMenuState
  3
AcMechDwgViewMgmt
 90
   -65536
280
     1
281
     0
  0
CLASS
  1
AMDTADMENUSTATE
  2
AmdtAdMenuState
  3
DesignerServices
 90
   -65536
280
     1
281
     0
  0
CLASS
  1
ADAPPL
  2
AcAdAppl
  3
DesignerServices
 90
        0
280
     1
281
     0
  0
CLASS
  1
DEPMGR
  2
AcAdDepMgr
  3
DesignerServices
 90
        0
280
     1
281
     0
  0
CLASS
  1
PARAMMGR
  2
AcAdParamMgr
  3
DesignerServices
 90
        0
280
     1
281
     0
  0
CLASS
  1
PARAMSCOPE
  2
AcAdParamScope
  3
DesignerServices
 90
        0
280
     1
281
     0
  0
CLASS
  1
NAMEDAPPL
  2
AcAdNamedAppl
  3
DesignerServices
 90
        0
280
     1
281
     0
  0
CLASS
  1
ADHNTMPLT
  2
AdHoleNoteTemplateMgr
  3
DesignerServices
 90
        0
280
     1
281
     0
  0
CLASS
  1
AM_HNTEMPLATE_MGR_NAME
  2
AdHoleNoteTemplateMgrName
  3
DesignerServices
 90
        0
280
     1
281
     0
  0
CLASS
  1
AMDTAMMENUSTATE
  2
AmdtAmMenuState
  3
DesignerAssemblies
 90
   -65536
280
     1
281
     0
  0
CLASS
  1
ACAMPROJECT
  2
AcAmProject
  3
DesignerAssemblies
 90
        0
280
     1
281
     0
  0
CLASS
  1
ACAMGRCOMPDEF
  2
AcAmGrCompDef
  3
DesignerAssemblies
 90
        0
280
     1
281
     0
  0
CLASS
  1
ACCMCONTEXT
  2
AcCmContext
  3
DesignerAssemblies
 90
        0
280
     1
281
     0
  0
CLASS
  1
ACAMCOMPDEF
  2
AcAmCompDef
  3
DesignerAssemblies
 90
        0
280
     1
281
     0
  0
CLASS
  1
ACAMCOMPDEFMGR
  2
AcAmCompDefMgr
  3
DesignerAssemblies
 90
        0
280
     1
281
     0
  0
CLASS
  1
AMCONTEXTMGR
  2
AcAmContextMgr
  3
DesignerAssemblies
 90
        0
280
     1
281
     0
  0
CLASS
  1
ACAMCONTEXTMODELER
  2
AcAmContextModeler
  3
DesignerAssemblies
 90
        0
280
     1
281
     0
  0
CLASS
  1
MAPIADMODULE
  2
MApiAdModule
  3
MApiAdServices
 90
        0
280
     1
281
     0
  0
CLASS
  1
ACMDATADICTIONARY
  2
AcmDataDictionary
  3
"AcmSymBB|Product Description: AutoCAD Mechanical 2000|Company: Autodesk"
 90
        0
280
     1
281
     0
  0
CLASS
  1
ACMDATAENTRYBLOCK
  2
AcmDataEntryBlock
  3
"AcmSymBB|Product Description: AutoCAD Mechanical 2000|Company: Autodesk"
 90
        0
280
     1
281
     0
  0
CLASS
  1
AMDTBROWSERDBTAB
  2
AmdtBrowserDbTab
  3
McadcomServices
 90
   -65536
280
     1
281
     0
  0
CLASS
  1
CBROWSERAPPOBJECT
  2
CBrowserAppObject
  3
McadcomServices
 90
   -65536
280
     1
281
     0
  0
CLASS
  1
DM_PLACEHOLDER
  2
AcDmSelsetPlaceholder
  3
AcMechDwgViewMgmt
 90
   -65536
280
     1
281
     0
  0
CLASS
  1
CATALOGSTATE
  2
AcAmCatalogState
  3
DesignerAssemblies
 90
        0
280
     1
281
     0
  0
CLASS
  1
ACAMGRCOMPDEFSET
  2
AcAmGrCompDefSet
  3
DesignerAssemblies
 90
   -65536
280
     1
281
     0
  0
CLASS
  1
AMGOBJPROPCFG
  2
AmgObjPropCfg
  3
"AmgLay|Product Description: AutoCAD Mechanical 2000|Company: Autodesk"
 90
        1
280
     1
281
     0
  0
CLASS
  1
ACAMGFILTERDAT
  2
AcAmgFilterDat
  3
"AcadM|Product Description: AutoCAD Mechanical 2000|Company: Autodesk"
 90
        0
280
     1
281
     0
  0
CLASS
  1
LAYER_INDEX
  2
AcDbLayerIndex
  3
ObjectDBX Classes
 90
        0
280
     0
281
     0
  0
CLASS
  1
IDBUFFER
  2
AcDbIdBuffer
  3
ObjectDBX Classes
 90
        0
280
     0
281
     0
  0
CLASS
  1
TABLESTYLE
  2
AcDbTableStyle
  3
ObjectDBX Classes
 90
     4095
280
     0
281
     0
  0
CLASS
  1
SORTENTSTABLE
  2
AcDbSortentsTable
  3
ObjectDBX Classes
 90
        0
280
     0
281
     0
  0
CLASS
  1
MATERIAL
  2
AcDbMaterial
  3
ObjectDBX Classes
 90
     1153
280
     0
281
     0
  0
CLASS
  1
VISUALSTYLE
  2
AcDbVisualStyle
  3
ObjectDBX Classes
 90
     4095
280
     0
281
     0
  0
CLASS
  1
SCALE
  2
AcDbScale
  3
ObjectDBX Classes
 90
     1153
280
     0
281
     0
  0
CLASS
  1
MLEADERSTYLE
  2
AcDbMLeaderStyle
  3
ACDB_MLEADERSTYLE_CLASS
 90
     4095
280
     0
281
     0
  0
CLASS
  1
AEC_REFEDIT_STATUS_TRACKER
  2
AecDbRefEditStatusTracker
  3
AecArchBase60|Product Desc: Autodesk Architectural Desktop 2007 |Company: Autodesk,Inc. |WEB Address: www.autodesk.com
 90
      129
280
     1
281
     0
  0
CLASS
  1
NPOCOLLECTION
  2
AcDbImpNonPersistentObjectsCollection
  3
ObjectDBX Classes
 90
     1153
280
     1
281
     0
  0
CLASS
  1
CELLSTYLEMAP
  2
AcDbCellStyleMap
  3
ObjectDBX Classes
 90
     1152
280
     0
281
     0
  0
ENDSEC
  0
SECTION
  2
TABLES
  0
TABLE
  2
VPORT
  5
8
330
0
100
AcDbSymbolTable
 70
     1
  0
VPORT
  5
C28
330
8
100
AcDbSymbolTableRecord
100
AcDbViewportTableRecord
  2
*Active
 70
     0
 10
0.0
 20
0.0
 11
1.0
 21
1.0
 12
2572.340094293518
 22
869.5590639290936
 13
0.0
 23
0.0
 14
1.0
 24
1.0
 15
0.0
 25
0.0
 16
0.0
 26
0.0
 36
1.0
 17
0.0
 27
0.0
 37
0.0
 40
2970.089256198342
 41
2.110303030303032
 42
50.0
 43
0.0
 44
0.0
 50
0.0
 51
0.0
 71
    16
 72
  2000
 73
     1
 74
     1
 75
     0
 76
     0
 77
     0
 78
     0
281
     0
 65
     1
110
0.0
120
0.0
130
0.0
111
1.0
121
0.0
131
0.0
112
0.0
122
1.0
132
0.0
 79
     0
146
0.0
  0
ENDTAB
  0
TABLE
  2
LTYPE
  5
5
330
0
100
AcDbSymbolTable
 70
    29
  0
LTYPE
  5
11
330
5
100
AcDbSymbolTableRecord
100
AcDbLinetypeTableRecord
  2
BYBLOCK
 70
     0
  3

 72
    65
 73
     0
 40
0.0
  0
LTYPE
  5
12
330
5
100
AcDbSymbolTableRecord
100
AcDbLinetypeTableRecord
  2
BYLAYER
 70
     0
  3

 72
    65
 73
     0
 40
0.0
  0
LTYPE
  5
13
330
5
100
AcDbSymbolTableRecord
100
AcDbLinetypeTableRecord
  2
CONTINUOUS
 70
     0
  3
Solid line
 72
    65
 73
     0
 40
0.0
  0
LTYPE
  5
31
330
5
100
AcDbSymbolTableRecord
100
AcDbLinetypeTableRecord
  2
HOJO
 70
     0
  3
-----------------------------------------------
 72
    65
 73
     2
 40
0.000000000000002
 49
0.000000000000001
 74
     0
 49
-0.000000000000001
 74
     0
  0
LTYPE
  5
32
330
5
100
AcDbSymbolTableRecord
100
AcDbLinetypeTableRecord
  2
HIDS
 70
     0
  3
(破線１)- - - - - - - - - - - - - - - - - - - -
 72
    65
 73
     2
 40
2.5
 49
1.5
 74
     0
 49
-1.0
 74
     0
  0
LTYPE
  5
253
330
5
100
AcDbSymbolTableRecord
100
AcDbLinetypeTableRecord
  2
HIDL
 70
     0
  3
(破線2)--  --  --  --  --  --  --  --  --  --  
 72
    65
 73
     2
 40
4.0
 49
2.5
 74
     0
 49
-1.5
 74
     0
  0
LTYPE
  5
254
330
5
100
AcDbSymbolTableRecord
100
AcDbLinetypeTableRecord
  2
CENS
 70
     0
  3
(1点鎖線1)---- - ---- - ---- - ---- - ---- - --
 72
    65
 73
     4
 40
13.0
 49
10.0
 74
     0
 49
-1.0
 74
     0
 49
1.0
 74
     0
 49
-1.0
 74
     0
  0
LTYPE
  5
255
330
5
100
AcDbSymbolTableRecord
100
AcDbLinetypeTableRecord
  2
CENL
 70
     0
  3
(1点鎖線2)------ - ------ - ------ - ------ - -
 72
    65
 73
     4
 40
19.5
 49
15.0
 74
     0
 49
-1.5
 74
     0
 49
1.5
 74
     0
 49
-1.5
 74
     0
  0
LTYPE
  5
256
330
5
100
AcDbSymbolTableRecord
100
AcDbLinetypeTableRecord
  2
PHAS
 70
     0
  3
(2点鎖線1)---- - - ---- - - ---- - - ---- - - -
 72
    65
 73
     6
 40
15.0
 49
10.0
 74
     0
 49
-1.0
 74
     0
 49
1.0
 74
     0
 49
-1.0
 74
     0
 49
1.0
 74
     0
 49
-1.0
 74
     0
  0
LTYPE
  5
257
330
5
100
AcDbSymbolTableRecord
100
AcDbLinetypeTableRecord
  2
PHAL
 70
     0
  3
(2点鎖線2)------ - - ------ - - ------ - - ----
 72
    65
 73
     6
 40
22.5
 49
15.0
 74
     0
 49
-1.5
 74
     0
 49
1.5
 74
     0
 49
-1.5
 74
     0
 49
1.5
 74
     0
 49
-1.5
 74
     0
  0
LTYPE
  5
258
330
5
100
AcDbSymbolTableRecord
100
AcDbLinetypeTableRecord
  2
USR1
 70
     0
  3
(ﾕｰｻﾞ線種1)- - - - - - - - - - - - - - - - - - 
 72
    65
 73
     2
 40
2.0
 49
1.0
 74
     0
 49
-1.0
 74
     0
  0
LTYPE
  5
259
330
5
100
AcDbSymbolTableRecord
100
AcDbLinetypeTableRecord
  2
USR2
 70
     0
  3
(ﾕｰｻﾞ線種2)- - - - - - - - - - - - - - - - - - 
 72
    65
 73
     2
 40
2.0
 49
1.0
 74
     0
 49
-1.0
 74
     0
  0
LTYPE
  5
25A
330
5
100
AcDbSymbolTableRecord
100
AcDbLinetypeTableRecord
  2
USR3
 70
     0
  3
(ﾕｰｻﾞ線種3)- - - - - - - - - - - - - - - - - - 
 72
    65
 73
     2
 40
2.0
 49
1.0
 74
     0
 49
-1.0
 74
     0
  0
LTYPE
  5
25B
330
5
100
AcDbSymbolTableRecord
100
AcDbLinetypeTableRecord
  2
USR4
 70
     0
  3
(ﾕｰｻﾞ線種4)- - - - - - - - - - - - - - - - - - 
 72
    65
 73
     2
 40
2.0
 49
1.0
 74
     0
 49
-1.0
 74
     0
  0
LTYPE
  5
592
330
5
100
AcDbSymbolTableRecord
100
AcDbLinetypeTableRecord
  2
DRAFT
 70
     0
  3

 72
    65
 73
     2
 40
0.000000000000002
 49
0.000000000000001
 74
     0
 49
0.000000000000001
 74
     0
  0
LTYPE
  5
63B
330
5
100
AcDbSymbolTableRecord
100
AcDbLinetypeTableRecord
  2
DIMENSION
 70
     0
  3

 72
    65
 73
     2
 40
0.000000000000002
 49
0.000000000000001
 74
     0
 49
0.000000000000001
 74
     0
  0
LTYPE
  5
ACE
330
5
100
AcDbSymbolTableRecord
100
AcDbLinetypeTableRecord
  2
HIDDEN
 70
     0
  3
Hidden __ __ __ __ __ __ __ __ __ __ __ __ __ _
 72
    65
 73
     2
 40
0.375
 49
0.25
 74
     0
 49
-0.125
 74
     0
  0
LTYPE
  5
ACF
330
5
100
AcDbSymbolTableRecord
100
AcDbLinetypeTableRecord
  2
PHANTOM2
 70
     0
  3
Phantom (.5x) ___ _ _ ___ _ _ ___ _ _ ___ _ _
 72
    65
 73
     6
 40
1.25
 49
0.625
 74
     0
 49
-0.125
 74
     0
 49
0.125
 74
     0
 49
-0.125
 74
     0
 49
0.125
 74
     0
 49
-0.125
 74
     0
  0
LTYPE
  5
AD0
330
5
100
AcDbSymbolTableRecord
100
AcDbLinetypeTableRecord
  2
CENTER
 70
     0
  3
Center ____ _ ____ _ ____ _ ____ _ ____ _ ____
 72
    65
 73
     4
 40
2.0
 49
1.25
 74
     0
 49
-0.25
 74
     0
 49
0.25
 74
     0
 49
-0.25
 74
     0
  0
LTYPE
  5
B1D
330
5
100
AcDbSymbolTableRecord
100
AcDbLinetypeTableRecord
  2
ASULTYPE
 70
     0
  3
実線
 72
    65
 73
     2
 40
3.0
 49
2.5
 74
     0
 49
0.5
 74
     0
  0
LTYPE
  5
B1E
330
5
100
AcDbSymbolTableRecord
100
AcDbLinetypeTableRecord
  2
ASVLTYPE
 70
     0
  3
__ __ __ __ __ __ __ __ __ __ __ __ __ __ __ __ __ __ __ __ __
 72
    65
 73
     2
 40
0.75
 49
0.5
 74
     0
 49
-0.25
 74
     0
  0
LTYPE
  5
B5F
330
5
100
AcDbSymbolTableRecord
100
AcDbLinetypeTableRecord
  2
AM_ISO02W050
 70
     0
  3
__ __ __ __ __ __ __ __ __ __ __ __ __ __ __
 72
    65
 73
     2
 40
7.5
 49
6.0
 74
     0
 49
-1.5
 74
     0
  0
LTYPE
  5
B60
330
5
100
AcDbSymbolTableRecord
100
AcDbLinetypeTableRecord
  2
AM_ISO08W050
 70
     0
  3
____ . ____ . ____ . ____ . ____ . ____ . ____
 72
    65
 73
     4
 40
18.0
 49
12.0
 74
     0
 49
-1.5
 74
     0
 49
3.0
 74
     0
 49
-1.5
 74
     0
  0
LTYPE
  5
B61
330
5
100
AcDbSymbolTableRecord
100
AcDbLinetypeTableRecord
  2
AM_ISO09W050
 70
     0
  3
_____ . . _____ . . _____ . . ____ .. ____
 72
    65
 73
     6
 40
22.5
 49
12.0
 74
     0
 49
-1.5
 74
     0
 49
3.0
 74
     0
 49
-1.5
 74
     0
 49
3.0
 74
     0
 49
-1.5
 74
     0
  0
LTYPE
  5
B62
330
5
100
AcDbSymbolTableRecord
100
AcDbLinetypeTableRecord
  2
Amconstr
 70
     0
  3
_______________________
 72
    65
 73
     2
 40
9999.0
 49
9999.0
 74
     0
 49
0.0
 74
     0
  0
LTYPE
  5
B63
330
5
100
AcDbSymbolTableRecord
100
AcDbLinetypeTableRecord
  2
AM_ISO02W050x2
 70
     0
  3
 _ _ _ _ _ _ _ _ _ _ _ _
 72
    65
 73
     2
 40
3.75
 49
3.0
 74
     0
 49
-0.75
 74
     0
  0
LTYPE
  5
B64
330
5
100
AcDbSymbolTableRecord
100
AcDbLinetypeTableRecord
  2
AM_ISO08W050x2
 70
     0
  3
__ . __ . __ . __ . __ . __
 72
    65
 73
     4
 40
9.0
 49
6.0
 74
     0
 49
-0.75
 74
     0
 49
1.5
 74
     0
 49
-0.75
 74
     0
  0
LTYPE
  5
B67
330
5
100
AcDbSymbolTableRecord
100
AcDbLinetypeTableRecord
  2
Amzigzag
 70
     0
  3
/\/-/\/-/\/-/\/-/\/-/\/
 72
    65
 73
     2
 40
11.0001
 49
0.0001
 74
     4
 75
   135
340
B66
 46
0.04
 50
0.0
 44
0.0
 45
0.0
 49
-11.0
 74
     0
  0
LTYPE
  5
B68
330
5
100
AcDbSymbolTableRecord
100
AcDbLinetypeTableRecord
  2
HIDDEN2
 70
     0
  3
Hidden (.5x) _ _ _ _ _ _ _ _ _ _ _ _ _ _ _ _ _
 72
    65
 73
     2
 40
0.1875
 49
0.125
 74
     0
 49
-0.0625
 74
     0
  0
LTYPE
  5
B69
330
5
100
AcDbSymbolTableRecord
100
AcDbLinetypeTableRecord
  2
CENTER2
 70
     0
  3
Center (.5x) ___ _ ___ _ ___ _ ___ _ ___ _ ___
 72
    65
 73
     4
 40
1.125
 49
0.75
 74
     0
 49
-0.125
 74
     0
 49
0.125
 74
     0
 49
-0.125
 74
     0
  0
LTYPE
  5
B6A
330
5
100
AcDbSymbolTableRecord
100
AcDbLinetypeTableRecord
  2
Amzigzag2
 70
     0
  3
/\/-/\/-/\/-/\/-/\/-/\/
 72
    65
 73
     2
 40
0.4401
 49
0.0001
 74
     4
 75
   135
340
B66
 46
0.0016
 50
0.0
 44
0.0
 45
0.0
 49
-0.44
 74
     0
  0
ENDTAB
  0
TABLE
  2
LAYER
  5
2
102
{ACAD_XDICTIONARY
360
BA6
102
}
330
0
100
AcDbSymbolTable
 70
    11
  0
LAYER
  5
E
102
{ACAD_XDICTIONARY
360
CE2
102
}
330
2
100
AcDbSymbolTableRecord
100
AcDbLayerTableRecord
  2
0
 70
     0
 62
     3
  6
CONTINUOUS
370
    -3
390
268
  0
LAYER
  5
37
102
{ACAD_XDICTIONARY
360
CE4
102
}
330
2
100
AcDbSymbolTableRecord
100
AcDbLayerTableRecord
  2
3
 70
     0
 62
     4
  6
CONTINUOUS
370
    -3
390
268
  0
LAYER
  5
38
102
{ACAD_XDICTIONARY
360
CE6
102
}
330
2
100
AcDbSymbolTableRecord
100
AcDbLayerTableRecord
  2
SUNPO_0
 70
     0
 62
     7
  6
CONTINUOUS
370
    -3
390
268
  0
LAYER
  5
39
330
2
100
AcDbSymbolTableRecord
100
AcDbLayerTableRecord
  2
Defpoints
 70
     0
 62
     7
  6
CONTINUOUS
290
     0
370
    -3
390
268
  0
LAYER
  5
3A
102
{ACAD_XDICTIONARY
360
CE8
102
}
330
2
100
AcDbSymbolTableRecord
100
AcDbLayerTableRecord
  2
HATCHING_0
 70
     0
 62
     7
  6
CONTINUOUS
370
    -3
390
268
  0
LAYER
  5
3B
102
{ACAD_XDICTIONARY
360
CEA
102
}
330
2
100
AcDbSymbolTableRecord
100
AcDbLayerTableRecord
  2
TEXT_0
 70
     0
 62
     7
  6
CONTINUOUS
370
    -3
390
268
  0
LAYER
  5
24C
102
{ACAD_XDICTIONARY
360
CEC
102
}
330
2
100
AcDbSymbolTableRecord
100
AcDbLayerTableRecord
  2
ASKPAPERSIZE
 70
     0
 62
     7
  6
CONTINUOUS
370
    -3
390
268
  0
LAYER
  5
270
102
{ACAD_XDICTIONARY
360
CEE
102
}
330
2
100
AcDbSymbolTableRecord
100
AcDbLayerTableRecord
  2
9図面枠
 70
     0
 62
     5
  6
CONTINUOUS
370
    -3
390
268
  0
LAYER
  5
271
102
{ACAD_XDICTIONARY
360
CF0
102
}
330
2
100
AcDbSymbolTableRecord
100
AcDbLayerTableRecord
  2
9図面文字
 70
     0
 62
     7
  6
CONTINUOUS
370
    -3
390
268
  0
LAYER
  5
272
102
{ACAD_XDICTIONARY
360
CF2
102
}
330
2
100
AcDbSymbolTableRecord
100
AcDbLayerTableRecord
  2
非表示破線
 70
     0
 62
     7
  6
CONTINUOUS
290
     0
370
    -3
390
268
  0
LAYER
  5
C88
102
{ACAD_XDICTIONARY
360
C89
102
}
330
2
100
AcDbSymbolTableRecord
100
AcDbLayerTableRecord
  2
1
 70
     0
 62
     7
  6
CONTINUOUS
370
    -3
390
268
  0
ENDTAB
  0
TABLE
  2
STYLE
  5
3
330
0
100
AcDbSymbolTable
 70
     8
  0
STYLE
  5
F
330
3
100
AcDbSymbolTableRecord
100
AcDbTextStyleTableRecord
  2
STANDARD
 70
     0
 40
0.0
 41
1.0
 50
0.0
 71
     0
 42
90.0
  3
TXT
  4
BIGFONT
  0
STYLE
  5
2B
330
3
100
AcDbSymbolTableRecord
100
AcDbTextStyleTableRecord
  2
STD
 70
     0
 40
0.0
 41
1.0
 50
0.0
 71
     0
 42
30.0
  3
TXT
  4
BIGFONT
  0
STYLE
  5
30
330
3
100
AcDbSymbolTableRecord
100
AcDbTextStyleTableRecord
  2
USR1
 70
     4
 40
0.0
 41
1.0
 50
0.0
 71
     0
 42
20.0
  3
TXT
  4
BIGFONT
  0
STYLE
  5
273
330
3
100
AcDbSymbolTableRecord
100
AcDbTextStyleTableRecord
  2
STYLE1
 70
     0
 40
0.0
 41
1.0
 50
0.0
 71
     0
 42
64.0
  3

  4

1001
ACAD
1000
MS PGothic
1071
    32818
  0
STYLE
  5
274
330
3
100
AcDbSymbolTableRecord
100
AcDbTextStyleTableRecord
  2
STYLE3
 70
     0
 40
0.0
 41
1.5
 50
0.0
 71
     0
 42
64.0
  3

  4

1001
ACAD
1000
MS PGothic
1071
    32818
  0
STYLE
  5
275
330
3
100
AcDbSymbolTableRecord
100
AcDbTextStyleTableRecord
  2
USR5
 70
     0
 40
0.0
 41
1.0
 50
0.0
 71
     0
 42
64.0
  3
TXT.shx
  4
BIGFONT.shx
  0
STYLE
  5
B66
330
3
100
AcDbSymbolTableRecord
100
AcDbTextStyleTableRecord
  2

 70
     1
 40
0.0
 41
1.0
 50
0.0
 71
     0
 42
30.0
  3
ltypeshp.shx
  4

  0
STYLE
  5
B7F
330
3
100
AcDbSymbolTableRecord
100
AcDbTextStyleTableRecord
  2
ｽﾀｲﾙ1
 70
     0
 40
0.0
 41
1.0
 50
0.0
 71
     0
 42
64.0
  3

  4

1001
ACAD
1000
HGGyoshotai
1071
    32833
  0
ENDTAB
  0
TABLE
  2
VIEW
  5
6
330
0
100
AcDbSymbolTable
 70
     1
  0
VIEW
  5
33
330
6
100
AcDbSymbolTableRecord
100
AcDbViewTableRecord
  2
V0
 70
     0
 40
2970.0
 10
2100.0
 20
1485.0
 41
4200.0
 11
0.0
 21
0.0
 31
1.0
 12
0.0
 22
0.0
 32
0.0
 42
50.0
 43
0.0
 44
0.0
 50
0.0
 71
     0
281
     0
 72
     0
  0
ENDTAB
  0
TABLE
  2
UCS
  5
7
330
0
100
AcDbSymbolTable
 70
     1
  0
UCS
  5
34
330
7
100
AcDbSymbolTableRecord
100
AcDbUCSTableRecord
  2
UCS_SET
 70
     0
 10
0.0
 20
0.0
 30
0.0
 11
1.0
 21
0.0
 31
0.0
 12
0.0
 22
1.0
 32
0.0
 79
     0
146
0.0
  0
ENDTAB
  0
TABLE
  2
APPID
  5
9
330
0
100
AcDbSymbolTable
 70
    17
  0
APPID
  5
10
330
9
100
AcDbSymbolTableRecord
100
AcDbRegAppTableRecord
  2
ACAD
 70
     0
  0
APPID
  5
24B
330
9
100
AcDbSymbolTableRecord
100
AcDbRegAppTableRecord
  2
AUTO_SEKKEIYA
 70
     0
  0
APPID
  5
AAA
330
9
100
AcDbSymbolTableRecord
100
AcDbRegAppTableRecord
  2
GENIUS_GENDIM_13
 70
     0
  0
APPID
  5
AAB
330
9
100
AcDbSymbolTableRecord
100
AcDbRegAppTableRecord
  2
GENIUS_GENDTOL_13
 70
     0
  0
APPID
  5
AAC
330
9
100
AcDbSymbolTableRecord
100
AcDbRegAppTableRecord
  2
GENIUS_GE3DTOL_13
 70
     0
  0
APPID
  5
AAF
330
9
100
AcDbSymbolTableRecord
100
AcDbRegAppTableRecord
  2
MCAD_NO_VIS
 70
     0
  0
APPID
  5
AB0
330
9
100
AcDbSymbolTableRecord
100
AcDbRegAppTableRecord
  2
ACAD_TEMP_GRAPHIC
 70
     0
  0
APPID
  5
AE4
330
9
100
AcDbSymbolTableRecord
100
AcDbRegAppTableRecord
  2
AD_DRAW
 70
     0
  0
APPID
  5
AE7
330
9
100
AcDbSymbolTableRecord
100
AcDbRegAppTableRecord
  2
ACATTRIBSERVICES
 70
     0
  0
APPID
  5
B1F
330
9
100
AcDbSymbolTableRecord
100
AcDbRegAppTableRecord
  2
ASURF_PCURVE_APPNAME
 70
     0
  0
APPID
  5
B50
330
9
100
AcDbSymbolTableRecord
100
AcDbRegAppTableRecord
  2
DESIGNERASSEMBLIES
 70
     0
  0
APPID
  5
B59
330
9
100
AcDbSymbolTableRecord
100
AcDbRegAppTableRecord
  2
ACADM_DIM_EDIT
 70
     0
  0
APPID
  5
B80
330
9
100
AcDbSymbolTableRecord
100
AcDbRegAppTableRecord
  2
ASKOBJSC
 70
     0
  0
APPID
  5
B81
330
9
100
AcDbSymbolTableRecord
100
AcDbRegAppTableRecord
  2
ASKDWGSC
 70
     0
  0
APPID
  5
C8A
330
9
100
AcDbSymbolTableRecord
100
AcDbRegAppTableRecord
  2
ACAD_PSEXT
 70
     0
  0
APPID
  5
C96
330
9
100
AcDbSymbolTableRecord
100
AcDbRegAppTableRecord
  2
ACAD_EXEMPT_FROM_CAD_STANDARDS
 70
     0
  0
APPID
  5
D35
330
9
100
AcDbSymbolTableRecord
100
AcDbRegAppTableRecord
  2
ACAD_MLEADERVER
 70
     0
  0
ENDTAB
  0
TABLE
  2
DIMSTYLE
  5
A
330
0
100
AcDbSymbolTable
 70
     2
100
AcDbDimStyleTable
  0
DIMSTYLE
105
247
330
A
100
AcDbSymbolTableRecord
100
AcDbDimStyleTableRecord
  2
STANDARD
 70
     0
178
     0
340
F
  0
DIMSTYLE
105
276
102
{ACAD_REACTORS
330
77D
330
79B
330
8D0
330
8E7
330
8FE
330
92C
330
94F
330
966
330
97D
330
994
330
9B2
330
9C9
330
9FF
330
A06
330
A18
330
A30
330
A38
102
}
330
A
100
AcDbSymbolTableRecord
100
AcDbDimStyleTableRecord
  2
ASKSTANDARD
 70
     0
 40
20.0
 41
1.5
 42
1.0
 43
8.0
 44
1.0
 73
     0
 74
     0
 78
     8
140
2.0
141
0.0
145
1.0
146
0.7
147
1.0
172
     1
174
     1
176
     3
177
     3
271
     1
178
     3
271
     1
272
     1
340
2B
  0
ENDTAB
  0
TABLE
  2
BLOCK_RECORD
  5
1
330
0
100
AcDbSymbolTable
 70
    18
  0
BLOCK_RECORD
  5
17
102
{ACAD_XDICTIONARY
360
B8C
102
}
330
1
100
AcDbSymbolTableRecord
100
AcDbBlockTableRecord
  2
*MODEL_SPACE
340
26B
  0
BLOCK_RECORD
  5
14
330
1
100
AcDbSymbolTableRecord
100
AcDbBlockTableRecord
  2
*PAPER_SPACE
340
26C
  0
BLOCK_RECORD
  5
1C
330
1
100
AcDbSymbolTableRecord
100
AcDbBlockTableRecord
  2
ARRI
340
0
  0
BLOCK_RECORD
  5
77E
330
1
100
AcDbSymbolTableRecord
100
AcDbBlockTableRecord
  2
*D1
340
0
  0
BLOCK_RECORD
  5
79C
330
1
100
AcDbSymbolTableRecord
100
AcDbBlockTableRecord
  2
*D2
340
0
  0
BLOCK_RECORD
  5
8D1
330
1
100
AcDbSymbolTableRecord
100
AcDbBlockTableRecord
  2
*D3
340
0
  0
BLOCK_RECORD
  5
8E8
330
1
100
AcDbSymbolTableRecord
100
AcDbBlockTableRecord
  2
*D4
340
0
  0
BLOCK_RECORD
  5
8FF
330
1
100
AcDbSymbolTableRecord
100
AcDbBlockTableRecord
  2
*D5
340
0
  0
BLOCK_RECORD
  5
92D
330
1
100
AcDbSymbolTableRecord
100
AcDbBlockTableRecord
  2
*D6
340
0
  0
BLOCK_RECORD
  5
950
330
1
100
AcDbSymbolTableRecord
100
AcDbBlockTableRecord
  2
*D7
340
0
  0
BLOCK_RECORD
  5
967
330
1
100
AcDbSymbolTableRecord
100
AcDbBlockTableRecord
  2
*D8
340
0
  0
BLOCK_RECORD
  5
97E
330
1
100
AcDbSymbolTableRecord
100
AcDbBlockTableRecord
  2
*D9
340
0
  0
BLOCK_RECORD
  5
995
330
1
100
AcDbSymbolTableRecord
100
AcDbBlockTableRecord
  2
*D10
340
0
  0
BLOCK_RECORD
  5
9B3
330
1
100
AcDbSymbolTableRecord
100
AcDbBlockTableRecord
  2
*D11
340
0
  0
BLOCK_RECORD
  5
9CA
330
1
100
AcDbSymbolTableRecord
100
AcDbBlockTableRecord
  2
*D12
340
0
  0
BLOCK_RECORD
  5
A19
330
1
100
AcDbSymbolTableRecord
100
AcDbBlockTableRecord
  2
*D13
340
0
  0
BLOCK_RECORD
  5
B47
330
1
100
AcDbSymbolTableRecord
100
AcDbBlockTableRecord
  2
*U14
340
0
  0
BLOCK_RECORD
  5
B72
330
1
100
AcDbSymbolTableRecord
100
AcDbBlockTableRecord
  2
DOT
340
0
  0
BLOCK_RECORD
  5
B77
330
1
100
AcDbSymbolTableRecord
100
AcDbBlockTableRecord
  2
signMARU
340
0
102
{BLKREFS
331
B87
102
}
  0
BLOCK_RECORD
  5
B82
330
1
100
AcDbSymbolTableRecord
100
AcDbBlockTableRecord
  2
サイン１（１／１０）
340
0
102
{BLKREFS
331
B8B
102
}
  0
ENDTAB
  0
ENDSEC
  0
SECTION
  2
BLOCKS
  0
BLOCK
  5
3E
330
17
100
AcDbEntity
  8
0
 62
     7
370
    -1
100
AcDbBlockBegin
  2
*MODEL_SPACE
 70
     0
 10
0.0
 20
0.0
 30
0.0
  3
*MODEL_SPACE
  1

  0
ENDBLK
  5
3F
330
17
100
AcDbEntity
  8
0
 62
     7
370
    -1
100
AcDbBlockEnd
  0
BLOCK
  5
3C
330
14
100
AcDbEntity
 67
     1
  8
0
 62
     7
370
    -1
100
AcDbBlockBegin
  2
*PAPER_SPACE
 70
     0
 10
0.0
 20
0.0
 30
0.0
  3
*PAPER_SPACE
  1

  0
ENDBLK
  5
3D
330
14
100
AcDbEntity
 67
     1
  8
0
 62
     7
370
    -1
100
AcDbBlockEnd
  0
BLOCK
  5
40
330
1C
100
AcDbEntity
  8
0
370
    -1
100
AcDbBlockBegin
  2
ARRI
 70
     0
 10
0.0
 20
0.0
 30
0.0
  3
ARRI
  1

  0
LINE
  5
41
330
1C
100
AcDbEntity
  8
0
  6
ByBlock
 62
     0
370
    -1
100
AcDbLine
 10
-0.9999999999995168
 20
-0.2125565616699987
 30
0.0
 11
0.0000000000005826
 21
0.0000000000000142
 31
0.0
  0
LINE
  5
42
330
1C
100
AcDbEntity
  8
0
  6
ByBlock
 62
     0
370
    -1
100
AcDbLine
 10
0.0000000000005826
 20
0.0000000000000142
 30
0.0
 11
-0.9999999999995168
 21
0.2125565616699276
 31
0.0
  0
LINE
  5
43
330
1C
100
AcDbEntity
  8
0
  6
ByBlock
 62
     0
370
    -1
100
AcDbLine
 10
0.0000000000004832
 20
0.0
 30
0.0
 11
-0.9999999999995168
 21
0.0000000000000284
 31
0.0
  0
ENDBLK
  5
44
330
1C
100
AcDbEntity
  8
0
370
    -1
100
AcDbBlockEnd
  0
BLOCK
  5
788
330
77E
100
AcDbEntity
  8
0
 62
     7
100
AcDbBlockBegin
  2
*D1
 70
     1
 10
0.0
 20
0.0
 30
0.0
  3
*D1
  1

  0
LINE
  5
78A
330
77E
100
AcDbEntity
  8
0
  6
DIMENSION
 62
     3
370
    -2
100
AcDbLine
 10
1062.899489437388
 20
1888.9544666645
 30
0.0
 11
1062.899489437388
 21
2238.954466664501
 31
0.0
  0
LINE
  5
78B
330
77E
100
AcDbEntity
  8
0
  6
DIMENSION
 62
     3
370
    -2
100
AcDbLine
 10
1562.899489437388
 20
1888.9544666645
 30
0.0
 11
1562.899489437388
 21
2238.954466664501
 31
0.0
  0
LINE
  5
78C
330
77E
100
AcDbEntity
  8
0
  6
DIMENSION
 62
     3
370
    -2
100
AcDbLine
 10
1082.899489437388
 20
2228.954466664501
 30
0.0
 11
1542.899489437388
 21
2228.954466664501
 31
0.0
  0
SOLID
  5
78D
330
77E
100
AcDbEntity
  8
0
  6
DIMENSION
 62
     3
100
AcDbTrace
 10
1082.899489437388
 20
2232.287799997834
 30
0.0
 11
1082.899489437388
 21
2225.621133331167
 31
0.0
 12
1062.899489437388
 22
2228.954466664501
 32
0.0
 13
1062.899489437388
 23
2228.954466664501
 33
0.0
  0
SOLID
  5
78E
330
77E
100
AcDbEntity
  8
0
  6
DIMENSION
 62
     3
100
AcDbTrace
 10
1542.899489437388
 20
2232.287799997834
 30
0.0
 11
1542.899489437388
 21
2225.621133331167
 31
0.0
 12
1562.899489437388
 22
2228.954466664501
 32
0.0
 13
1562.899489437388
 23
2228.954466664501
 33
0.0
  0
MTEXT
  5
78F
330
77E
100
AcDbEntity
  8
0
  6
DIMENSION
 62
     3
100
AcDbMText
 10
1312.899489437388
 20
2239.854466664501
 30
0.0
 40
20.0
 41
0.0
 71
     5
 72
     1
  1
\A1;φ500
  7
STD
 73
     1
 44
1.0
  0
POINT
  5
790
330
77E
100
AcDbEntity
  8
Defpoints
  6
DIMENSION
 62
     0
100
AcDbPoint
 10
1062.899489437388
 20
1878.9544666645
 30
0.0
  0
POINT
  5
791
330
77E
100
AcDbEntity
  8
Defpoints
  6
DIMENSION
 62
     0
100
AcDbPoint
 10
1562.899489437388
 20
1878.9544666645
 30
0.0
  0
POINT
  5
792
330
77E
100
AcDbEntity
  8
Defpoints
  6
DIMENSION
 62
     0
100
AcDbPoint
 10
1562.899489437388
 20
2228.954466664501
 30
0.0
  0
ENDBLK
  5
789
330
77E
100
AcDbEntity
  8
0
 62
     7
100
AcDbBlockEnd
  0
BLOCK
  5
7A4
330
79C
100
AcDbEntity
  8
0
 62
     7
100
AcDbBlockBegin
  2
*D2
 70
     1
 10
0.0
 20
0.0
 30
0.0
  3
*D2
  1

  0
LINE
  5
7A6
330
79C
100
AcDbEntity
  8
0
  6
DIMENSION
 62
     3
370
    -2
100
AcDbLine
 10
1243.617467129559
 20
1838.954449352788
 30
0.0
 11
1382.181511745228
 21
1918.954483976197
 31
0.0
  0
SOLID
  5
7A7
330
79C
100
AcDbEntity
  8
0
  6
DIMENSION
 62
     3
100
AcDbTrace
 10
1241.950799741571
 20
1841.841200282281
 30
0.0
 11
1245.284134517546
 21
1836.067698423295
 31
0.0
 12
1226.2969615526
 22
1828.954445024862
 32
0.0
 13
1226.2969615526
 23
1828.954445024862
 33
0.0
  0
SOLID
  5
7A8
330
79C
100
AcDbEntity
  8
0
  6
DIMENSION
 62
     3
100
AcDbTrace
 10
1380.51484435724
 20
1921.84123490569
 30
0.0
 11
1383.848179133216
 21
1916.067733046704
 31
0.0
 12
1399.502017322187
 22
1928.954488304124
 32
0.0
 13
1399.502017322187
 23
1928.954488304124
 33
0.0
  0
MTEXT
  5
7A9
330
79C
100
AcDbEntity
  8
0
  6
DIMENSION
 62
     3
100
AcDbMText
 10
1307.449487078673
 20
1888.394142203935
 30
0.0
 40
20.0
 41
0.0
 71
     5
 72
     1
  1
\A1;φ200
  7
STD
 11
0.8660252788479355
 21
0.5000002163963089
 31
0.0
 73
     1
 44
1.0
  0
POINT
  5
7AA
330
79C
100
AcDbEntity
  8
Defpoints
  6
DIMENSION
 62
     0
100
AcDbPoint
 10
1226.296961552595
 20
1828.95444502487
 30
0.0
  0
POINT
  5
7AB
330
79C
100
AcDbEntity
  8
Defpoints
  6
DIMENSION
 62
     0
100
AcDbPoint
 10
1399.502017322182
 20
1928.954488304132
 30
0.0
  0
POINT
  5
7AC
330
79C
100
AcDbEntity
  8
Defpoints
  6
DIMENSION
 62
     0
100
AcDbPoint
 10
1399.502017322187
 20
1928.954488304124
 30
0.0
  0
ENDBLK
  5
7A5
330
79C
100
AcDbEntity
  8
0
 62
     7
100
AcDbBlockEnd
  0
BLOCK
  5
8DB
330
8D1
100
AcDbEntity
  8
0
 62
     7
100
AcDbBlockBegin
  2
*D3
 70
     1
 10
0.0
 20
0.0
 30
0.0
  3
*D3
  1

  0
LINE
  5
A94
330
8D1
100
AcDbEntity
  8
0
  6
DIMENSION
 62
     3
370
    -2
100
AcDbLine
 10
2646.006361288882
 20
2721.3422084822
 30
0.0
 11
2546.006361288882
 21
2721.3422084822
 31
0.0
  0
LINE
  5
A95
330
8D1
100
AcDbEntity
  8
0
  6
DIMENSION
 62
     3
370
    -2
100
AcDbLine
 10
2778.006361288881
 20
2521.342208482201
 30
0.0
 11
2546.006361288882
 21
2521.342208482201
 31
0.0
  0
LINE
  5
A96
330
8D1
100
AcDbEntity
  8
0
  6
DIMENSION
 62
     3
370
    -2
100
AcDbLine
 10
2556.006361288882
 20
2701.3422084822
 30
0.0
 11
2556.006361288882
 21
2541.342208482201
 31
0.0
  0
SOLID
  5
A97
330
8D1
100
AcDbEntity
  8
0
  6
DIMENSION
 62
     3
100
AcDbTrace
 10
2552.673027955548
 20
2701.3422084822
 30
0.0
 11
2559.339694622215
 21
2701.3422084822
 31
0.0
 12
2556.006361288882
 22
2721.3422084822
 32
0.0
 13
2556.006361288882
 23
2721.3422084822
 33
0.0
  0
SOLID
  5
A98
330
8D1
100
AcDbEntity
  8
0
  6
DIMENSION
 62
     3
100
AcDbTrace
 10
2552.673027955548
 20
2541.342208482201
 30
0.0
 11
2559.339694622215
 21
2541.342208482201
 31
0.0
 12
2556.006361288882
 22
2521.342208482201
 32
0.0
 13
2556.006361288882
 23
2521.342208482201
 33
0.0
  0
MTEXT
  5
A99
330
8D1
100
AcDbEntity
  8
0
  6
DIMENSION
 62
     3
100
AcDbMText
 10
2545.106361288881
 20
2621.342208482201
 30
0.0
 40
20.0
 41
0.0
 71
     5
 72
     1
  1
\A1;200
  7
STD
 11
6.123031769111886E-17
 21
1.0
 31
0.0
 73
     1
 44
1.0
  0
POINT
  5
A9A
330
8D1
100
AcDbEntity
  8
Defpoints
  6
DIMENSION
 62
     0
100
AcDbPoint
 10
2656.006361288882
 20
2721.3422084822
 30
0.0
  0
POINT
  5
A9B
330
8D1
100
AcDbEntity
  8
Defpoints
  6
DIMENSION
 62
     0
100
AcDbPoint
 10
2788.006361288881
 20
2521.342208482201
 30
0.0
  0
POINT
  5
A9C
330
8D1
100
AcDbEntity
  8
Defpoints
  6
DIMENSION
 62
     0
100
AcDbPoint
 10
2556.006361288882
 20
2521.342208482201
 30
0.0
  0
ENDBLK
  5
8DC
330
8D1
100
AcDbEntity
  8
0
 62
     7
100
AcDbBlockEnd
  0
BLOCK
  5
8F2
330
8E8
100
AcDbEntity
  8
0
 62
     7
100
AcDbBlockBegin
  2
*D4
 70
     1
 10
0.0
 20
0.0
 30
0.0
  3
*D4
  1

  0
LINE
  5
A8B
330
8E8
100
AcDbEntity
  8
0
  6
DIMENSION
 62
     3
370
    -2
100
AcDbLine
 10
2778.006361288881
 20
2521.342208482201
 30
0.0
 11
2546.006361288882
 21
2521.342208482201
 31
0.0
  0
LINE
  5
A8C
330
8E8
100
AcDbEntity
  8
0
  6
DIMENSION
 62
     3
370
    -2
100
AcDbLine
 10
2778.006361288881
 20
1395.166264367579
 30
0.0
 11
2546.006361288882
 21
1395.166264367579
 31
0.0
  0
LINE
  5
A8D
330
8E8
100
AcDbEntity
  8
0
  6
DIMENSION
 62
     3
370
    -2
100
AcDbLine
 10
2556.006361288882
 20
2501.342208482201
 30
0.0
 11
2556.006361288882
 21
1415.166264367579
 31
0.0
  0
SOLID
  5
A8E
330
8E8
100
AcDbEntity
  8
0
  6
DIMENSION
 62
     3
100
AcDbTrace
 10
2552.673027955549
 20
2501.342208482201
 30
0.0
 11
2559.339694622216
 21
2501.342208482201
 31
0.0
 12
2556.006361288882
 22
2521.342208482201
 32
0.0
 13
2556.006361288882
 23
2521.342208482201
 33
0.0
  0
SOLID
  5
A8F
330
8E8
100
AcDbEntity
  8
0
  6
DIMENSION
 62
     3
100
AcDbTrace
 10
2552.673027955549
 20
1415.166264367579
 30
0.0
 11
2559.339694622216
 21
1415.166264367579
 31
0.0
 12
2556.006361288882
 22
1395.166264367579
 32
0.0
 13
2556.006361288882
 23
1395.166264367579
 33
0.0
  0
MTEXT
  5
A90
330
8E8
100
AcDbEntity
  8
0
  6
DIMENSION
 62
     3
100
AcDbMText
 10
2545.106361288882
 20
1958.25423642489
 30
0.0
 40
20.0
 41
0.0
 71
     5
 72
     1
  1
\A1;1600
  7
STD
 11
6.123031769111886E-17
 21
1.0
 31
0.0
 73
     1
 44
1.0
  0
POINT
  5
A91
330
8E8
100
AcDbEntity
  8
Defpoints
  6
DIMENSION
 62
     0
100
AcDbPoint
 10
2788.006361288881
 20
2521.342208482201
 30
0.0
  0
POINT
  5
A92
330
8E8
100
AcDbEntity
  8
Defpoints
  6
DIMENSION
 62
     0
100
AcDbPoint
 10
2788.006361288881
 20
1395.166264367579
 30
0.0
  0
POINT
  5
A93
330
8E8
100
AcDbEntity
  8
Defpoints
  6
DIMENSION
 62
     0
100
AcDbPoint
 10
2556.006361288882
 20
1395.166264367579
 30
0.0
  0
ENDBLK
  5
8F3
330
8E8
100
AcDbEntity
  8
0
 62
     7
100
AcDbBlockEnd
  0
BLOCK
  5
909
330
8FF
100
AcDbEntity
  8
0
 62
     7
100
AcDbBlockBegin
  2
*D5
 70
     1
 10
0.0
 20
0.0
 30
0.0
  3
*D5
  1

  0
LINE
  5
A82
330
8FF
100
AcDbEntity
  8
0
  6
DIMENSION
 62
     3
370
    -2
100
AcDbLine
 10
2780.006361288881
 20
1395.166264367579
 30
0.0
 11
2546.006361288882
 21
1395.166264367579
 31
0.0
  0
LINE
  5
A83
330
8FF
100
AcDbEntity
  8
0
  6
DIMENSION
 62
     3
370
    -2
100
AcDbLine
 10
2746.006361288882
 20
1195.166264367579
 30
0.0
 11
2546.006361288881
 21
1195.166264367579
 31
0.0
  0
LINE
  5
A84
330
8FF
100
AcDbEntity
  8
0
  6
DIMENSION
 62
     3
370
    -2
100
AcDbLine
 10
2556.006361288882
 20
1375.166264367579
 30
0.0
 11
2556.006361288881
 21
1215.166264367579
 31
0.0
  0
SOLID
  5
A85
330
8FF
100
AcDbEntity
  8
0
  6
DIMENSION
 62
     3
100
AcDbTrace
 10
2552.673027955548
 20
1375.166264367579
 30
0.0
 11
2559.339694622215
 21
1375.166264367579
 31
0.0
 12
2556.006361288882
 22
1395.166264367579
 32
0.0
 13
2556.006361288882
 23
1395.166264367579
 33
0.0
  0
SOLID
  5
A86
330
8FF
100
AcDbEntity
  8
0
  6
DIMENSION
 62
     3
100
AcDbTrace
 10
2552.673027955548
 20
1215.166264367579
 30
0.0
 11
2559.339694622215
 21
1215.166264367579
 31
0.0
 12
2556.006361288881
 22
1195.166264367579
 32
0.0
 13
2556.006361288881
 23
1195.166264367579
 33
0.0
  0
MTEXT
  5
A87
330
8FF
100
AcDbEntity
  8
0
  6
DIMENSION
 62
     3
100
AcDbMText
 10
2545.106361288881
 20
1295.166264367579
 30
0.0
 40
20.0
 41
0.0
 71
     5
 72
     1
  1
\A1;200
  7
STD
 11
6.123031769111886E-17
 21
1.0
 31
0.0
 73
     1
 44
1.0
  0
POINT
  5
A88
330
8FF
100
AcDbEntity
  8
Defpoints
  6
DIMENSION
 62
     0
100
AcDbPoint
 10
2790.006361288881
 20
1395.166264367579
 30
0.0
  0
POINT
  5
A89
330
8FF
100
AcDbEntity
  8
Defpoints
  6
DIMENSION
 62
     0
100
AcDbPoint
 10
2756.006361288882
 20
1195.166264367579
 30
0.0
  0
POINT
  5
A8A
330
8FF
100
AcDbEntity
  8
Defpoints
  6
DIMENSION
 62
     0
100
AcDbPoint
 10
2556.006361288881
 20
1195.166264367579
 30
0.0
  0
ENDBLK
  5
90A
330
8FF
100
AcDbEntity
  8
0
 62
     7
100
AcDbBlockEnd
  0
BLOCK
  5
937
330
92D
100
AcDbEntity
  8
0
 62
     7
100
AcDbBlockBegin
  2
*D6
 70
     1
 10
0.0
 20
0.0
 30
0.0
  3
*D6
  1

  0
LINE
  5
A79
330
92D
100
AcDbEntity
  8
0
  6
DIMENSION
 62
     3
370
    -2
100
AcDbLine
 10
2636.006361288882
 20
2721.3422084822
 30
0.0
 11
2466.006361288882
 21
2721.3422084822
 31
0.0
  0
LINE
  5
A7A
330
92D
100
AcDbEntity
  8
0
  6
DIMENSION
 62
     3
370
    -2
100
AcDbLine
 10
2646.928847442728
 20
1195.166264367579
 30
0.0
 11
2466.006361288881
 21
1195.166264367579
 31
0.0
  0
LINE
  5
A7B
330
92D
100
AcDbEntity
  8
0
  6
DIMENSION
 62
     3
370
    -2
100
AcDbLine
 10
2476.006361288882
 20
2701.3422084822
 30
0.0
 11
2476.006361288881
 21
1215.166264367579
 31
0.0
  0
SOLID
  5
A7C
330
92D
100
AcDbEntity
  8
0
  6
DIMENSION
 62
     3
100
AcDbTrace
 10
2472.673027955548
 20
2701.3422084822
 30
0.0
 11
2479.339694622215
 21
2701.3422084822
 31
0.0
 12
2476.006361288882
 22
2721.3422084822
 32
0.0
 13
2476.006361288882
 23
2721.3422084822
 33
0.0
  0
SOLID
  5
A7D
330
92D
100
AcDbEntity
  8
0
  6
DIMENSION
 62
     3
100
AcDbTrace
 10
2472.673027955548
 20
1215.166264367579
 30
0.0
 11
2479.339694622215
 21
1215.166264367579
 31
0.0
 12
2476.006361288881
 22
1195.166264367579
 32
0.0
 13
2476.006361288881
 23
1195.166264367579
 33
0.0
  0
MTEXT
  5
A7E
330
92D
100
AcDbEntity
  8
0
  6
DIMENSION
 62
     3
100
AcDbMText
 10
2465.106361288881
 20
1958.25423642489
 30
0.0
 40
20.0
 41
0.0
 71
     5
 72
     1
  1
\A1;2000
  7
STD
 11
6.123031769111886E-17
 21
1.0
 31
0.0
 73
     1
 44
1.0
  0
POINT
  5
A7F
330
92D
100
AcDbEntity
  8
Defpoints
  6
DIMENSION
 62
     0
100
AcDbPoint
 10
2646.006361288882
 20
2721.3422084822
 30
0.0
  0
POINT
  5
A80
330
92D
100
AcDbEntity
  8
Defpoints
  6
DIMENSION
 62
     0
100
AcDbPoint
 10
2656.928847442728
 20
1195.166264367579
 30
0.0
  0
POINT
  5
A81
330
92D
100
AcDbEntity
  8
Defpoints
  6
DIMENSION
 62
     0
100
AcDbPoint
 10
2476.006361288881
 20
1195.166264367579
 30
0.0
  0
ENDBLK
  5
938
330
92D
100
AcDbEntity
  8
0
 62
     7
100
AcDbBlockEnd
  0
BLOCK
  5
95A
330
950
100
AcDbEntity
  8
0
 62
     7
100
AcDbBlockBegin
  2
*D7
 70
     1
 10
0.0
 20
0.0
 30
0.0
  3
*D7
  1

  0
LINE
  5
A70
330
950
100
AcDbEntity
  8
0
  6
DIMENSION
 62
     3
370
    -2
100
AcDbLine
 10
2736.006361288882
 20
1195.166264367579
 30
0.0
 11
2546.467604365805
 21
1195.166264367579
 31
0.0
  0
LINE
  5
A71
330
950
100
AcDbEntity
  8
0
  6
DIMENSION
 62
     3
370
    -2
100
AcDbLine
 10
2746.006361288882
 20
995.1662643675791
 30
0.0
 11
2546.467604365805
 21
995.1662643675791
 31
0.0
  0
LINE
  5
A72
330
950
100
AcDbEntity
  8
0
  6
DIMENSION
 62
     3
370
    -2
100
AcDbLine
 10
2556.467604365805
 20
1175.166264367579
 30
0.0
 11
2556.467604365805
 21
1015.166264367579
 31
0.0
  0
SOLID
  5
A73
330
950
100
AcDbEntity
  8
0
  6
DIMENSION
 62
     3
100
AcDbTrace
 10
2553.134271032471
 20
1175.166264367579
 30
0.0
 11
2559.800937699138
 21
1175.166264367579
 31
0.0
 12
2556.467604365805
 22
1195.166264367579
 32
0.0
 13
2556.467604365805
 23
1195.166264367579
 33
0.0
  0
SOLID
  5
A74
330
950
100
AcDbEntity
  8
0
  6
DIMENSION
 62
     3
100
AcDbTrace
 10
2553.134271032471
 20
1015.166264367579
 30
0.0
 11
2559.800937699138
 21
1015.166264367579
 31
0.0
 12
2556.467604365805
 22
995.1662643675791
 32
0.0
 13
2556.467604365805
 23
995.1662643675791
 33
0.0
  0
MTEXT
  5
A75
330
950
100
AcDbEntity
  8
0
  6
DIMENSION
 62
     3
100
AcDbMText
 10
2545.567604365805
 20
1095.166264367579
 30
0.0
 40
20.0
 41
0.0
 71
     5
 72
     1
  1
\A1;200
  7
STD
 11
6.123031769111886E-17
 21
1.0
 31
0.0
 73
     1
 44
1.0
  0
POINT
  5
A76
330
950
100
AcDbEntity
  8
Defpoints
  6
DIMENSION
 62
     0
100
AcDbPoint
 10
2746.006361288882
 20
1195.166264367579
 30
0.0
  0
POINT
  5
A77
330
950
100
AcDbEntity
  8
Defpoints
  6
DIMENSION
 62
     0
100
AcDbPoint
 10
2756.006361288882
 20
995.1662643675791
 30
0.0
  0
POINT
  5
A78
330
950
100
AcDbEntity
  8
Defpoints
  6
DIMENSION
 62
     0
100
AcDbPoint
 10
2556.467604365805
 20
995.1662643675791
 30
0.0
  0
ENDBLK
  5
95B
330
950
100
AcDbEntity
  8
0
 62
     7
100
AcDbBlockEnd
  0
BLOCK
  5
971
330
967
100
AcDbEntity
  8
0
 62
     7
100
AcDbBlockBegin
  2
*D8
 70
     1
 10
0.0
 20
0.0
 30
0.0
  3
*D8
  1

  0
LINE
  5
A67
330
967
100
AcDbEntity
  8
0
  6
DIMENSION
 62
     3
370
    -2
100
AcDbLine
 10
2736.006361288882
 20
995.1662643675791
 30
0.0
 11
2546.467604365805
 21
995.1662643675791
 31
0.0
  0
LINE
  5
A68
330
967
100
AcDbEntity
  8
0
  6
DIMENSION
 62
     3
370
    -2
100
AcDbLine
 10
2696.006361288882
 20
795.1662643675795
 30
0.0
 11
2546.467604365805
 21
795.1662643675795
 31
0.0
  0
LINE
  5
A69
330
967
100
AcDbEntity
  8
0
  6
DIMENSION
 62
     3
370
    -2
100
AcDbLine
 10
2556.467604365805
 20
975.1662643675791
 30
0.0
 11
2556.467604365805
 21
815.1662643675795
 31
0.0
  0
SOLID
  5
A6A
330
967
100
AcDbEntity
  8
0
  6
DIMENSION
 62
     3
100
AcDbTrace
 10
2553.134271032471
 20
975.1662643675791
 30
0.0
 11
2559.800937699138
 21
975.1662643675791
 31
0.0
 12
2556.467604365805
 22
995.1662643675791
 32
0.0
 13
2556.467604365805
 23
995.1662643675791
 33
0.0
  0
SOLID
  5
A6B
330
967
100
AcDbEntity
  8
0
  6
DIMENSION
 62
     3
100
AcDbTrace
 10
2553.134271032471
 20
815.1662643675795
 30
0.0
 11
2559.800937699138
 21
815.1662643675795
 31
0.0
 12
2556.467604365805
 22
795.1662643675795
 32
0.0
 13
2556.467604365805
 23
795.1662643675795
 33
0.0
  0
MTEXT
  5
A6C
330
967
100
AcDbEntity
  8
0
  6
DIMENSION
 62
     3
100
AcDbMText
 10
2545.567604365805
 20
895.1662643675796
 30
0.0
 40
20.0
 41
0.0
 71
     5
 72
     1
  1
\A1;200
  7
STD
 11
6.123031769111886E-17
 21
1.0
 31
0.0
 73
     1
 44
1.0
  0
POINT
  5
A6D
330
967
100
AcDbEntity
  8
Defpoints
  6
DIMENSION
 62
     0
100
AcDbPoint
 10
2746.006361288882
 20
995.1662643675791
 30
0.0
  0
POINT
  5
A6E
330
967
100
AcDbEntity
  8
Defpoints
  6
DIMENSION
 62
     0
100
AcDbPoint
 10
2706.006361288882
 20
795.1662643675795
 30
0.0
  0
POINT
  5
A6F
330
967
100
AcDbEntity
  8
Defpoints
  6
DIMENSION
 62
     0
100
AcDbPoint
 10
2556.467604365805
 20
795.1662643675795
 30
0.0
  0
ENDBLK
  5
972
330
967
100
AcDbEntity
  8
0
 62
     7
100
AcDbBlockEnd
  0
BLOCK
  5
988
330
97E
100
AcDbEntity
  8
0
 62
     7
100
AcDbBlockBegin
  2
*D9
 70
     1
 10
0.0
 20
0.0
 30
0.0
  3
*D9
  1

  0
LINE
  5
A5E
330
97E
100
AcDbEntity
  8
0
  6
DIMENSION
 62
     3
370
    -2
100
AcDbLine
 10
2686.006361288882
 20
795.1662643675795
 30
0.0
 11
2466.006361288882
 21
795.1662643675795
 31
0.0
  0
LINE
  5
A5F
330
97E
100
AcDbEntity
  8
0
  6
DIMENSION
 62
     3
370
    -2
100
AcDbLine
 10
2696.006361288882
 20
695.1662643675795
 30
0.0
 11
2466.006361288882
 21
695.1662643675795
 31
0.0
  0
LINE
  5
A60
330
97E
100
AcDbEntity
  8
0
  6
DIMENSION
 62
     3
370
    -2
100
AcDbLine
 10
2476.006361288882
 20
775.1662643675795
 30
0.0
 11
2476.006361288882
 21
715.1662643675795
 31
0.0
  0
SOLID
  5
A61
330
97E
100
AcDbEntity
  8
0
  6
DIMENSION
 62
     3
100
AcDbTrace
 10
2472.673027955548
 20
775.1662643675795
 30
0.0
 11
2479.339694622215
 21
775.1662643675795
 31
0.0
 12
2476.006361288882
 22
795.1662643675795
 32
0.0
 13
2476.006361288882
 23
795.1662643675795
 33
0.0
  0
SOLID
  5
A62
330
97E
100
AcDbEntity
  8
0
  6
DIMENSION
 62
     3
100
AcDbTrace
 10
2472.673027955548
 20
715.1662643675795
 30
0.0
 11
2479.339694622215
 21
715.1662643675795
 31
0.0
 12
2476.006361288882
 22
695.1662643675795
 32
0.0
 13
2476.006361288882
 23
695.1662643675795
 33
0.0
  0
MTEXT
  5
A63
330
97E
100
AcDbEntity
  8
0
  6
DIMENSION
 62
     3
100
AcDbMText
 10
2465.106361288882
 20
745.1662643675799
 30
0.0
 40
20.0
 41
0.0
 71
     5
 72
     1
  1
\A1;100
  7
STD
 11
6.123031769111886E-17
 21
1.0
 31
0.0
 73
     1
 44
1.0
  0
POINT
  5
A64
330
97E
100
AcDbEntity
  8
Defpoints
  6
DIMENSION
 62
     0
100
AcDbPoint
 10
2696.006361288882
 20
795.1662643675795
 30
0.0
  0
POINT
  5
A65
330
97E
100
AcDbEntity
  8
Defpoints
  6
DIMENSION
 62
     0
100
AcDbPoint
 10
2706.006361288882
 20
695.1662643675795
 30
0.0
  0
POINT
  5
A66
330
97E
100
AcDbEntity
  8
Defpoints
  6
DIMENSION
 62
     0
100
AcDbPoint
 10
2476.006361288882
 20
695.1662643675795
 30
0.0
  0
ENDBLK
  5
989
330
97E
100
AcDbEntity
  8
0
 62
     7
100
AcDbBlockEnd
  0
BLOCK
  5
99F
330
995
100
AcDbEntity
  8
0
 62
     7
100
AcDbBlockBegin
  2
*D10
 70
     1
 10
0.0
 20
0.0
 30
0.0
  3
*D10
  1

  0
LINE
  5
A55
330
995
100
AcDbEntity
  8
0
  6
DIMENSION
 62
     3
370
    -2
100
AcDbLine
 10
2611.236982827343
 20
795.1662643675795
 30
0.0
 11
2466.006361288882
 21
795.1662643675795
 31
0.0
  0
LINE
  5
A56
330
995
100
AcDbEntity
  8
0
  6
DIMENSION
 62
     3
370
    -2
100
AcDbLine
 10
2631.236982827343
 20
1195.166264367579
 30
0.0
 11
2466.006361288882
 21
1195.166264367579
 31
0.0
  0
LINE
  5
A57
330
995
100
AcDbEntity
  8
0
  6
DIMENSION
 62
     3
370
    -2
100
AcDbLine
 10
2476.006361288882
 20
815.1662643675795
 30
0.0
 11
2476.006361288882
 21
1175.166264367579
 31
0.0
  0
SOLID
  5
A58
330
995
100
AcDbEntity
  8
0
  6
DIMENSION
 62
     3
100
AcDbTrace
 10
2472.673027955548
 20
815.1662643675795
 30
0.0
 11
2479.339694622215
 21
815.1662643675795
 31
0.0
 12
2476.006361288882
 22
795.1662643675795
 32
0.0
 13
2476.006361288882
 23
795.1662643675795
 33
0.0
  0
SOLID
  5
A59
330
995
100
AcDbEntity
  8
0
  6
DIMENSION
 62
     3
100
AcDbTrace
 10
2472.673027955548
 20
1175.166264367579
 30
0.0
 11
2479.339694622215
 21
1175.166264367579
 31
0.0
 12
2476.006361288882
 22
1195.166264367579
 32
0.0
 13
2476.006361288882
 23
1195.166264367579
 33
0.0
  0
MTEXT
  5
A5A
330
995
100
AcDbEntity
  8
0
  6
DIMENSION
 62
     3
100
AcDbMText
 10
2465.106361288882
 20
995.1662643675796
 30
0.0
 40
20.0
 41
0.0
 71
     5
 72
     1
  1
\A1;400
  7
STD
 11
6.123031769111886E-17
 21
1.0
 31
0.0
 73
     1
 44
1.0
  0
POINT
  5
A5B
330
995
100
AcDbEntity
  8
Defpoints
  6
DIMENSION
 62
     0
100
AcDbPoint
 10
2621.236982827343
 20
795.1662643675795
 30
0.0
  0
POINT
  5
A5C
330
995
100
AcDbEntity
  8
Defpoints
  6
DIMENSION
 62
     0
100
AcDbPoint
 10
2641.236982827343
 20
1195.166264367579
 30
0.0
  0
POINT
  5
A5D
330
995
100
AcDbEntity
  8
Defpoints
  6
DIMENSION
 62
     0
100
AcDbPoint
 10
2476.006361288882
 20
1195.166264367579
 30
0.0
  0
ENDBLK
  5
9A0
330
995
100
AcDbEntity
  8
0
 62
     7
100
AcDbBlockEnd
  0
BLOCK
  5
9BD
330
9B3
100
AcDbEntity
  8
0
 62
     7
100
AcDbBlockBegin
  2
*D11
 70
     1
 10
0.0
 20
0.0
 30
0.0
  3
*D11
  1

  0
LINE
  5
A4C
330
9B3
100
AcDbEntity
  8
0
  6
DIMENSION
 62
     3
370
    -2
100
AcDbLine
 10
2756.006361288882
 20
685.1662643675791
 30
0.0
 11
2756.006361288882
 21
603.1132087553153
 31
0.0
  0
LINE
  5
A4D
330
9B3
100
AcDbEntity
  8
0
  6
DIMENSION
 62
     3
370
    -2
100
AcDbLine
 10
3056.006361288882
 20
685.1662643675791
 30
0.0
 11
3056.006361288882
 21
603.1132087553153
 31
0.0
  0
LINE
  5
A4E
330
9B3
100
AcDbEntity
  8
0
  6
DIMENSION
 62
     3
370
    -2
100
AcDbLine
 10
2776.006361288882
 20
613.1132087553153
 30
0.0
 11
3036.006361288882
 21
613.1132087553153
 31
0.0
  0
SOLID
  5
A4F
330
9B3
100
AcDbEntity
  8
0
  6
DIMENSION
 62
     3
100
AcDbTrace
 10
2776.006361288882
 20
616.4465420886487
 30
0.0
 11
2776.006361288882
 21
609.779875421982
 31
0.0
 12
2756.006361288882
 22
613.1132087553153
 32
0.0
 13
2756.006361288882
 23
613.1132087553153
 33
0.0
  0
SOLID
  5
A50
330
9B3
100
AcDbEntity
  8
0
  6
DIMENSION
 62
     3
100
AcDbTrace
 10
3036.006361288882
 20
616.4465420886487
 30
0.0
 11
3036.006361288882
 21
609.779875421982
 31
0.0
 12
3056.006361288882
 22
613.1132087553153
 32
0.0
 13
3056.006361288882
 23
613.1132087553153
 33
0.0
  0
MTEXT
  5
A51
330
9B3
100
AcDbEntity
  8
0
  6
DIMENSION
 62
     3
100
AcDbMText
 10
2906.006361288882
 20
624.0132087553153
 30
0.0
 40
20.0
 41
0.0
 71
     5
 72
     1
  1
\A1;φ300
  7
STD
 73
     1
 44
1.0
  0
POINT
  5
A52
330
9B3
100
AcDbEntity
  8
Defpoints
  6
DIMENSION
 62
     0
100
AcDbPoint
 10
2756.006361288882
 20
695.1662643675791
 30
0.0
  0
POINT
  5
A53
330
9B3
100
AcDbEntity
  8
Defpoints
  6
DIMENSION
 62
     0
100
AcDbPoint
 10
3056.006361288882
 20
695.1662643675791
 30
0.0
  0
POINT
  5
A54
330
9B3
100
AcDbEntity
  8
Defpoints
  6
DIMENSION
 62
     0
100
AcDbPoint
 10
3056.006361288882
 20
613.1132087553153
 30
0.0
  0
ENDBLK
  5
9BE
330
9B3
100
AcDbEntity
  8
0
 62
     7
100
AcDbBlockEnd
  0
BLOCK
  5
9D4
330
9CA
100
AcDbEntity
  8
0
 62
     7
100
AcDbBlockBegin
  2
*D12
 70
     1
 10
0.0
 20
0.0
 30
0.0
  3
*D12
  1

  0
LINE
  5
A43
330
9CA
100
AcDbEntity
  8
0
  6
DIMENSION
 62
     3
370
    -2
100
AcDbLine
 10
2706.006361288882
 20
685.1662643675791
 30
0.0
 11
2706.006361288882
 21
542.2686114818554
 31
0.0
  0
LINE
  5
A44
330
9CA
100
AcDbEntity
  8
0
  6
DIMENSION
 62
     3
370
    -2
100
AcDbLine
 10
3106.006361288882
 20
685.1662643675791
 30
0.0
 11
3106.006361288882
 21
542.2686114818554
 31
0.0
  0
LINE
  5
A45
330
9CA
100
AcDbEntity
  8
0
  6
DIMENSION
 62
     3
370
    -2
100
AcDbLine
 10
2726.006361288882
 20
552.2686114818554
 30
0.0
 11
3086.006361288882
 21
552.2686114818554
 31
0.0
  0
SOLID
  5
A46
330
9CA
100
AcDbEntity
  8
0
  6
DIMENSION
 62
     3
100
AcDbTrace
 10
2726.006361288882
 20
555.6019448151887
 30
0.0
 11
2726.006361288882
 21
548.935278148522
 31
0.0
 12
2706.006361288882
 22
552.2686114818554
 32
0.0
 13
2706.006361288882
 23
552.2686114818554
 33
0.0
  0
SOLID
  5
A47
330
9CA
100
AcDbEntity
  8
0
  6
DIMENSION
 62
     3
100
AcDbTrace
 10
3086.006361288882
 20
555.6019448151887
 30
0.0
 11
3086.006361288882
 21
548.935278148522
 31
0.0
 12
3106.006361288882
 22
552.2686114818554
 32
0.0
 13
3106.006361288882
 23
552.2686114818554
 33
0.0
  0
MTEXT
  5
A48
330
9CA
100
AcDbEntity
  8
0
  6
DIMENSION
 62
     3
100
AcDbMText
 10
2906.006361288882
 20
563.1686114818554
 30
0.0
 40
20.0
 41
0.0
 71
     5
 72
     1
  1
\A1;φ400
  7
STD
 73
     1
 44
1.0
  0
POINT
  5
A49
330
9CA
100
AcDbEntity
  8
Defpoints
  6
DIMENSION
 62
     0
100
AcDbPoint
 10
2706.006361288882
 20
695.1662643675791
 30
0.0
  0
POINT
  5
A4A
330
9CA
100
AcDbEntity
  8
Defpoints
  6
DIMENSION
 62
     0
100
AcDbPoint
 10
3106.006361288882
 20
695.1662643675791
 30
0.0
  0
POINT
  5
A4B
330
9CA
100
AcDbEntity
  8
Defpoints
  6
DIMENSION
 62
     0
100
AcDbPoint
 10
3106.006361288882
 20
552.2686114818554
 30
0.0
  0
ENDBLK
  5
9D5
330
9CA
100
AcDbEntity
  8
0
 62
     7
100
AcDbBlockEnd
  0
BLOCK
  5
A21
330
A19
100
AcDbEntity
  8
0
 62
     7
100
AcDbBlockBegin
  2
*D13
 70
     1
 10
0.0
 20
0.0
 30
0.0
  3
*D13
  1

  0
LINE
  5
A3C
330
A19
100
AcDbEntity
  8
0
  6
DIMENSION
 62
     3
370
    -2
100
AcDbLine
 10
2826.006361288881
 20
1658.620105195291
 30
0.0
 11
2986.006361288883
 21
1658.620105195291
 31
0.0
  0
SOLID
  5
A3D
330
A19
100
AcDbEntity
  8
0
  6
DIMENSION
 62
     3
100
AcDbTrace
 10
2826.006361288881
 20
1661.953438528624
 30
0.0
 11
2826.006361288881
 21
1655.286771861958
 31
0.0
 12
2806.006361288881
 22
1658.620105195291
 32
0.0
 13
2806.006361288881
 23
1658.620105195291
 33
0.0
  0
SOLID
  5
A3E
330
A19
100
AcDbEntity
  8
0
  6
DIMENSION
 62
     3
100
AcDbTrace
 10
2986.006361288883
 20
1661.953438528624
 30
0.0
 11
2986.006361288883
 21
1655.286771861958
 31
0.0
 12
3006.006361288883
 22
1658.620105195291
 32
0.0
 13
3006.006361288883
 23
1658.620105195291
 33
0.0
  0
MTEXT
  5
A3F
330
A19
100
AcDbEntity
  8
0
  6
DIMENSION
 62
     3
100
AcDbMText
 10
2906.006361288882
 20
1669.520105195291
 30
0.0
 40
20.0
 41
0.0
 71
     5
 72
     1
  1
\A1;φ200
  7
STD
 73
     1
 44
1.0
  0
POINT
  5
A40
330
A19
100
AcDbEntity
  8
Defpoints
  6
DIMENSION
 62
     0
100
AcDbPoint
 10
2806.006361288881
 20
1658.620105195291
 30
0.0
  0
POINT
  5
A41
330
A19
100
AcDbEntity
  8
Defpoints
  6
DIMENSION
 62
     0
100
AcDbPoint
 10
3006.006361288883
 20
1658.620105195291
 30
0.0
  0
POINT
  5
A42
330
A19
100
AcDbEntity
  8
Defpoints
  6
DIMENSION
 62
     0
100
AcDbPoint
 10
3006.006361288883
 20
1658.620105195291
 30
0.0
  0
ENDBLK
  5
A22
330
A19
100
AcDbEntity
  8
0
 62
     7
100
AcDbBlockEnd
  0
BLOCK
  5
B48
330
B47
100
AcDbEntity
  8
0
 62
     7
100
AcDbBlockBegin
  2
*U14
 70
     1
 10
0.0
 20
0.0
 30
0.0
  3
*U14
  1

  0
ENDBLK
  5
B49
330
B47
100
AcDbEntity
  8
0
 62
     7
100
AcDbBlockEnd
  0
BLOCK
  5
B75
330
B72
100
AcDbEntity
  8
0
370
    -1
100
AcDbBlockBegin
  2
DOT
 70
     0
 10
0.0
 20
0.0
 30
0.0
  3
DOT
  1

  0
LINE
  5
B73
330
B72
100
AcDbEntity
  8
0
  6
ByBlock
 62
     0
370
    -1
100
AcDbLine
 10
-0.1643275156578738
 20
0.0
 30
0.0
 11
-1.0
 21
0.0
 31
0.0
  0
LWPOLYLINE
  5
B74
330
B72
100
AcDbEntity
  8
0
  6
ByBlock
 62
     0
100
AcDbPolyline
 90
        2
 70
     1
 43
0.163
 10
-0.0815000000000055
 20
0.0
 42
1.0
 10
0.0815000000000055
 20
0.0
 42
1.0
  0
ENDBLK
  5
B76
330
B72
100
AcDbEntity
  8
0
370
    -1
100
AcDbBlockEnd
  0
BLOCK
  5
B7D
330
B77
100
AcDbEntity
  8
0
 62
     7
100
AcDbBlockBegin
  2
signMARU
 70
     0
 10
0.0
 20
0.0
 30
0.0
  3
signMARU
  1

  0
HATCH
  5
B78
330
B77
100
AcDbEntity
  8
0
 62
     7
100
AcDbHatch
 10
0.0
 20
0.0
 30
0.0
210
0.0
220
0.0
230
1.0
  2
SOLID
 70
     1
 71
     1
 91
        4
 92
        7
 72
     1
 73
     1
 93
        2
 10
48.33998493898616
 20
197.2161203090304
 42
1.0
 10
326.506031692973
 20
197.2161203090304
 42
1.0
 97
        1
330
B79
 92
       22
 72
     1
 73
     1
 93
        2
 10
320.5060316929721
 20
197.2161203090304
 42
-1.0
 10
54.33998493898616
 20
197.2161203090304
 42
-1.0
 97
        1
330
B7C
 92
      137
 93
        4
 72
     1
 10
114.4131200885658
 20
49.66154456743436
 11
265.5183832464609
 21
49.66154456743436
 72
     1
 10
265.5183832464609
 20
49.66154456743436
 11
265.5183832464609
 21
182.8425971990133
 72
     1
 10
265.5183832464609
 20
182.8425971990133
 11
114.4131200885658
 21
182.8425971990133
 72
     1
 10
114.4131200885658
 20
182.8425971990133
 11
114.4131200885658
 21
49.66154456743436
 97
        1
330
B7A
 92
      137
 93
        4
 72
     1
 10
22.51306550977188
 20
130.8600108425346
 11
276.0595918255613
 21
130.8600108425346
 72
     1
 10
276.0595918255613
 20
130.8600108425346
 11
276.0595918255613
 21
325.0389582109556
 72
     1
 10
276.0595918255613
 20
325.0389582109556
 11
22.51306550977188
 21
325.0389582109556
 72
     1
 10
22.51306550977188
 20
325.0389582109556
 11
22.51306550977188
 21
130.8600108425346
 97
        1
330
B7B
 75
     0
 76
     1
 47
0.5709725132640477
 98
        2
 10
240.5943540078924
 20
323.1505752699595
 10
240.5943540078924
 20
323.1505752699595
1001
ASKOBJSC
1000
1/60
1001
ASKDWGSC
1040
30.0
  0
CIRCLE
  5
B79
102
{ACAD_REACTORS
330
B78
102
}
330
B77
100
AcDbEntity
  8
9図面文字
  6
Continuous
 62
     7
100
AcDbCircle
 10
187.4230083159791
 20
197.2161203090304
 30
0.0
 40
139.0830233769932
  0
TEXT
  5
B7A
102
{ACAD_REACTORS
330
B78
102
}
330
B77
100
AcDbEntity
  8
0
 62
     7
100
AcDbText
 10
136.6099621938292
 20
78.52786035690804
 30
0.0
 40
79.2
  1
智
  7
ｽﾀｲﾙ1
100
AcDbText
1001
ASKOBJSC
1000
1/60
1001
ASKDWGSC
1040
30.0
  0
TEXT
  5
B7B
102
{ACAD_REACTORS
330
B78
102
}
330
B77
100
AcDbEntity
  8
0
 62
     7
100
AcDbText
 10
54.87622340450889
 20
163.2231687372715
 30
0.0
 40
143.0
  1
丸山
 41
0.7
  7
ｽﾀｲﾙ1
100
AcDbText
1001
ASKOBJSC
1000
1/60
1001
ASKDWGSC
1040
30.0
  0
CIRCLE
  5
B7C
102
{ACAD_REACTORS
330
B78
102
}
330
B77
100
AcDbEntity
  8
9図面文字
  6
Continuous
 62
     7
100
AcDbCircle
 10
187.4230083159791
 20
197.2161203090304
 30
0.0
 40
133.0830233769932
  0
ENDBLK
  5
B7E
330
B77
100
AcDbEntity
  8
0
 62
     7
100
AcDbBlockEnd
  0
BLOCK
  5
B88
330
B82
100
AcDbEntity
  8
0
 62
     7
100
AcDbBlockBegin
  2
サイン１（１／１０）
 70
     0
 10
0.0
 20
0.0
 30
0.0
  3
サイン１（１／１０）
  1

  0
HATCH
  5
B83
330
B82
100
AcDbEntity
  8
0
 62
     7
100
AcDbHatch
 10
0.0
 20
0.0
 30
0.0
210
0.0
220
0.0
230
1.0
  2
SOLID
 70
     1
 71
     0
 91
        4
 92
        7
 72
     1
 73
     1
 93
        2
 10
13.56180559822542
 20
65.73864103097003
 42
1.0
 10
106.2837284608722
 20
65.73864103097003
 42
1.0
 97
        0
 92
       22
 72
     1
 73
     1
 93
        2
 10
104.283730460872
 20
65.73864103097003
 42
-1.0
 10
15.56180359822542
 20
65.73864103097003
 42
-1.0
 97
        0
 92
      137
 93
        4
 72
     1
 10
35.5861619570403
 20
16.5538316352966
 11
85.95453264125081
 21
16.5538316352966
 72
     1
 10
85.95453264125081
 20
16.5538316352966
 11
85.95453264125081
 21
60.9474714521387
 72
     1
 10
85.95453264125081
 20
60.9474714521387
 11
35.58616195704008
 21
60.9474714521387
 72
     1
 10
35.5861619570403
 20
60.9474714521387
 11
35.5861619570403
 21
16.5538316352966
 97
        0
 92
      137
 93
        4
 72
     1
 10
1.879598523337791
 20
35.0274247270693
 11
92.54150786133732
 21
35.0274247270693
 72
     1
 10
92.54150786133732
 20
35.0274247270693
 11
92.54150786133732
 21
118.1931310349641
 72
     1
 10
92.54150786133732
 20
118.1931310349641
 11
1.879598523337563
 21
118.1931310349641
 72
     1
 10
1.879598523337791
 20
118.1931310349641
 11
1.879598523337791
 21
35.02742472706932
 97
        0
 75
     0
 76
     1
 47
0.5709725132640477
 98
        2
 10
77.64653120307094
 20
107.7167507064614
 10
77.64653120307094
 20
107.7167507064614
1001
ASKOBJSC
1000
1/60
1001
ASKDWGSC
1040
30.0
  0
CIRCLE
  5
B84
330
B82
100
AcDbEntity
  8
9図面文字
  6
Continuous
 62
     7
100
AcDbCircle
 10
59.9227670295486
 20
65.73864103097003
 30
0.0
 40
46.36096143132328
  0
TEXT
  5
B85
330
B82
100
AcDbEntity
  8
0
 62
     7
100
AcDbText
 10
13.18538585629631
 20
44.58569642816414
 30
0.0
 40
47.666619
  1
木浪
 41
0.7
  7
ｽﾀｲﾙ1
100
AcDbText
1001
ASKOBJSC
1000
1/60
1001
ASKDWGSC
1040
30.0
  0
CIRCLE
  5
B86
330
B82
100
AcDbEntity
  8
9図面文字
  6
Continuous
 62
     7
100
AcDbCircle
 10
59.9227670295486
 20
65.73864103097003
 30
0.0
 40
44.36096343132328
  0
INSERT
  5
B87
330
B82
100
AcDbEntity
  8
0
  6
Continuous
 62
     7
100
AcDbBlockReference
  2
signMARU
 10
183.744894951913
 20
0.0
 30
0.0
 41
0.3333299999999326
 42
0.3333299999999326
 43
0.3333299999999326
  0
ENDBLK
  5
B89
330
B82
100
AcDbEntity
  8
0
 62
     7
100
AcDbBlockEnd
  0
ENDSEC
  0
SECTION
  2
ENTITIES
  0
TEXT
  5
167
330
17
100
AcDbEntity
  8
3
370
    -1
100
AcDbText
 10
9748.446385837235
 20
741.2510137525596
 30
0.0
 40
30.0
  1
　
100
AcDbText
  0
LINE
  5
191
330
17
100
AcDbEntity
  8
0
  6
Continuous
 62
     7
100
AcDbLine
 10
2806.006361288881
 20
795.1662643675791
 30
0.0
 11
2806.006361288881
 21
987.1662643675791
 31
0.0
  0
LINE
  5
192
330
17
100
AcDbEntity
  8
0
  6
Continuous
 62
     7
100
AcDbLine
 10
2822.006361288882
 20
795.1662643675791
 30
0.0
 11
2822.006361288882
 21
987.1662643675791
 31
0.0
  0
LINE
  5
193
330
17
100
AcDbEntity
  8
0
  6
Continuous
 62
     7
100
AcDbLine
 10
2656.006361288882
 20
2721.3422084822
 30
0.0
 11
2764.006361288882
 21
2721.3422084822
 31
0.0
  0
LINE
  5
194
330
17
100
AcDbEntity
  8
0
  6
Continuous
 62
     7
100
AcDbLine
 10
2656.006361288882
 20
2705.3422084822
 30
0.0
 11
2764.006361288882
 21
2705.3422084822
 31
0.0
  0
LINE
  5
195
330
17
100
AcDbEntity
  8
0
  6
Continuous
 62
     7
100
AcDbLine
 10
2656.006361288882
 20
2721.3422084822
 30
0.0
 11
2656.006361288882
 21
2705.3422084822
 31
0.0
  0
ARC
  5
196
330
17
100
AcDbEntity
  8
0
  6
Continuous
 62
     7
100
AcDbCircle
 10
2764.006361288882
 20
2663.3422084822
 30
0.0
 40
42.0
100
AcDbArc
 50
0.0
 51
90.0
  0
ARC
  5
197
330
17
100
AcDbEntity
  8
0
  6
Continuous
 62
     7
100
AcDbCircle
 10
2764.006361288882
 20
2663.3422084822
 30
0.0
 40
58.0
100
AcDbArc
 50
0.0
 51
46.39718102729621
  0
ARC
  5
198
330
17
100
AcDbEntity
  8
0
  6
Continuous
 62
     7
100
AcDbCircle
 10
1312.899489437388
 20
1878.954466664501
 30
0.0
 40
100.0
100
AcDbArc
 50
244.5885657357859
 51
295.4114628975452
  0
ARC
  5
199
330
17
100
AcDbEntity
  8
0
  6
Continuous
 62
     7
100
AcDbCircle
 10
1312.899489437388
 20
1878.954466664501
 30
0.0
 40
116.0
100
AcDbArc
 50
243.954572122091
 51
296.0455040695191
  0
ARC
  5
19B
330
17
100
AcDbEntity
  8
0
  6
Continuous
 62
     7
100
AcDbCircle
 10
1358.899489437389
 20
1799.280129516332
 30
0.0
 40
8.0
100
AcDbArc
 50
29.9999999999999
 51
210.0000000654276
  0
LINE
  5
19C
330
17
100
AcDbEntity
  8
0
  6
Continuous
 62
     7
100
AcDbLine
 10
1365.827692667664
 20
1803.280129516333
 30
0.0
 11
1444.827692667664
 21
1666.448115718392
 31
0.0
  0
LINE
  5
19D
330
17
100
AcDbEntity
  8
0
  6
Continuous
 62
     7
100
AcDbLine
 10
1430.908173073889
 20
1658.559479002848
 30
0.0
 11
1351.971286207112
 21
1795.280129516333
 31
0.0
  0
LINE
  5
19E
330
17
100
AcDbEntity
  8
0
  6
Continuous
 62
     7
100
AcDbLine
 10
1562.771489437388
 20
1870.955490730045
 30
0.0
 11
1404.899489374191
 21
1870.9544666645
 31
0.0
  0
LINE
  5
19F
330
17
100
AcDbEntity
  8
0
  6
Continuous
 62
     7
100
AcDbLine
 10
1404.899489437389
 20
1886.954466664501
 30
0.0
 11
1562.7714566526
 21
1886.954466664501
 31
0.0
  0
ARC
  5
1A0
330
17
100
AcDbEntity
  8
0
  6
Continuous
 62
     7
100
AcDbCircle
 10
1404.899489437389
 20
1878.9544666645
 30
0.0
 40
8.0
100
AcDbArc
 50
90.0
 51
270.0000000654276
  0
LINE
  5
1A2
330
17
100
AcDbEntity
  8
0
  6
Continuous
 62
     7
100
AcDbLine
 10
1444.762805800887
 20
2091.350478391698
 30
0.0
 11
1365.827692667663
 21
1954.628803812669
 31
0.0
  0
LINE
  5
1A3
330
17
100
AcDbEntity
  8
0
  6
Continuous
 62
     7
100
AcDbLine
 10
1351.971286207113
 20
1962.628803812669
 30
0.0
 11
1430.971286207112
 21
2099.46081761061
 31
0.0
  0
ARC
  5
1A4
330
17
100
AcDbEntity
  8
0
  6
Continuous
 62
     7
100
AcDbCircle
 10
1358.899489437388
 20
1958.628803812669
 30
0.0
 40
8.0
100
AcDbArc
 50
150.0
 51
330.0000000654276
  0
ARC
  5
1A6
330
17
100
AcDbEntity
  8
0
  6
Continuous
 62
     7
100
AcDbCircle
 10
1312.899489437389
 20
1878.954466664501
 30
0.0
 40
116.0
100
AcDbArc
 50
3.954572122090968
 51
56.04550406951915
  0
ARC
  5
1A7
330
17
100
AcDbEntity
  8
0
  6
Continuous
 62
     7
100
AcDbCircle
 10
1312.899489437389
 20
1878.954466664501
 30
0.0
 40
100.0
100
AcDbArc
 50
4.588565735785978
 51
55.41146289754517
  0
LINE
  5
1A8
330
17
100
AcDbEntity
  8
0
  6
Continuous
 62
     7
100
AcDbLine
 10
1194.890805800887
 20
2099.349454326154
 30
0.0
 11
1273.827692667664
 21
1962.628803812669
 31
0.0
  0
LINE
  5
1A9
330
17
100
AcDbEntity
  8
0
  6
Continuous
 62
     7
100
AcDbLine
 10
1259.971286207113
 20
1954.628803812669
 30
0.0
 11
1180.971286207113
 21
2091.46081761061
 31
0.0
  0
ARC
  5
1AA
330
17
100
AcDbEntity
  8
0
  6
Continuous
 62
     7
100
AcDbCircle
 10
1266.899489437389
 20
1958.628803812669
 30
0.0
 40
8.0
100
AcDbArc
 50
210.0
 51
30.00000006542756
  0
ARC
  5
1AC
330
17
100
AcDbEntity
  8
0
  6
Continuous
 62
     7
100
AcDbCircle
 10
1312.899489437389
 20
1878.954466664501
 30
0.0
 40
116.0
100
AcDbArc
 50
63.95457212209097
 51
116.0455040695191
  0
ARC
  5
1AD
330
17
100
AcDbEntity
  8
0
  6
Continuous
 62
     7
100
AcDbCircle
 10
1312.899489437389
 20
1878.954466664501
 30
0.0
 40
100.0
100
AcDbArc
 50
64.58856573578596
 51
115.4114628975452
  0
LINE
  5
1AE
330
17
100
AcDbEntity
  8
0
  6
Continuous
 62
     7
100
AcDbLine
 10
1063.027489437388
 20
1886.953442598957
 30
0.0
 11
1220.899489437389
 21
1886.954466664501
 31
0.0
  0
LINE
  5
1AF
330
17
100
AcDbEntity
  8
0
  6
Continuous
 62
     7
100
AcDbLine
 10
1220.89948943739
 20
1870.954466664501
 30
0.0
 11
1062.89948943739
 21
1870.954466664501
 31
0.0
  0
ARC
  5
1B0
330
17
100
AcDbEntity
  8
0
  6
Continuous
 62
     7
100
AcDbCircle
 10
1220.899489437389
 20
1878.954466664501
 30
0.0
 40
8.0
100
AcDbArc
 50
269.9999999999999
 51
90.00000006542756
  0
ARC
  5
1B2
330
17
100
AcDbEntity
  8
0
  6
Continuous
 62
     7
100
AcDbCircle
 10
1312.899489437389
 20
1878.954466664501
 30
0.0
 40
116.0
100
AcDbArc
 50
123.954572122091
 51
176.0455040695191
  0
ARC
  5
1B3
330
17
100
AcDbEntity
  8
0
  6
Continuous
 62
     7
100
AcDbCircle
 10
1312.899489437389
 20
1878.954466664501
 30
0.0
 40
100.0
100
AcDbArc
 50
124.5885657357859
 51
175.4114628975452
  0
LINE
  5
1B4
330
17
100
AcDbEntity
  8
0
  6
Continuous
 62
     7
100
AcDbLine
 10
1181.036173073889
 20
1666.558454937304
 30
0.0
 11
1259.971286207113
 21
1803.280129516333
 31
0.0
  0
LINE
  5
1B5
330
17
100
AcDbEntity
  8
0
  6
Continuous
 62
     7
100
AcDbLine
 10
1273.827692667664
 20
1795.280129516333
 30
0.0
 11
1194.891709060058
 21
1658.558995362534
 31
0.0
  0
ARC
  5
1B6
330
17
100
AcDbEntity
  8
0
  6
Continuous
 62
     7
100
AcDbCircle
 10
1266.899489437389
 20
1799.280129516332
 30
0.0
 40
8.0
100
AcDbArc
 50
329.9999999999999
 51
150.0000000654276
  0
ARC
  5
1B8
330
17
100
AcDbEntity
  8
0
  6
Continuous
 62
     7
100
AcDbCircle
 10
1312.899489437389
 20
1878.954466664501
 30
0.0
 40
116.0
100
AcDbArc
 50
183.954572122091
 51
236.0455040695191
  0
ARC
  5
1B9
330
17
100
AcDbEntity
  8
0
  6
Continuous
 62
     7
100
AcDbCircle
 10
1312.899489437389
 20
1878.954466664501
 30
0.0
 40
100.0
100
AcDbArc
 50
184.5885657357859
 51
235.4114628975452
  0
ARC
  5
1BA
330
17
100
AcDbEntity
  8
0
  6
Continuous
 62
     7
100
AcDbCircle
 10
1312.899489437389
 20
1878.954466664501
 30
0.0
 40
100.0
100
AcDbArc
 50
304.5885371024548
 51
355.411434264214
  0
ARC
  5
1BB
330
17
100
AcDbEntity
  8
0
  6
Continuous
 62
     7
100
AcDbCircle
 10
1312.899489437389
 20
1878.954466664501
 30
0.0
 40
116.0
100
AcDbArc
 50
303.9544959304808
 51
356.045427877909
  0
CIRCLE
  5
1BC
330
17
100
AcDbEntity
  8
0
  6
HIDS
 62
     5
100
AcDbCircle
 10
1312.899489437388
 20
1878.954466664501
 30
0.0
 40
250.0
  0
LINE
  5
1BF
330
17
100
AcDbEntity
  8
0
  6
Continuous
 62
     7
100
AcDbLine
 10
2852.006361288881
 20
795.1662643675791
 30
0.0
 11
2852.006361288881
 21
987.1662643675791
 31
0.0
  0
LINE
  5
1C0
330
17
100
AcDbEntity
  8
0
  6
Continuous
 62
     7
100
AcDbLine
 10
2868.006361288881
 20
795.1662643675791
 30
0.0
 11
2868.006361288881
 21
987.1662643675791
 31
0.0
  0
ARC
  5
1C1
330
17
100
AcDbEntity
  8
0
  6
Continuous
 62
     7
100
AcDbCircle
 10
2810.006361288882
 20
2663.3422084822
 30
0.0
 40
58.0
100
AcDbArc
 50
0.0
 51
90.0
  0
ARC
  5
1C2
330
17
100
AcDbEntity
  8
0
  6
Continuous
 62
     7
100
AcDbCircle
 10
2810.006361288882
 20
2663.3422084822
 30
0.0
 40
42.0
100
AcDbArc
 50
0.0
 51
90.0
  0
LINE
  5
1C3
330
17
100
AcDbEntity
  8
0
  6
Continuous
 62
     7
100
AcDbLine
 10
2781.006361288882
 20
2721.3422084822
 30
0.0
 11
2810.006361288882
 21
2721.3422084822
 31
0.0
  0
LINE
  5
1C4
330
17
100
AcDbEntity
  8
0
  6
Continuous
 62
     7
100
AcDbLine
 10
2810.006361288882
 20
2705.3422084822
 30
0.0
 11
2781.006361288882
 21
2705.3422084822
 31
0.0
  0
ARC
  5
1C5
330
17
100
AcDbEntity
  8
0
  6
Continuous
 62
     7
100
AcDbCircle
 10
2764.006361288882
 20
2663.3422084822
 30
0.0
 40
58.0
100
AcDbArc
 50
77.52865179313247
 51
90.0
  0
CIRCLE
  5
1C6
330
17
100
AcDbEntity
  8
0
  6
Continuous
 62
     7
100
AcDbCircle
 10
2781.006361288882
 20
2713.3422084822
 30
0.0
 40
8.0
  0
ARC
  5
1C7
330
17
100
AcDbEntity
  8
0
  6
Continuous
 62
     7
100
AcDbCircle
 10
2798.006361288881
 20
2521.342208482201
 30
0.0
 40
8.0
100
AcDbArc
 50
90.0
 51
270.0
  0
LINE
  5
1C8
330
17
100
AcDbEntity
  8
0
  6
Continuous
 62
     7
100
AcDbLine
 10
2798.006361288881
 20
2529.342208482201
 30
0.0
 11
2906.006361288882
 21
2529.342208482201
 31
0.0
  0
LINE
  5
1C9
330
17
100
AcDbEntity
  8
0
  6
Continuous
 62
     7
100
AcDbLine
 10
2906.006361288882
 20
2513.342208482201
 30
0.0
 11
2798.006361288881
 21
2513.342208482201
 31
0.0
  0
LINE
  5
1CA
330
17
100
AcDbEntity
  8
0
  6
Continuous
 62
     7
100
AcDbLine
 10
2806.006361288882
 20
2529.342208482201
 30
0.0
 11
2806.006361288882
 21
2663.3422084822
 31
0.0
  0
LINE
  5
1CB
330
17
100
AcDbEntity
  8
0
  6
Continuous
 62
     7
100
AcDbLine
 10
2822.006361288882
 20
2529.342208482201
 30
0.0
 11
2822.006361288882
 21
2663.3422084822
 31
0.0
  0
LINE
  5
1CC
330
17
100
AcDbEntity
  8
0
  6
Continuous
 62
     7
100
AcDbLine
 10
2852.006361288882
 20
2529.342208482201
 30
0.0
 11
2852.006361288882
 21
2663.3422084822
 31
0.0
  0
LINE
  5
1CD
330
17
100
AcDbEntity
  8
0
  6
Continuous
 62
     7
100
AcDbLine
 10
2868.006361288882
 20
2529.342208482201
 30
0.0
 11
2868.006361288882
 21
2663.3422084822
 31
0.0
  0
LINE
  5
1CE
330
17
100
AcDbEntity
  8
0
  6
Continuous
 62
     7
100
AcDbLine
 10
2906.006361288882
 20
1387.166264367579
 30
0.0
 11
2798.006361288881
 21
1387.166264367579
 31
0.0
  0
LINE
  5
1CF
330
17
100
AcDbEntity
  8
0
  6
Continuous
 62
     7
100
AcDbLine
 10
2798.006361288881
 20
1403.166264367579
 30
0.0
 11
2906.006361288882
 21
1403.166264367579
 31
0.0
  0
ARC
  5
1D0
330
17
100
AcDbEntity
  8
0
  6
Continuous
 62
     7
100
AcDbCircle
 10
2798.006361288881
 20
1395.166264367579
 30
0.0
 40
8.0
100
AcDbArc
 50
90.0
 51
270.0
  0
LINE
  5
1D1
330
17
100
AcDbEntity
  8
0
  6
Continuous
 62
     7
100
AcDbLine
 10
2822.006361288882
 20
1403.166264367579
 30
0.0
 11
2822.006361288882
 21
1948.121799510669
 31
0.0
  0
LINE
  5
1D2
330
17
100
AcDbEntity
  8
0
  6
Continuous
 62
     7
100
AcDbLine
 10
2806.006361288881
 20
1403.166264367579
 30
0.0
 11
2806.006361288882
 21
1948.121799510669
 31
0.0
  0
LINE
  5
1D3
330
17
100
AcDbEntity
  8
0
  6
Continuous
 62
     7
100
AcDbLine
 10
2852.006361288881
 20
1403.166264367579
 30
0.0
 11
2852.006361288882
 21
1948.121799510669
 31
0.0
  0
LINE
  5
1D4
330
17
100
AcDbEntity
  8
0
  6
Continuous
 62
     7
100
AcDbLine
 10
2868.006361288882
 20
1403.166264367579
 30
0.0
 11
2868.006361288882
 21
1948.121799510669
 31
0.0
  0
ARC
  5
1D5
330
17
100
AcDbEntity
  8
0
  6
Continuous
 62
     7
100
AcDbCircle
 10
2798.006361288881
 20
995.1662643675791
 30
0.0
 40
8.0
100
AcDbArc
 50
90.0
 51
270.0
  0
LINE
  5
1D6
330
17
100
AcDbEntity
  8
0
  6
Continuous
 62
     7
100
AcDbLine
 10
2798.006361288881
 20
1003.166264367579
 30
0.0
 11
2906.006361288882
 21
1003.166264367579
 31
0.0
  0
LINE
  5
1D7
330
17
100
AcDbEntity
  8
0
  6
Continuous
 62
     7
100
AcDbLine
 10
2906.006361288882
 20
987.1662643675786
 30
0.0
 11
2798.006361288881
 21
987.1662643675791
 31
0.0
  0
LINE
  5
1D8
330
17
100
AcDbEntity
  8
0
  6
Continuous
 62
     7
100
AcDbLine
 10
2822.006361288882
 20
1003.166264367579
 30
0.0
 11
2822.006361288882
 21
1387.166264367579
 31
0.0
  0
LINE
  5
1D9
330
17
100
AcDbEntity
  8
0
  6
Continuous
 62
     7
100
AcDbLine
 10
2806.006361288881
 20
1003.166264367579
 30
0.0
 11
2806.006361288881
 21
1387.166264367579
 31
0.0
  0
LINE
  5
1DA
330
17
100
AcDbEntity
  8
0
  6
Continuous
 62
     7
100
AcDbLine
 10
2868.006361288881
 20
1003.166264367579
 30
0.0
 11
2868.006361288882
 21
1387.166264367579
 31
0.0
  0
LINE
  5
1DB
330
17
100
AcDbEntity
  8
0
  6
Continuous
 62
     7
100
AcDbLine
 10
2852.006361288881
 20
1003.166264367579
 30
0.0
 11
2852.006361288881
 21
1387.166264367579
 31
0.0
  0
LINE
  5
1DC
330
17
100
AcDbEntity
  8
0
  6
Continuous
 62
     7
100
AcDbLine
 10
2756.006361288882
 20
1195.166264367579
 30
0.0
 11
2756.006361288882
 21
795.1662643675791
 31
0.0
  0
LINE
  5
1DD
330
17
100
AcDbEntity
  8
0
  6
Continuous
 62
     7
100
AcDbLine
 10
2756.006361288882
 20
795.1662643675791
 30
0.0
 11
2906.006361288882
 21
795.1662643675791
 31
0.0
  0
LINE
  5
1DE
330
17
100
AcDbEntity
  8
0
  6
Continuous
 62
     7
100
AcDbLine
 10
3056.006361288882
 20
795.1662643675791
 30
0.0
 11
2906.006361288882
 21
795.1662643675791
 31
0.0
  0
LINE
  5
1DF
330
17
100
AcDbEntity
  8
0
  6
Continuous
 62
     7
100
AcDbLine
 10
3056.006361288882
 20
1195.166264367579
 30
0.0
 11
3056.006361288882
 21
795.1662643675791
 31
0.0
  0
LINE
  5
1E0
330
17
100
AcDbEntity
  8
0
  6
Continuous
 62
     7
100
AcDbLine
 10
2960.006361288883
 20
1003.166264367579
 30
0.0
 11
2960.006361288883
 21
1387.166264367579
 31
0.0
  0
LINE
  5
1E1
330
17
100
AcDbEntity
  8
0
  6
Continuous
 62
     7
100
AcDbLine
 10
2944.006361288883
 20
1003.166264367579
 30
0.0
 11
2944.006361288882
 21
1387.166264367579
 31
0.0
  0
LINE
  5
1E2
330
17
100
AcDbEntity
  8
0
  6
Continuous
 62
     7
100
AcDbLine
 10
3006.006361288883
 20
1003.166264367579
 30
0.0
 11
3006.006361288883
 21
1387.166264367579
 31
0.0
  0
LINE
  5
1E3
330
17
100
AcDbEntity
  8
0
  6
Continuous
 62
     7
100
AcDbLine
 10
2990.006361288883
 20
1003.166264367579
 30
0.0
 11
2990.006361288883
 21
1387.166264367579
 31
0.0
  0
LINE
  5
1E4
330
17
100
AcDbEntity
  8
0
  6
Continuous
 62
     7
100
AcDbLine
 10
2906.006361288882
 20
987.1662643675786
 30
0.0
 11
3014.006361288883
 21
987.1662643675791
 31
0.0
  0
LINE
  5
1E5
330
17
100
AcDbEntity
  8
0
  6
Continuous
 62
     7
100
AcDbLine
 10
3014.006361288883
 20
1003.166264367579
 30
0.0
 11
2906.006361288882
 21
1003.166264367579
 31
0.0
  0
ARC
  5
1E6
330
17
100
AcDbEntity
  8
0
  6
Continuous
 62
     7
100
AcDbCircle
 10
3014.006361288883
 20
995.1662643675791
 30
0.0
 40
8.0
100
AcDbArc
 50
270.0
 51
90.0
  0
LINE
  5
1E7
330
17
100
AcDbEntity
  8
0
  6
Continuous
 62
     7
100
AcDbLine
 10
2944.006361288882
 20
1403.166264367579
 30
0.0
 11
2944.006361288882
 21
1948.121799510669
 31
0.0
  0
LINE
  5
1E8
330
17
100
AcDbEntity
  8
0
  6
Continuous
 62
     7
100
AcDbLine
 10
2960.006361288883
 20
1403.166264367579
 30
0.0
 11
2960.006361288883
 21
1948.121799510669
 31
0.0
  0
LINE
  5
1E9
330
17
100
AcDbEntity
  8
0
  6
Continuous
 62
     7
100
AcDbLine
 10
3006.006361288883
 20
1403.166264367579
 30
0.0
 11
3006.006361288883
 21
1948.121799510669
 31
0.0
  0
LINE
  5
1EA
330
17
100
AcDbEntity
  8
0
  6
Continuous
 62
     7
100
AcDbLine
 10
2990.006361288883
 20
1403.166264367579
 30
0.0
 11
2990.006361288883
 21
1948.121799510669
 31
0.0
  0
ARC
  5
1EB
330
17
100
AcDbEntity
  8
0
  6
Continuous
 62
     7
100
AcDbCircle
 10
3014.006361288883
 20
1395.166264367579
 30
0.0
 40
8.0
100
AcDbArc
 50
270.0
 51
90.0
  0
LINE
  5
1EC
330
17
100
AcDbEntity
  8
0
  6
Continuous
 62
     7
100
AcDbLine
 10
3014.006361288883
 20
1403.166264367579
 30
0.0
 11
2906.006361288882
 21
1403.166264367579
 31
0.0
  0
LINE
  5
1ED
330
17
100
AcDbEntity
  8
0
  6
Continuous
 62
     7
100
AcDbLine
 10
2906.006361288882
 20
1387.166264367579
 30
0.0
 11
3014.006361288883
 21
1387.166264367579
 31
0.0
  0
LINE
  5
1EE
330
17
100
AcDbEntity
  8
0
  6
Continuous
 62
     7
100
AcDbLine
 10
2944.006361288882
 20
2529.342208482201
 30
0.0
 11
2944.006361288882
 21
2663.3422084822
 31
0.0
  0
LINE
  5
1EF
330
17
100
AcDbEntity
  8
0
  6
Continuous
 62
     7
100
AcDbLine
 10
2960.006361288882
 20
2529.342208482201
 30
0.0
 11
2960.006361288882
 21
2663.3422084822
 31
0.0
  0
LINE
  5
1F0
330
17
100
AcDbEntity
  8
0
  6
Continuous
 62
     7
100
AcDbLine
 10
2990.006361288881
 20
2529.342208482201
 30
0.0
 11
2990.006361288882
 21
2663.3422084822
 31
0.0
  0
LINE
  5
1F1
330
17
100
AcDbEntity
  8
0
  6
Continuous
 62
     7
100
AcDbLine
 10
3006.006361288882
 20
2529.342208482201
 30
0.0
 11
3006.006361288882
 21
2663.3422084822
 31
0.0
  0
LINE
  5
1F2
330
17
100
AcDbEntity
  8
0
  6
Continuous
 62
     7
100
AcDbLine
 10
2906.006361288882
 20
2513.342208482201
 30
0.0
 11
3014.006361288883
 21
2513.342208482201
 31
0.0
  0
LINE
  5
1F3
330
17
100
AcDbEntity
  8
0
  6
Continuous
 62
     7
100
AcDbLine
 10
3014.006361288883
 20
2529.342208482201
 30
0.0
 11
2906.006361288882
 21
2529.342208482201
 31
0.0
  0
ARC
  5
1F4
330
17
100
AcDbEntity
  8
0
  6
Continuous
 62
     7
100
AcDbCircle
 10
3014.006361288883
 20
2521.342208482201
 30
0.0
 40
8.0
100
AcDbArc
 50
270.0
 51
90.0
  0
CIRCLE
  5
1F5
330
17
100
AcDbEntity
  8
0
  6
Continuous
 62
     7
100
AcDbCircle
 10
3031.006361288882
 20
2713.3422084822
 30
0.0
 40
8.0
  0
ARC
  5
1F6
330
17
100
AcDbEntity
  8
0
  6
Continuous
 62
     7
100
AcDbCircle
 10
3048.006361288881
 20
2663.3422084822
 30
0.0
 40
58.0
100
AcDbArc
 50
90.0
 51
102.4713482068675
  0
LINE
  5
1F7
330
17
100
AcDbEntity
  8
0
  6
Continuous
 62
     7
100
AcDbLine
 10
3002.006361288882
 20
2705.3422084822
 30
0.0
 11
3031.006361288882
 21
2705.3422084822
 31
0.0
  0
LINE
  5
1F8
330
17
100
AcDbEntity
  8
0
  6
Continuous
 62
     7
100
AcDbLine
 10
3031.006361288882
 20
2721.3422084822
 30
0.0
 11
3002.006361288882
 21
2721.3422084822
 31
0.0
  0
ARC
  5
1F9
330
17
100
AcDbEntity
  8
0
  6
Continuous
 62
     7
100
AcDbCircle
 10
3002.006361288882
 20
2663.3422084822
 30
0.0
 40
42.0
100
AcDbArc
 50
90.0
 51
180.0
  0
ARC
  5
1FA
330
17
100
AcDbEntity
  8
0
  6
Continuous
 62
     7
100
AcDbCircle
 10
3002.006361288882
 20
2663.3422084822
 30
0.0
 40
58.0
100
AcDbArc
 50
90.0
 51
180.0
  0
LINE
  5
1FB
330
17
100
AcDbEntity
  8
0
  6
Continuous
 62
     7
100
AcDbLine
 10
2944.006361288883
 20
795.1662643675791
 30
0.0
 11
2944.006361288883
 21
987.1662643675791
 31
0.0
  0
LINE
  5
1FC
330
17
100
AcDbEntity
  8
0
  6
Continuous
 62
     7
100
AcDbLine
 10
2960.006361288883
 20
795.1662643675791
 30
0.0
 11
2960.006361288883
 21
987.1662643675791
 31
0.0
  0
ARC
  5
1FD
330
17
100
AcDbEntity
  8
0
  6
Continuous
 62
     7
100
AcDbCircle
 10
3048.006361288881
 20
2663.3422084822
 30
0.0
 40
58.0
100
AcDbArc
 50
133.6028189727038
 51
180.0
  0
ARC
  5
1FE
330
17
100
AcDbEntity
  8
0
  6
Continuous
 62
     7
100
AcDbCircle
 10
3048.006361288881
 20
2663.3422084822
 30
0.0
 40
42.0
100
AcDbArc
 50
90.0
 51
180.0
  0
LINE
  5
1FF
330
17
100
AcDbEntity
  8
0
  6
Continuous
 62
     7
100
AcDbLine
 10
3156.006361288882
 20
2721.3422084822
 30
0.0
 11
3156.006361288882
 21
2705.3422084822
 31
0.0
  0
LINE
  5
200
330
17
100
AcDbEntity
  8
0
  6
Continuous
 62
     7
100
AcDbLine
 10
3156.006361288882
 20
2705.3422084822
 30
0.0
 11
3048.006361288881
 21
2705.3422084822
 31
0.0
  0
LINE
  5
201
330
17
100
AcDbEntity
  8
0
  6
Continuous
 62
     7
100
AcDbLine
 10
3156.006361288882
 20
2721.3422084822
 30
0.0
 11
3048.006361288881
 21
2721.3422084822
 31
0.0
  0
LINE
  5
202
330
17
100
AcDbEntity
  8
0
  6
Continuous
 62
     7
100
AcDbLine
 10
2990.006361288883
 20
795.1662643675791
 30
0.0
 11
2990.006361288883
 21
987.1662643675791
 31
0.0
  0
LINE
  5
203
330
17
100
AcDbEntity
  8
0
  6
Continuous
 62
     7
100
AcDbLine
 10
3006.006361288883
 20
795.1662643675791
 30
0.0
 11
3006.006361288883
 21
987.1662643675791
 31
0.0
  0
LINE
  5
204
330
17
100
AcDbEntity
  8
0
  6
Continuous
 62
     7
100
AcDbLine
 10
2706.006361288882
 20
795.1662643675791
 30
0.0
 11
2706.006361288882
 21
695.1662643675791
 31
0.0
  0
LINE
  5
205
330
17
100
AcDbEntity
  8
0
  6
Continuous
 62
     7
100
AcDbLine
 10
2706.006361288882
 20
695.1662643675791
 30
0.0
 11
3106.006361288882
 21
695.1662643675791
 31
0.0
  0
LINE
  5
206
330
17
100
AcDbEntity
  8
0
  6
Continuous
 62
     7
100
AcDbLine
 10
3106.006361288882
 20
695.1662643675791
 30
0.0
 11
3106.006361288882
 21
795.1662643675791
 31
0.0
  0
LINE
  5
207
330
17
100
AcDbEntity
  8
0
  6
Continuous
 62
     7
100
AcDbLine
 10
3106.006361288882
 20
795.1662643675791
 30
0.0
 11
2706.006361288882
 21
795.1662643675791
 31
0.0
  0
LINE
  5
209
330
17
100
AcDbEntity
  8
0
  6
Continuous
 62
     7
100
AcDbLine
 10
2822.006361288882
 20
1195.166264367579
 30
0.0
 11
2852.006361288881
 21
1195.166264367579
 31
0.0
  0
LINE
  5
20A
330
17
100
AcDbEntity
  8
0
  6
Continuous
 62
     7
100
AcDbLine
 10
2868.006361288882
 20
1195.166264367579
 30
0.0
 11
2944.006361288882
 21
1195.166264367579
 31
0.0
  0
LINE
  5
217
330
17
100
AcDbEntity
  8
0
  6
Continuous
 62
     7
100
AcDbLine
 10
2822.006361288882
 20
1195.166264367579
 30
0.0
 11
2852.006361288881
 21
1195.166264367579
 31
0.0
  0
LINE
  5
218
330
17
100
AcDbEntity
  8
0
  6
Continuous
 62
     7
100
AcDbLine
 10
2868.006361288881
 20
1195.166264367579
 30
0.0
 11
2944.006361288883
 21
1195.166264367579
 31
0.0
  0
LINE
  5
219
330
17
100
AcDbEntity
  8
0
  6
Continuous
 62
     7
100
AcDbLine
 10
2960.006361288883
 20
1195.166264367579
 30
0.0
 11
2990.006361288883
 21
1195.166264367579
 31
0.0
  0
TEXT
  5
22E
330
17
100
AcDbEntity
  8
SUNPO_0
  6
Continuous
 62
     3
100
AcDbText
 10
3129.02371513504
 20
2406.862975255393
 30
0.0
 40
20.0
  1
丸棒φ16
  7
STD
100
AcDbText
  0
TEXT
  5
234
330
17
100
AcDbEntity
  8
TEXT_0
  6
Continuous
 62
     3
370
    -1
100
AcDbText
 10
2717.126400000007
 20
843.2539936102141
 30
0.0
 40
30.0
  1

  7
STD
100
AcDbText
  0
TEXT
  5
235
330
17
100
AcDbEntity
  8
TEXT_0
  6
Continuous
 62
     3
370
    -1
100
AcDbText
 10
2717.126400000007
 20
807.2539936102141
 30
0.0
 40
30.0
  1

  7
STD
100
AcDbText
  0
TEXT
  5
243
330
17
100
AcDbEntity
  8
TEXT_0
  6
Continuous
 62
     7
100
AcDbText
 10
1126.168829612438
 20
1476.868869051534
 30
0.0
 40
32.0
  1
平面図　Ｓ＝１：１０
  7
STYLE1
 72
     1
 11
1311.350647794256
 21
1476.868869051534
 31
0.0
100
AcDbText
  0
LINE
  5
244
330
17
100
AcDbEntity
  8
0
  6
Continuous
 62
     7
100
AcDbLine
 10
1105.998582424418
 20
1467.38005116016
 30
0.0
 11
1525.621345824864
 21
1467.38005116016
 31
0.0
  0
LINE
  5
245
330
17
100
AcDbEntity
  8
0
  6
Continuous
 62
     7
100
AcDbLine
 10
2693.936109659198
 20
403.651696115895
 30
0.0
 11
3130.142475391503
 21
403.651696115895
 31
0.0
  0
TEXT
  5
246
330
17
100
AcDbEntity
  8
TEXT_0
  6
Continuous
 62
     7
100
AcDbText
 10
2722.52653934675
 20
413.1405140072688
 30
0.0
 40
32.0
  1
立面図　Ｓ＝１：１０
  7
STYLE1
 72
     1
 11
2907.708357528568
 21
413.1405140072688
 31
0.0
100
AcDbText
  0
LWPOLYLINE
  5
24D
330
17
100
AcDbEntity
  8
ASKPAPERSIZE
  6
Continuous
 62
     4
100
AcDbPolyline
 90
        4
 70
     1
 43
0.0
 10
0.0
 20
0.0
 10
0.0
 20
2970.0
 10
4200.0
 20
2970.0
 10
4200.0
 20
0.0
1001
AUTO_SEKKEIYA
1002
{
1000
NONE
1002
}
  0
TEXT
  5
261
330
17
100
AcDbEntity
  8
TEXT_0
  6
Continuous
 62
     3
100
AcDbText
 10
3339.590431705818
 20
1201.750637347327
 30
0.0
 40
30.0
  1
G.L
  7
STD
100
AcDbText
  0
TEXT
  5
2D1
330
17
100
AcDbEntity
  8
9図面文字
 62
     7
100
AcDbText
 10
2549.843353078404
 20
104.396894654747
 30
0.0
 40
35.0
  1
TR-P4
  7
STYLE1
 72
     4
 11
2621.931421260222
 21
121.5985992002015
 31
0.0
100
AcDbText
  0
TEXT
  5
2D2
330
17
100
AcDbEntity
  8
9図面文字
100
AcDbText
 10
3193.700642677135
 20
247.4428774274535
 30
0.0
 40
45.0
  1
TR-P4　ポールトレリス
  7
STYLE1
 72
     4
 11
3506.527347222589
 21
272.2440137910899
 31
0.0
100
AcDbText
  0
TEXT
  5
2D3
330
17
100
AcDbEntity
  8
9図面文字
100
AcDbText
 10
2114.594344750776
 20
251.5109416896644
 30
0.0
 40
35.0
  1
標準品
  7
STYLE1
 72
     1
 11
2190.957981114412
 21
269.0109416896644
 31
0.0
100
AcDbText
 73
     2
  0
TEXT
  5
2D4
330
17
100
AcDbEntity
  8
9図面文字
100
AcDbText
 10
2567.686447993983
 20
251.5109416896644
 30
0.0
 40
35.0
  1
承諾願図
  7
STYLE1
 72
     1
 11
2669.504629812165
 21
269.0109416896644
 31
0.0
100
AcDbText
 73
     2
  0
LINE
  5
2D5
330
17
100
AcDbEntity
  8
9図面枠
  6
Continuous
 62
     4
100
AcDbLine
 10
2405.374708789681
 20
204.25
 30
0.0
 11
2405.37470878968
 21
334.2500000000001
 31
0.0
  0
TEXT
  5
2D6
330
17
100
AcDbEntity
  8
9図面文字
100
AcDbText
 10
2417.491043883658
 20
230.3647676345022
 30
0.0
 40
30.0
  1
種
  7
STYLE1
 72
     1
 11
2439.30922570184
 21
245.3647676345022
 31
0.0
100
AcDbText
 73
     2
  0
TEXT
  5
2D7
330
17
100
AcDbEntity
  8
9図面文字
100
AcDbText
 10
2417.491043883658
 20
283.0154632676072
 30
0.0
 40
30.0
  1
図
  7
STYLE1
 72
     1
 11
2439.30922570184
 21
298.0154632676072
 31
0.0
100
AcDbText
 73
     2
  0
LINE
  5
2D8
330
17
100
AcDbEntity
  8
9図面枠
  6
Continuous
 62
     4
100
AcDbLine
 10
2470.37470878968
 20
204.25
 30
0.0
 11
2470.37470878968
 21
334.2500000000001
 31
0.0
  0
LINE
  5
2D9
330
17
100
AcDbEntity
  8
9図面枠
  6
Continuous
 62
     7
100
AcDbLine
 10
269.6922831557749
 20
-400.4618930181264
 30
0.0
 11
269.6922831557749
 21
-140.4618930181264
 31
0.0
  0
TEXT
  5
2DA
330
17
100
AcDbEntity
  8
9図面文字
  6
Continuous
 62
     7
100
AcDbText
 10
1481.850933379324
 20
-382.4390690028039
 30
0.0
 40
27.33750000000004
  1
    /  /  
  7
STYLE1
100
AcDbText
  0
TEXT
  5
2DB
330
17
100
AcDbEntity
  8
9図面文字
  6
Continuous
 62
     7
100
AcDbText
 10
1481.850933379324
 20
-317.439069002804
 30
0.0
 40
27.33750000000004
  1
    /  /  
  7
STYLE1
100
AcDbText
  0
TEXT
  5
2DC
330
17
100
AcDbEntity
  8
9図面文字
  6
Continuous
 62
     7
100
AcDbText
 10
1481.850933379324
 20
-252.439069002804
 30
0.0
 40
27.33750000000004
  1
    /  /  
  7
STYLE1
100
AcDbText
  0
LINE
  5
2DD
330
17
100
AcDbEntity
  8
9図面枠
  6
Continuous
 62
     7
100
AcDbLine
 10
1660.296933428177
 20
-400.4618930181263
 30
0.0
 11
188.6922831557749
 21
-400.4618930181264
 31
0.0
  0
LINE
  5
2DE
330
17
100
AcDbEntity
  8
非表示破線
  6
HIDS
 62
     5
100
AcDbLine
 10
186.0
 20
126.25
 30
0.0
 11
1916.002261313723
 21
126.25
 31
0.0
  0
LINE
  5
2DF
330
17
100
AcDbEntity
  8
非表示破線
  6
HIDS
 62
     5
100
AcDbLine
 10
186.0
 20
178.25
 30
0.0
 11
1916.002261313723
 21
178.25
 31
0.0
  0
LINE
  5
2E0
330
17
100
AcDbEntity
  8
非表示破線
  6
HIDS
 62
     5
100
AcDbLine
 10
186.0
 20
230.25
 30
0.0
 11
1916.002261313723
 21
230.25
 31
0.0
  0
LINE
  5
2E2
330
17
100
AcDbEntity
  8
非表示破線
  6
HIDS
 62
     5
 48
2.0
100
AcDbLine
 10
269.6922831557749
 20
-335.4618930181264
 30
0.0
 11
1660.296933428177
 21
-335.4618930181264
 31
0.0
  0
LINE
  5
2E3
330
17
100
AcDbEntity
  8
非表示破線
  6
HIDS
 62
     5
 48
2.0
100
AcDbLine
 10
269.6922831557749
 20
-205.4618930181264
 30
0.0
 11
1660.296933428177
 21
-205.4618930181264
 31
0.0
  0
LINE
  5
2E4
330
17
100
AcDbEntity
  8
9図面枠
  6
Continuous
 62
     7
100
AcDbLine
 10
188.6922831557749
 20
-140.4618930181264
 30
0.0
 11
1660.296933428177
 21
-140.4618930181264
 31
0.0
  0
LINE
  5
2E5
330
17
100
AcDbEntity
  8
非表示破線
  6
HIDS
 62
     5
 48
2.0
100
AcDbLine
 10
269.6922831557749
 20
-270.4618930181264
 30
0.0
 11
1660.296933428177
 21
-270.4618930181264
 31
0.0
  0
TEXT
  5
2E6
330
17
100
AcDbEntity
  8
9図面文字
  6
Continuous
 62
     7
100
AcDbText
 10
279.4017410181386
 20
-382.7099916150007
 30
0.0
 40
27.33750000000004
  1
４：
  7
STYLE1
100
AcDbText
  0
TEXT
  5
2E7
330
17
100
AcDbEntity
  8
9図面文字
  6
Continuous
 62
     7
100
AcDbText
 10
279.4017410181386
 20
-318.6508232050764
 30
0.0
 40
27.33750000000004
  1
３：
  7
STYLE1
100
AcDbText
  0
TEXT
  5
2E8
330
17
100
AcDbEntity
  8
9図面文字
  6
Continuous
 62
     7
100
AcDbText
 10
279.4017410181386
 20
-251.556144334925
 30
0.0
 40
27.33750000000004
  1
２：
  7
STYLE1
100
AcDbText
  0
TEXT
  5
2E9
330
17
100
AcDbEntity
  8
9図面文字
  6
Continuous
 62
     7
100
AcDbText
 10
279.4017410181386
 20
-187.2145226579185
 30
0.0
 40
27.33750000000004
  1
１：
  7
STYLE1
100
AcDbText
  0
TEXT
  5
2EA
330
17
100
AcDbEntity
  8
9図面文字
100
AcDbText
 10
207.2751731071332
 20
-377.1987669541452
 30
0.0
 40
30.00000000000004
  1
歴
  7
STYLE1
 72
     1
 11
229.093354925315
 21
-362.1987669541452
 31
0.0
100
AcDbText
 73
     2
  0
TEXT
  5
2EB
330
17
100
AcDbEntity
  8
9図面文字
100
AcDbText
 10
207.2751731071332
 20
-254.1652686349483
 30
0.0
 40
30.00000000000004
  1
更
  7
STYLE1
 72
     1
 11
229.093354925315
 21
-239.1652686349482
 31
0.0
100
AcDbText
 73
     2
  0
TEXT
  5
2EC
330
17
100
AcDbEntity
  8
9図面文字
100
AcDbText
 10
207.2751731071332
 20
-315.0691469073001
 30
0.0
 40
30.00000000000004
  1
履
  7
STYLE1
 72
     1
 11
229.093354925315
 21
-300.0691469073001
 31
0.0
100
AcDbText
 73
     2
  0
TEXT
  5
2ED
330
17
100
AcDbEntity
  8
9図面文字
100
AcDbText
 10
207.2751731071332
 20
-194.4871480189998
 30
0.0
 40
30.00000000000004
  1
変
  7
STYLE1
 72
     1
 11
229.093354925315
 21
-179.4871480189997
 31
0.0
100
AcDbText
 73
     2
  0
LINE
  5
2EE
330
17
100
AcDbEntity
  8
9図面枠
  6
Continuous
 62
     7
100
AcDbLine
 10
188.6922831557749
 20
-140.4618930181264
 30
0.0
 11
188.6922831557749
 21
-400.4618930181264
 31
0.0
  0
LINE
  5
2EF
330
17
100
AcDbEntity
  8
非表示破線
  6
HIDS
 62
     5
100
AcDbLine
 10
1431.901583700579
 20
-140.4618930181264
 30
0.0
 11
1431.901583700579
 21
-400.4618930181263
 31
0.0
  0
LINE
  5
2F0
330
17
100
AcDbEntity
  8
9図面枠
  6
Continuous
 62
     7
100
AcDbLine
 10
1660.296933428177
 20
-140.4618930181264
 30
0.0
 11
1660.296933428177
 21
-400.4618930181263
 31
0.0
  0
TEXT
  5
2F1
330
17
100
AcDbEntity
  8
9図面文字
  6
Continuous
 62
     7
100
AcDbText
 10
1481.850933379324
 20
-187.439069002804
 30
0.0
 40
27.33750000000004
  1
    /  /  
  7
STYLE1
100
AcDbText
  0
LINE
  5
2F2
330
17
100
AcDbEntity
  8
9図面枠
  6
Continuous
 62
     4
100
AcDbLine
 10
2294.747156265636
 20
164.25
 30
0.0
 11
2894.747156265636
 21
164.25
 31
0.0
  0
LINE
  5
2F3
330
17
100
AcDbEntity
  8
9図面枠
  6
Continuous
 62
     4
100
AcDbLine
 10
105.0
 20
2895.75
 30
0.0
 11
105.0
 21
74.25
 31
0.0
  0
LINE
  5
2F4
330
17
100
AcDbEntity
  8
9図面枠
  6
Continuous
 62
     4
100
AcDbLine
 10
4095.0
 20
74.25
 30
0.0
 11
105.0
 21
74.25
 31
0.0
  0
LINE
  5
2F5
330
17
100
AcDbEntity
  8
9図面枠
  6
Continuous
 62
     4
100
AcDbLine
 10
4095.0
 20
2895.75
 30
0.0
 11
4095.0
 21
74.25
 31
0.0
  0
LINE
  5
2F6
330
17
100
AcDbEntity
  8
9図面枠
  6
Continuous
 62
     4
100
AcDbLine
 10
105.0
 20
2895.75
 30
0.0
 11
4095.0
 21
2895.75
 31
0.0
  0
LINE
  5
2F7
330
17
100
AcDbEntity
  8
非表示破線
  6
HIDS
 62
     5
100
AcDbLine
 10
186.0
 20
282.25
 30
0.0
 11
1916.002261313723
 21
282.2499999999999
 31
0.0
  0
TEXT
  5
2F8
330
17
100
AcDbEntity
  8
9図面文字
 62
     7
100
AcDbText
 10
2543.263632658911
 20
171.9266855040712
 30
0.0
 40
25.0
  1
file name：
  7
STYLE1
 11
2543.263632658911
 21
184.4266855040712
 31
0.0
100
AcDbText
 73
     2
  0
LINE
  5
2F9
330
17
100
AcDbEntity
  8
9図面枠
  6
Continuous
 62
     4
100
AcDbLine
 10
2975.747156265636
 20
236.25
 30
0.0
 11
2975.747156265636
 21
334.2500000000001
 31
0.0
  0
TEXT
  5
2FA
330
17
100
AcDbEntity
  8
9図面文字
100
AcDbText
 10
3044.047156265637
 20
115.0755372387916
 30
0.0
 40
40.0
  1
図　示
  7
STYLE1
 72
     1
 11
3121.547156265637
 21
135.0755372387916
 31
0.0
100
AcDbText
 73
     2
  0
LINE
  5
2FB
330
17
100
AcDbEntity
  8
9図面枠
  6
Continuous
 62
     4
100
AcDbLine
 10
3267.347156265636
 20
74.25
 30
0.0
 11
3267.347156265636
 21
204.25
 31
0.0
  0
LINE
  5
2FC
330
17
100
AcDbEntity
  8
9図面枠
  6
Continuous
 62
     4
100
AcDbLine
 10
2975.747156265636
 20
74.25
 30
0.0
 11
2975.747156265636
 21
236.25
 31
0.0
  0
LINE
  5
2FD
330
17
100
AcDbEntity
  8
9図面枠
  6
Continuous
 62
     4
100
AcDbLine
 10
1981.002261313723
 20
74.25
 30
0.0
 11
1981.002261313723
 21
204.25
 31
0.0
  0
LINE
  5
2FE
330
17
100
AcDbEntity
  8
9図面枠
  6
Continuous
 62
     4
100
AcDbLine
 10
2099.747156265636
 20
74.25
 30
0.0
 11
2099.747156265636
 21
204.25
 31
0.0
  0
LINE
  5
2FF
330
17
100
AcDbEntity
  8
9図面枠
  6
Continuous
 62
     4
100
AcDbLine
 10
2164.747156265636
 20
74.25
 30
0.0
 11
2164.747156265636
 21
204.25
 31
0.0
  0
LINE
  5
300
330
17
100
AcDbEntity
  8
9図面枠
  6
Continuous
 62
     4
100
AcDbLine
 10
2294.747156265637
 20
74.25
 30
0.0
 11
2294.747156265637
 21
204.25
 31
0.0
  0
LINE
  5
301
330
17
100
AcDbEntity
  8
9図面枠
  6
Continuous
 62
     4
100
AcDbLine
 10
2894.747156265637
 20
74.25
 30
0.0
 11
2894.747156265637
 21
334.2500000000001
 31
0.0
  0
TEXT
  5
302
330
17
100
AcDbEntity
  8
9図面文字
100
AcDbText
 10
2913.428974447454
 20
152.907383817251
 30
0.0
 40
30.0
  1
縮
  7
STYLE1
 72
     1
 11
2935.247156265636
 21
167.907383817251
 31
0.0
100
AcDbText
 73
     2
  0
TEXT
  5
303
330
17
100
AcDbEntity
  8
9図面文字
100
AcDbText
 10
2913.428974447454
 20
101.7753478165525
 30
0.0
 40
30.0
  1
尺
  7
STYLE1
 72
     1
 11
2935.247156265636
 21
116.7753478165525
 31
0.0
100
AcDbText
 73
     2
  0
TEXT
  5
304
330
17
100
AcDbEntity
  8
9図面文字
100
AcDbText
 10
2913.428974447454
 20
253.9237698710328
 30
0.0
 40
30.0
  1
面
  7
STYLE1
 72
     1
 11
2935.247156265636
 21
268.9237698710328
 31
0.0
100
AcDbText
 73
     2
  0
TEXT
  5
305
330
17
100
AcDbEntity
  8
9図面文字
100
AcDbText
 10
2912.130902381559
 20
214.5756929603872
 30
0.0
 40
30.0
  1
名
  7
STYLE1
 72
     1
 11
2933.949084199741
 21
229.5756929603872
 31
0.0
100
AcDbText
 73
     2
  0
TEXT
  5
306
330
17
100
AcDbEntity
  8
9図面文字
100
AcDbText
 10
2913.428974447454
 20
294.7697253021111
 30
0.0
 40
30.0
  1
図
  7
STYLE1
 72
     1
 11
2935.247156265636
 21
309.7697253021111
 31
0.0
100
AcDbText
 73
     2
  0
LINE
  5
307
330
17
100
AcDbEntity
  8
9図面枠
  6
Continuous
 62
     4
100
AcDbLine
 10
1916.002261313723
 20
74.25
 30
0.0
 11
1916.002261313723
 21
236.25
 31
0.0
  0
LINE
  5
308
330
17
100
AcDbEntity
  8
9図面枠
  6
Continuous
 62
     4
100
AcDbLine
 10
1916.002261313723
 20
74.25
 30
0.0
 11
1916.002261313723
 21
334.2500000000001
 31
0.0
  0
TEXT
  5
309
330
17
100
AcDbEntity
  8
9図面文字
 62
     2
100
AcDbText
 10
3524.74454997319
 20
110.9018753110516
 30
0.0
 40
56.70000000000003
  1
丸山製作所
 41
1.3
  7
STYLE3
 72
     1
 11
3792.780913609554
 21
139.2518753110517
 31
0.0
100
AcDbText
 73
     2
  0
LINE
  5
30A
330
17
100
AcDbEntity
  8
9図面枠
  6
Continuous
 62
     4
100
AcDbLine
 10
1916.002261313723
 20
204.25
 30
0.0
 11
4095.0
 21
204.25
 31
0.0
  0
TEXT
  5
30B
330
17
100
AcDbEntity
  8
9図面文字
100
AcDbText
 10
123.6818181818182
 20
267.4795649035996
 30
0.0
 40
30.0
  1
特
  7
STYLE1
 72
     1
 11
145.5
 21
282.4795649035996
 31
0.0
100
AcDbText
 73
     2
  0
TEXT
  5
30C
330
17
100
AcDbEntity
  8
9図面文字
100
AcDbText
 10
124.5632568796875
 20
167.8850762080988
 30
0.0
 40
30.0
  1
仕
  7
STYLE1
 72
     1
 11
146.3814386978693
 21
182.8850762080988
 31
0.0
100
AcDbText
 73
     2
  0
TEXT
  5
30D
330
17
100
AcDbEntity
  8
9図面文字
100
AcDbText
 10
123.9859618323828
 20
216.7005123316744
 30
0.0
 40
30.0
  1
記
  7
STYLE1
 72
     1
 11
145.8041436505646
 21
231.7005123316744
 31
0.0
100
AcDbText
 73
     2
  0
TEXT
  5
30E
330
17
100
AcDbEntity
  8
9図面文字
100
AcDbText
 10
124.5632568796875
 20
117.206782147847
 30
0.0
 40
30.0
  1
様
  7
STYLE1
 72
     1
 11
146.3814386978693
 21
132.206782147847
 31
0.0
100
AcDbText
 73
     2
  0
LINE
  5
30F
330
17
100
AcDbEntity
  8
9図面枠
  6
Continuous
 62
     4
100
AcDbLine
 10
186.0
 20
74.25
 30
0.0
 11
186.0
 21
334.2500000000001
 31
0.0
  0
LINE
  5
310
330
17
100
AcDbEntity
  8
9図面枠
  6
Continuous
 62
     4
100
AcDbLine
 10
105.0
 20
334.2500000000001
 30
0.0
 11
4095.0
 21
334.2500000000001
 31
0.0
  0
LINE
  5
311
330
17
100
AcDbEntity
  8
9図面枠
  6
Continuous
 62
     4
100
AcDbLine
 10
1981.002261313723
 20
204.25
 30
0.0
 11
1981.002261313723
 21
334.2500000000001
 31
0.0
  0
TEXT
  5
312
330
17
100
AcDbEntity
  8
9図面文字
100
AcDbText
 10
1928.118596407701
 20
283.0154632676072
 30
0.0
 40
30.0
  1
類
  7
STYLE1
 72
     1
 11
1949.936778225883
 21
298.0154632676072
 31
0.0
100
AcDbText
 73
     2
  0
TEXT
  5
313
330
17
100
AcDbEntity
  8
9図面文字
100
AcDbText
 10
1928.118596407701
 20
230.3647676345022
 30
0.0
 40
30.0
  1
別
  7
STYLE1
 72
     1
 11
1949.936778225883
 21
245.3647676345022
 31
0.0
100
AcDbText
 73
     2
  0
TEXT
  5
314
330
17
100
AcDbEntity
  8
9図面文字
100
AcDbText
 10
2110.870318662885
 20
152.907383817251
 30
0.0
 40
30.0
  1
承
  7
STYLE1
 72
     1
 11
2132.688500481067
 21
167.907383817251
 31
0.0
100
AcDbText
 73
     2
  0
TEXT
  5
315
330
17
100
AcDbEntity
  8
9図面文字
100
AcDbText
 10
2110.870318662885
 20
101.7753478165528
 30
0.0
 40
30.0
  1
認
  7
STYLE1
 72
     1
 11
2132.688500481067
 21
116.7753478165528
 31
0.0
100
AcDbText
 73
     2
  0
TEXT
  5
316
330
17
100
AcDbEntity
  8
9図面文字
100
AcDbText
 10
1928.118596407701
 20
152.907383817251
 30
0.0
 40
30.0
  1
担
  7
STYLE1
 72
     1
 11
1949.936778225883
 21
167.907383817251
 31
0.0
100
AcDbText
 73
     2
  0
TEXT
  5
317
330
17
100
AcDbEntity
  8
9図面文字
100
AcDbText
 10
1928.118596407701
 20
101.7753478165525
 30
0.0
 40
30.0
  1
当
  7
STYLE1
 72
     1
 11
1949.936778225883
 21
116.7753478165525
 31
0.0
100
AcDbText
 73
     2
  0
LINE
  5
318
330
17
100
AcDbEntity
  8
9図面文字
  6
Continuous
 62
     7
100
AcDbLine
 10
3336.175852156221
 20
124.8012067696768
 30
0.0
 11
3422.117979894289
 21
124.8012067696768
 31
0.0
  0
LINE
  5
319
330
17
100
AcDbEntity
  8
9図面文字
  6
Continuous
 62
     7
100
AcDbLine
 10
3336.175852156221
 20
124.8012067696768
 30
0.0
 11
3348.771916025255
 21
155.1762067696768
 31
0.0
  0
LINE
  5
31A
330
17
100
AcDbEntity
  8
9図面文字
  6
Continuous
 62
     7
100
AcDbLine
 10
3348.771916025255
 20
155.1762067696768
 30
0.0
 11
3363.959416025255
 21
124.8012067696768
 31
0.0
  0
LINE
  5
31B
330
17
100
AcDbEntity
  8
9図面文字
  6
Continuous
 62
     7
100
AcDbLine
 10
3363.959416025255
 20
124.8012067696768
 30
0.0
 11
3379.146916025255
 21
185.5647145620082
 31
0.0
  0
LINE
  5
31C
330
17
100
AcDbEntity
  8
9図面文字
  6
Continuous
 62
     7
100
AcDbLine
 10
3379.146916025255
 20
185.5647145620082
 30
0.0
 11
3394.334416025255
 21
124.8012067696768
 31
0.0
  0
LINE
  5
31D
330
17
100
AcDbEntity
  8
9図面文字
  6
Continuous
 62
     7
100
AcDbLine
 10
3394.334416025255
 20
124.8012067696768
 30
0.0
 11
3409.521916025255
 21
155.1762067696768
 31
0.0
  0
LINE
  5
31E
330
17
100
AcDbEntity
  8
9図面文字
  6
Continuous
 62
     7
100
AcDbLine
 10
3409.521916025255
 20
155.1762067696768
 30
0.0
 11
3422.117979894289
 21
124.8012067696768
 31
0.0
  0
CIRCLE
  5
31F
330
17
100
AcDbEntity
  8
9図面文字
  6
Continuous
 62
     7
100
AcDbCircle
 10
3379.146916025255
 20
139.9887067696768
 30
0.0
 40
49.62600779233107
  0
CIRCLE
  5
320
330
17
100
AcDbEntity
  8
9図面文字
  6
Continuous
 62
     7
100
AcDbCircle
 10
3379.146916025255
 20
139.9887067696768
 30
0.0
 40
44.36100779233107
  0
HATCH
  5
321
330
17
100
AcDbEntity
  8
9図面文字
  6
Continuous
 62
     3
100
AcDbHatch
 10
0.0
 20
0.0
 30
0.0
210
0.0
220
0.0
230
1.0
  2
SOLID
 70
     1
 71
     0
 91
        3
 92
        7
 72
     1
 73
     1
 93
        4
 10
3363.959416025255
 20
124.8012067696769
 42
0.0
 10
3394.334416025255
 20
124.8012067696769
 42
0.0
 10
3379.450858757263
 20
184.3486733067126
 42
0.0034258272556783
 10
3378.842973293247
 20
184.3486733067126
 42
0.0
 97
        0
 92
        7
 72
     1
 73
     1
 93
        4
 10
3363.959416025255
 20
124.8012067696769
 42
0.0
 10
3348.771916025255
 20
155.1762067696769
 42
0.0
 10
3336.883737359976
 20
126.5082490082374
 42
0.0101667687972818
 10
3337.466718615678
 20
124.8012067696769
 42
0.0
 97
        0
 92
        7
 72
     1
 73
     1
 93
        4
 10
3394.334416025255
 20
124.8012067696769
 42
0.0
 10
3420.827113434832
 20
124.8012067696769
 42
0.0101667687972915
 10
3421.410094690535
 20
126.5082490082388
 42
0.0
 10
3409.521916025255
 20
155.1762067696769
 42
0.0
 97
        0
 75
     0
 76
     1
 47
0.6951189523479065
 98
        3
 10
3376.790080151126
 20
164.0178055230564
 10
3350.31428026883
 20
133.0502566563297
 10
3403.547530716594
 20
136.4285349181988
  0
HATCH
  5
322
330
17
100
AcDbEntity
  8
9図面文字
  6
Continuous
 62
     3
100
AcDbHatch
 10
0.0
 20
0.0
 30
0.0
210
0.0
220
0.0
230
1.0
  2
SOLID
 70
     1
 71
     0
 91
        2
 92
        7
 72
     1
 73
     1
 93
        2
 10
3329.520908232925
 20
139.9887067696769
 42
1.0
 10
3428.772923817587
 20
139.9887067696769
 42
1.0
 97
        0
 92
        7
 72
     1
 73
     1
 93
       11
 10
3378.842973293248
 20
184.3486733067126
 42
0.0
 10
3379.146916025255
 20
185.5647145620065
 42
0.0
 10
3379.450858757264
 20
184.3486733067126
 42
-0.412208187950293
 10
3423.507923817588
 20
139.9887067696769
 42
-0.0773445374705047
 10
3421.410094690535
 20
126.5082490082383
 42
0.0
 10
3422.117979894291
 20
124.8012067696769
 42
0.0
 10
3420.827113434832
 20
124.8012067696769
 42
-0.6999368910289298
 10
3337.466718615678
 20
124.8012067696769
 42
0.0
 10
3336.175852156221
 20
124.8012067696769
 42
0.0
 10
3336.883737359976
 20
126.5082490082392
 42
-0.0773445374704989
 10
3334.785908232925
 20
139.9887067696769
 42
-0.4122081879502925
 97
        0
 75
     0
 76
     1
 47
0.6951189523479065
 98
        2
 10
3377.635049380753
 20
184.8505308065897
 10
3377.635049380753
 20
184.8505308065897
  0
TEXT
  5
323
330
17
100
AcDbEntity
  8
9図面文字
 62
     2
100
AcDbText
 10
3438.047638989523
 20
141.5758928349453
 30
0.0
 40
28.35000000000002
  1
株式
  7
STYLE1
 72
     1
 11
3479.284002625886
 21
155.7508928349453
 31
0.0
100
AcDbText
 73
     2
  0
TEXT
  5
324
330
17
100
AcDbEntity
  8
9図面文字
 62
     2
100
AcDbText
 10
3438.047638989523
 20
101.7610137799827
 30
0.0
 40
28.35000000000002
  1
会社
  7
STYLE1
 72
     1
 11
3479.284002625886
 21
115.9360137799827
 31
0.0
100
AcDbText
 73
     2
  0
TEXT
  5
509
330
17
100
AcDbEntity
  8
TEXT_0
  6
Continuous
 62
     7
100
AcDbText
 10
189.451659168195
 20
239.3467022468497
 30
0.0
 40
30.0
  1
・鋼材の接合は指示無き場合、全て溶接止めとする。
  7
STYLE1
100
AcDbText
  0
LINE
  5
59B
330
17
100
AcDbEntity
  8
0
  6
Continuous
 62
     7
100
AcDbLine
 10
2892.158718767779
 20
1969.638507507626
 30
0.0
 11
2923.466195983844
 21
1944.60219609675
 31
0.0
  0
LINE
  5
5A1
330
17
100
AcDbEntity
  8
0
  6
Continuous
 62
     7
100
AcDbLine
 10
2892.158718767779
 20
1969.638507507626
 30
0.0
 11
2892.158718767779
 21
1957.120351802188
 31
0.0
  0
LINE
  5
5A2
330
17
100
AcDbEntity
  8
0
  6
Continuous
 62
     7
100
AcDbLine
 10
2892.158718767779
 20
1957.120351802188
 30
0.0
 11
2727.74813045856
 21
1957.120351802188
 31
0.0
  0
LINE
  5
5A3
330
17
100
AcDbEntity
  8
0
  6
Continuous
 62
     7
100
AcDbLine
 10
2923.466195983844
 20
1944.60219609675
 30
0.0
 11
2923.466195983844
 21
1957.120351802188
 31
0.0
  0
LINE
  5
5A4
330
17
100
AcDbEntity
  8
0
  6
Continuous
 62
     7
100
AcDbLine
 10
2923.466195983844
 20
1957.120351802188
 30
0.0
 11
3080.807157078111
 21
1957.120351802188
 31
0.0
  0
LINE
  5
5AF
330
17
100
AcDbEntity
  8
0
  6
Continuous
 62
     7
100
AcDbLine
 10
2926.954254744423
 20
1948.121799510669
 30
0.0
 11
3080.807157078111
 21
1948.121799510669
 31
0.0
  0
LINE
  5
5B0
330
17
100
AcDbEntity
  8
0
  6
Continuous
 62
     7
100
AcDbLine
 10
2926.954254744423
 20
1935.60364380523
 30
0.0
 11
2926.954254744423
 21
1948.121799510669
 31
0.0
  0
LINE
  5
5B1
330
17
100
AcDbEntity
  8
0
  6
Continuous
 62
     7
100
AcDbLine
 10
2895.646777528358
 20
1948.121799510669
 30
0.0
 11
2727.74813045856
 21
1948.121799510669
 31
0.0
  0
LINE
  5
5B2
330
17
100
AcDbEntity
  8
0
  6
Continuous
 62
     7
100
AcDbLine
 10
2895.646777528358
 20
1960.639955216107
 30
0.0
 11
2895.646777528358
 21
1948.121799510669
 31
0.0
  0
LINE
  5
5B3
330
17
100
AcDbEntity
  8
0
  6
Continuous
 62
     7
100
AcDbLine
 10
2895.646777528358
 20
1960.639955216107
 30
0.0
 11
2926.954254744423
 21
1935.60364380523
 31
0.0
  0
LINE
  5
5B7
330
17
100
AcDbEntity
  8
0
  6
Continuous
 62
     7
100
AcDbLine
 10
2806.006361288882
 20
1957.120351802188
 30
0.0
 11
2806.006361288882
 21
2513.342208482202
 31
0.0
  0
LINE
  5
5B8
330
17
100
AcDbEntity
  8
0
  6
Continuous
 62
     7
100
AcDbLine
 10
2822.006361288882
 20
1957.120351802188
 30
0.0
 11
2822.006361288882
 21
2513.342208482201
 31
0.0
  0
LINE
  5
5B9
330
17
100
AcDbEntity
  8
0
  6
Continuous
 62
     7
100
AcDbLine
 10
2852.006361288882
 20
1957.120351802188
 30
0.0
 11
2852.006361288882
 21
2513.342208482201
 31
0.0
  0
LINE
  5
5BA
330
17
100
AcDbEntity
  8
0
  6
Continuous
 62
     7
100
AcDbLine
 10
2868.006361288882
 20
1957.120351802188
 30
0.0
 11
2868.006361288882
 21
2513.342208482201
 31
0.0
  0
LINE
  5
5BB
330
17
100
AcDbEntity
  8
0
  6
Continuous
 62
     7
100
AcDbLine
 10
2944.006361288882
 20
1957.120351802188
 30
0.0
 11
2944.006361288882
 21
2513.342208482201
 31
0.0
  0
LINE
  5
5BC
330
17
100
AcDbEntity
  8
0
  6
Continuous
 62
     7
100
AcDbLine
 10
2960.006361288882
 20
1957.120351802188
 30
0.0
 11
2960.006361288882
 21
2513.342208482201
 31
0.0
  0
LINE
  5
5BD
330
17
100
AcDbEntity
  8
0
  6
Continuous
 62
     7
100
AcDbLine
 10
2990.006361288882
 20
1957.120351802188
 30
0.0
 11
2990.006361288881
 21
2513.342208482201
 31
0.0
  0
LINE
  5
5BE
330
17
100
AcDbEntity
  8
0
  6
Continuous
 62
     7
100
AcDbLine
 10
3006.006361288882
 20
1957.120351802188
 30
0.0
 11
3006.006361288882
 21
2513.342208482202
 31
0.0
  0
DIMENSION
  5
77D
330
17
100
AcDbEntity
  8
0
  6
DIMENSION
 62
     7
100
AcDbDimension
  2
*D1
 10
1562.899489437388
 20
2228.954466664501
 30
0.0
 11
1312.899489437388
 21
2239.854466664501
 31
0.0
 70
    32
  1
φ<>
 71
     5
 42
500.0
  3
ASKSTANDARD
100
AcDbAlignedDimension
 13
1062.899489437388
 23
1878.9544666645
 33
0.0
 14
1562.899489437388
 24
1878.9544666645
 34
0.0
100
AcDbRotatedDimension
1001
ACAD
1000
DSTYLE
1002
{
1070
     3
1000
<>
1070
    40
1040
10.0
1070
    41
1040
2.0
1070
    43
1040
0.0
1070
    46
1040
2.0
1070
    77
1070
     3
1070
   147
1040
0.09
1070
   174
1070
     0
1070
   271
1070
     2
1070
   272
1070
     2
1070
   279
1070
     2
1070
   289
1070
     3
1070
   344
1005
1C
1002
}
  0
DIMENSION
  5
79B
330
17
100
AcDbEntity
  8
0
  6
DIMENSION
 62
     7
100
AcDbDimension
  2
*D2
 10
1399.502017322187
 20
1928.954488304124
 30
0.0
 11
1307.449487078673
 21
1888.394142203935
 31
0.0
 70
    33
  1
φ<>
 71
     5
 42
199.9999999999998
  3
ASKSTANDARD
100
AcDbAlignedDimension
 13
1226.296961552595
 23
1828.95444502487
 33
0.0
 14
1399.502017322182
 24
1928.954488304132
 34
0.0
1001
ACAD
1000
DSTYLE
1002
{
1070
     3
1000
<>
1070
    40
1040
10.0
1070
    41
1040
2.0
1070
    43
1040
0.0
1070
    46
1040
2.0
1070
    77
1070
     3
1070
   147
1040
0.09
1070
   174
1070
     0
1070
   271
1070
     2
1070
   272
1070
     2
1070
   279
1070
     2
1070
   289
1070
     3
1070
   344
1005
1C
1002
}
  0
LINE
  5
7E9
330
17
100
AcDbEntity
  8
0
  6
Continuous
 62
     7
100
AcDbLine
 10
1181.036181496731
 20
2091.350464327534
 30
0.0
 11
1194.890805800887
 21
2099.349454326154
 31
0.0
  0
LINE
  5
7EA
330
17
100
AcDbEntity
  8
0
  6
Continuous
 62
     7
100
AcDbLine
 10
1430.907269814718
 20
2099.349937966467
 30
0.0
 11
1444.762805800887
 21
2091.350478391696
 31
0.0
  0
LINE
  5
7EB
330
17
100
AcDbEntity
  8
0
  6
Continuous
 62
     7
100
AcDbLine
 10
1562.7714566526
 20
1886.9544666645
 30
0.0
 11
1562.771489437388
 21
1870.955490730045
 31
0.0
  0
LINE
  5
7EC
330
17
100
AcDbEntity
  8
0
  6
Continuous
 62
     7
100
AcDbLine
 10
1430.908173073889
 20
1658.559479002848
 30
0.0
 11
1444.827692667664
 21
1666.448115718392
 31
0.0
  0
LINE
  5
7ED
330
17
100
AcDbEntity
  8
0
  6
Continuous
 62
     7
100
AcDbLine
 10
1194.891709060058
 20
1658.558995362534
 30
0.0
 11
1181.036173073889
 21
1666.558454937303
 31
0.0
  0
LINE
  5
7EE
330
17
100
AcDbEntity
  8
0
  6
Continuous
 62
     7
100
AcDbLine
 10
1063.027522222176
 20
1870.954466664501
 30
0.0
 11
1063.027489437388
 21
1886.953442598956
 31
0.0
  0
DIMENSION
  5
8D0
330
17
100
AcDbEntity
  8
0
  6
DIMENSION
 62
     7
100
AcDbDimension
  2
*D3
 10
2556.006361288882
 20
2521.342208482201
 30
0.0
 11
2545.106361288881
 21
2621.342208482201
 31
0.0
 70
    32
  1
<>
 71
     5
 42
199.9999999999991
  3
ASKSTANDARD
100
AcDbAlignedDimension
 13
2656.006361288882
 23
2721.3422084822
 33
0.0
 14
2788.006361288881
 24
2521.342208482201
 34
0.0
 50
90.0
100
AcDbRotatedDimension
1001
ACAD
1000
DSTYLE
1002
{
1070
     3
1000
<>
1070
    40
1040
10.0
1070
    41
1040
2.0
1070
    43
1040
0.0
1070
    46
1040
2.0
1070
    77
1070
     3
1070
   147
1040
0.09
1070
   174
1070
     0
1070
   271
1070
     2
1070
   272
1070
     2
1070
   279
1070
     2
1070
   289
1070
     3
1070
   344
1005
1C
1002
}
  0
DIMENSION
  5
8E7
330
17
100
AcDbEntity
  8
0
  6
DIMENSION
 62
     7
100
AcDbDimension
  2
*D4
 10
2556.006361288882
 20
1395.166264367579
 30
0.0
 11
2545.106361288882
 21
1958.25423642489
 31
0.0
 70
    32
  1
1600
 71
     5
 42
1126.175944114622
  3
ASKSTANDARD
100
AcDbAlignedDimension
 13
2788.006361288881
 23
2521.342208482201
 33
0.0
 14
2788.006361288881
 24
1395.166264367579
 34
0.0
 50
90.0
100
AcDbRotatedDimension
1001
ACAD
1000
DSTYLE
1002
{
1070
     3
1000
<>
1070
    40
1040
10.0
1070
    41
1040
2.0
1070
    43
1040
0.0
1070
    46
1040
2.0
1070
    77
1070
     3
1070
   147
1040
0.09
1070
   174
1070
     0
1070
   271
1070
     2
1070
   272
1070
     2
1070
   279
1070
     2
1070
   289
1070
     3
1070
   344
1005
1C
1002
}
  0
DIMENSION
  5
8FE
330
17
100
AcDbEntity
  8
0
  6
DIMENSION
 62
     7
100
AcDbDimension
  2
*D5
 10
2556.006361288881
 20
1195.166264367579
 30
0.0
 11
2545.106361288881
 21
1295.166264367579
 31
0.0
 70
    32
  1
<>
 71
     5
 42
200.0000000000002
  3
ASKSTANDARD
100
AcDbAlignedDimension
 13
2790.006361288881
 23
1395.166264367579
 33
0.0
 14
2756.006361288882
 24
1195.166264367579
 34
0.0
 50
90.0
100
AcDbRotatedDimension
1001
ACAD
1000
DSTYLE
1002
{
1070
     3
1000
<>
1070
    40
1040
10.0
1070
    41
1040
2.0
1070
    43
1040
0.0
1070
    46
1040
2.0
1070
    77
1070
     3
1070
   147
1040
0.09
1070
   174
1070
     0
1070
   271
1070
     2
1070
   272
1070
     2
1070
   279
1070
     2
1070
   289
1070
     3
1070
   344
1005
1C
1002
}
  0
DIMENSION
  5
92C
330
17
100
AcDbEntity
  8
0
  6
DIMENSION
 62
     7
100
AcDbDimension
  2
*D6
 10
2476.006361288881
 20
1195.166264367579
 30
0.0
 11
2465.106361288881
 21
1958.25423642489
 31
0.0
 70
    32
  1
2000
 71
     5
 42
1526.175944114621
  3
ASKSTANDARD
100
AcDbAlignedDimension
 13
2646.006361288882
 23
2721.3422084822
 33
0.0
 14
2656.928847442728
 24
1195.166264367579
 34
0.0
 50
90.0
100
AcDbRotatedDimension
1001
ACAD
1000
DSTYLE
1002
{
1070
     3
1000
<>
1070
    40
1040
10.0
1070
    41
1040
2.0
1070
    43
1040
0.0
1070
    46
1040
2.0
1070
    77
1070
     3
1070
   147
1040
0.09
1070
   174
1070
     0
1070
   271
1070
     2
1070
   272
1070
     2
1070
   279
1070
     2
1070
   289
1070
     3
1070
   344
1005
1C
1002
}
  0
DIMENSION
  5
94F
330
17
100
AcDbEntity
  8
0
  6
DIMENSION
 62
     7
100
AcDbDimension
  2
*D7
 10
2556.467604365805
 20
995.1662643675791
 30
0.0
 11
2545.567604365805
 21
1095.166264367579
 31
0.0
 70
    32
  1
<>
 71
     5
 42
200.0
  3
ASKSTANDARD
100
AcDbAlignedDimension
 13
2746.006361288882
 23
1195.166264367579
 33
0.0
 14
2756.006361288882
 24
995.1662643675791
 34
0.0
 50
90.0
100
AcDbRotatedDimension
1001
ACAD
1000
DSTYLE
1002
{
1070
     3
1000
<>
1070
    40
1040
10.0
1070
    41
1040
2.0
1070
    43
1040
0.0
1070
    46
1040
2.0
1070
    77
1070
     3
1070
   147
1040
0.09
1070
   174
1070
     0
1070
   271
1070
     2
1070
   272
1070
     2
1070
   279
1070
     2
1070
   289
1070
     3
1070
   344
1005
1C
1002
}
  0
DIMENSION
  5
966
330
17
100
AcDbEntity
  8
0
  6
DIMENSION
 62
     7
100
AcDbDimension
  2
*D8
 10
2556.467604365805
 20
795.1662643675795
 30
0.0
 11
2545.567604365805
 21
895.1662643675796
 31
0.0
 70
    32
  1
<>
 71
     5
 42
199.9999999999995
  3
ASKSTANDARD
100
AcDbAlignedDimension
 13
2746.006361288882
 23
995.1662643675791
 33
0.0
 14
2706.006361288882
 24
795.1662643675795
 34
0.0
 50
90.0
100
AcDbRotatedDimension
1001
ACAD
1000
DSTYLE
1002
{
1070
     3
1000
<>
1070
    40
1040
10.0
1070
    41
1040
2.0
1070
    43
1040
0.0
1070
    46
1040
2.0
1070
    77
1070
     3
1070
   147
1040
0.09
1070
   174
1070
     0
1070
   271
1070
     2
1070
   272
1070
     2
1070
   279
1070
     2
1070
   289
1070
     3
1070
   344
1005
1C
1002
}
  0
DIMENSION
  5
97D
330
17
100
AcDbEntity
  8
0
  6
DIMENSION
 62
     7
100
AcDbDimension
  2
*D9
 10
2476.006361288882
 20
695.1662643675795
 30
0.0
 11
2465.106361288882
 21
745.1662643675799
 31
0.0
 70
    32
  1
<>
 71
     5
 42
100.0
  3
ASKSTANDARD
100
AcDbAlignedDimension
 13
2696.006361288882
 23
795.1662643675795
 33
0.0
 14
2706.006361288882
 24
695.1662643675795
 34
0.0
 50
90.0
100
AcDbRotatedDimension
1001
ACAD
1000
DSTYLE
1002
{
1070
     3
1000
<>
1070
    40
1040
10.0
1070
    41
1040
2.0
1070
    43
1040
0.0
1070
    46
1040
2.0
1070
    77
1070
     3
1070
   147
1040
0.09
1070
   174
1070
     0
1070
   271
1070
     2
1070
   272
1070
     2
1070
   279
1070
     2
1070
   289
1070
     3
1070
   344
1005
1C
1002
}
  0
DIMENSION
  5
994
330
17
100
AcDbEntity
  8
0
  6
DIMENSION
 62
     7
100
AcDbDimension
  2
*D10
 10
2476.006361288882
 20
1195.166264367579
 30
0.0
 11
2465.106361288882
 21
995.1662643675796
 31
0.0
 70
    32
  1
<>
 71
     5
 42
399.9999999999995
  3
ASKSTANDARD
100
AcDbAlignedDimension
 13
2621.236982827343
 23
795.1662643675795
 33
0.0
 14
2641.236982827343
 24
1195.166264367579
 34
0.0
 50
90.0
100
AcDbRotatedDimension
1001
ACAD
1000
DSTYLE
1002
{
1070
     3
1000
<>
1070
    40
1040
10.0
1070
    41
1040
2.0
1070
    43
1040
0.0
1070
    46
1040
2.0
1070
    77
1070
     3
1070
   147
1040
0.09
1070
   174
1070
     0
1070
   271
1070
     2
1070
   272
1070
     2
1070
   279
1070
     2
1070
   289
1070
     3
1070
   344
1005
1C
1002
}
  0
DIMENSION
  5
9B2
330
17
100
AcDbEntity
  8
0
  6
DIMENSION
 62
     7
100
AcDbDimension
  2
*D11
 10
3056.006361288882
 20
613.1132087553153
 30
0.0
 11
2906.006361288882
 21
624.0132087553153
 31
0.0
 70
    32
  1
φ<>
 71
     5
 42
300.0
  3
ASKSTANDARD
100
AcDbAlignedDimension
 13
2756.006361288882
 23
695.1662643675791
 33
0.0
 14
3056.006361288882
 24
695.1662643675791
 34
0.0
100
AcDbRotatedDimension
1001
ACAD
1000
DSTYLE
1002
{
1070
     3
1000
<>
1070
    40
1040
10.0
1070
    41
1040
2.0
1070
    43
1040
0.0
1070
    46
1040
2.0
1070
    77
1070
     3
1070
   147
1040
0.09
1070
   174
1070
     0
1070
   271
1070
     2
1070
   272
1070
     2
1070
   279
1070
     2
1070
   289
1070
     3
1070
   344
1005
1C
1002
}
  0
DIMENSION
  5
9C9
330
17
100
AcDbEntity
  8
0
  6
DIMENSION
 62
     7
100
AcDbDimension
  2
*D12
 10
3106.006361288882
 20
552.2686114818554
 30
0.0
 11
2906.006361288882
 21
563.1686114818554
 31
0.0
 70
    32
  1
φ<>
 71
     5
 42
400.0
  3
ASKSTANDARD
100
AcDbAlignedDimension
 13
2706.006361288882
 23
695.1662643675791
 33
0.0
 14
3106.006361288882
 24
695.1662643675791
 34
0.0
100
AcDbRotatedDimension
1001
ACAD
1000
DSTYLE
1002
{
1070
     3
1000
<>
1070
    40
1040
10.0
1070
    41
1040
2.0
1070
    43
1040
0.0
1070
    46
1040
2.0
1070
    77
1070
     3
1070
   147
1040
0.09
1070
   174
1070
     0
1070
   271
1070
     2
1070
   272
1070
     2
1070
   279
1070
     2
1070
   289
1070
     3
1070
   344
1005
1C
1002
}
  0
LEADER
  5
9FF
330
17
100
AcDbEntity
  8
0
  6
DIMENSION
 62
     7
100
AcDbLeader
  3
ASKSTANDARD
 76
     3
 10
3071.71593450796
 20
743.1356672765294
 30
0.0
 10
3188.015438591629
 20
863.617710315096
 30
0.0
 10
3537.348771924963
 20
863.617710315096
 30
0.0
1001
ACAD
1000
DSTYLE
1002
{
1070
    41
1040
2.0
1070
    40
1040
10.0
1070
   176
1070
     3
1070
   341
1005
0
1002
}
  0
MTEXT
  5
A00
330
17
100
AcDbEntity
  8
0
  6
DIMENSION
 62
     3
100
AcDbMText
 10
3195.015438591629
 20
864.5177103150961
 30
0.0
 40
20.0
 41
0.0
 71
     7
 72
     5
  1
クラッシャーラン(C-40)基礎
  7
STD
 73
     1
 44
1.0
  0
LEADER
  5
A06
330
17
100
AcDbEntity
  8
0
  6
DIMENSION
 62
     7
100
AcDbLeader
  3
ASKSTANDARD
 76
     3
 10
3034.075981578151
 20
909.3474317255395
 30
0.0
 10
3158.506278614257
 20
1037.875770873932
 30
0.0
 10
3304.506278614257
 20
1037.875770873932
 30
0.0
1001
ACAD
1000
DSTYLE
1002
{
1070
    41
1040
2.0
1070
    40
1040
10.0
1070
   176
1070
     3
1070
   341
1005
0
1002
}
  0
MTEXT
  5
A07
330
17
100
AcDbEntity
  8
0
  6
DIMENSION
 62
     3
100
AcDbMText
 10
3165.506278614257
 20
1038.775770873933
 30
0.0
 40
20.0
 41
0.0
 71
     7
 72
     5
  1
コンクリート
  7
STD
 73
     1
 44
1.0
  0
LINE
  5
A0E
330
17
100
AcDbEntity
  8
0
  6
Continuous
 62
     7
100
AcDbLine
 10
2806.006361288881
 20
1195.166264367579
 30
0.0
 11
2406.006361288882
 21
1195.166264367579
 31
0.0
  0
LINE
  5
A11
330
17
100
AcDbEntity
  8
0
  6
Continuous
 62
     7
100
AcDbLine
 10
3006.006361288883
 20
1195.166264367579
 30
0.0
 11
3406.006361288882
 21
1195.166264367579
 31
0.0
  0
DIMENSION
  5
A18
330
17
100
AcDbEntity
  8
0
  6
DIMENSION
 62
     7
100
AcDbDimension
  2
*D13
 10
3006.006361288883
 20
1658.620105195291
 30
0.0
 11
2906.006361288882
 21
1669.520105195291
 31
0.0
 70
    32
  1
φ<>
 71
     5
 42
200.0000000000018
  3
ASKSTANDARD
100
AcDbAlignedDimension
 13
2806.006361288881
 23
1658.620105195291
 33
0.0
 14
3006.006361288883
 24
1658.620105195291
 34
0.0
100
AcDbRotatedDimension
1001
ACAD
1000
DSTYLE
1002
{
1070
     3
1000
<>
1070
    40
1040
10.0
1070
    41
1040
2.0
1070
    43
1040
0.0
1070
    46
1040
2.0
1070
    77
1070
     3
1070
   147
1040
0.09
1070
   174
1070
     0
1070
   271
1070
     2
1070
   272
1070
     2
1070
   279
1070
     2
1070
   289
1070
     3
1070
   344
1005
1C
1002
}
  0
LEADER
  5
A30
330
17
100
AcDbEntity
  8
0
  6
DIMENSION
 62
     7
100
AcDbLeader
  3
ASKSTANDARD
 76
     3
 10
2999.184738788971
 20
2125.747258937227
 30
0.0
 10
3135.191318245447
 20
2229.441026652785
 30
0.0
 10
3271.857984912113
 20
2229.441026652785
 30
0.0
1001
ACAD
1000
DSTYLE
1002
{
1070
    41
1040
2.0
1070
    40
1040
10.0
1070
   176
1070
     3
1070
   341
1005
0
1002
}
  0
MTEXT
  5
A31
330
17
100
AcDbEntity
  8
0
  6
DIMENSION
 62
     3
100
AcDbMText
 10
3142.191318245447
 20
2230.341026652785
 30
0.0
 40
20.0
 41
0.0
 71
     7
 72
     5
  1
丸棒　φ16
  7
STD
 73
     1
 44
1.0
  0
LEADER
  5
A38
330
17
100
AcDbEntity
  8
0
  6
DIMENSION
 62
     7
100
AcDbLeader
  3
ASKSTANDARD
 76
     3
 10
3004.174423723114
 20
2523.311829728237
 30
0.0
 10
3116.101076843582
 20
2399.65120138455
 30
0.0
 10
3388.767743510249
 20
2399.65120138455
 30
0.0
1001
ACAD
1000
DSTYLE
1002
{
1070
    41
1040
2.0
1070
    40
1040
10.0
1070
   176
1070
     3
1070
   341
1005
0
1002
}
  0
MTEXT
  5
A3A
330
17
100
AcDbEntity
  8
0
  6
DIMENSION
 62
     3
100
AcDbMText
 10
3123.101076843582
 20
2372.65120138455
 30
0.0
 40
20.0
 41
0.0
 71
     7
 72
     5
  1
リング加工　内径φ200
  7
STD
 73
     1
 44
1.0
  0
INSERT
  5
B8B
330
17
100
AcDbEntity
  8
0
  6
Continuous
 62
     7
100
AcDbBlockReference
  2
サイン１（１／１０）
 10
1981.002261313723
 20
74.25
 30
0.0
  0
TEXT
  5
BAF
330
17
100
AcDbEntity
  8
TEXT_0
  6
Continuous
 62
     7
100
AcDbText
 10
193.4567955675327
 20
82.74560911453523
 30
0.0
 40
28.0
  1
・本製品は、(一社)日本公園施設業協会(ＪＰＦＡ)が定める賠償責任保険加入製品とする。
  7
STYLE1
100
AcDbText
  0
HATCH
  5
BCA
330
17
100
AcDbEntity
  8
0
  6
Continuous
 62
     3
100
AcDbHatch
 10
0.0
 20
0.0
 30
0.0
210
0.0
220
0.0
230
1.0
  2
BRICK
 70
     0
 71
     0
 91
        1
 92
        7
 72
     0
 73
     1
 93
        4
 10
3106.006361288882
 20
795.1662643675792
 10
2706.006361288883
 20
795.1662643675791
 10
2706.006361288882
 20
695.1662643675792
 10
3106.006361288883
 20
695.1662643675792
 97
        0
 75
     0
 76
     1
 52
45.0
 41
200.0
 77
     0
 78
     3
 53
45.0
 43
2706.006361288882
 44
695.1662643675792
 45
-35.35533905932737
 46
35.35533905932738
 79
     0
 53
135.0
 43
2706.006361288882
 44
695.1662643675792
 45
-70.71067811865476
 46
-70.71067811865474
 79
     2
 49
50.0
 49
-50.0
 53
135.0
 43
2741.361700348209
 44
730.5216034269065
 45
-70.71067811865476
 46
-70.71067811865474
 79
     2
 49
-50.0
 49
50.0
 47
3.363533408833522
 98
        1
 10
2921.060892921967
 20
718.1143804737094
1001
ACAD
1010
2706.006361288882
1020
695.1662643675792
1030
0.0
  0
HATCH
  5
C0C
330
17
100
AcDbEntity
  8
0
  6
Continuous
 62
     3
100
AcDbHatch
 10
0.0
 20
0.0
 30
0.0
210
0.0
220
0.0
230
1.0
  2
PLAST
 70
     0
 71
     0
 91
        8
 92
        7
 72
     1
 73
     1
 93
        8
 10
2806.006361288882
 20
1195.166264367579
 42
0.0
 10
2756.006361288883
 20
1195.166264367579
 42
0.0
 10
2756.006361288882
 20
795.1662643675792
 42
0.0
 10
2806.006361288882
 20
795.1662643675792
 42
0.0
 10
2806.006361288881
 20
987.166264367579
 42
0.0
 10
2798.006361288881
 20
987.1662643675791
 42
-1.0
 10
2798.006361288881
 20
1003.166264367579
 42
0.0
 10
2806.006361288881
 20
1003.166264367579
 42
0.0
 97
        0
 92
        7
 72
     0
 73
     1
 93
        4
 10
2852.006361288882
 20
1195.166264367579
 10
2822.006361288882
 20
1195.166264367579
 10
2822.006361288882
 20
1003.166264367579
 10
2852.006361288881
 20
1003.166264367579
 97
        0
 92
        7
 72
     0
 73
     1
 93
        5
 10
2944.006361288882
 20
1195.166264367579
 10
2868.006361288882
 20
1195.166264367579
 10
2868.006361288881
 20
1003.166264367579
 10
2906.006361288882
 20
1003.166264367579
 10
2944.006361288883
 20
1003.166264367579
 97
        0
 92
        7
 72
     0
 73
     1
 93
        4
 10
2852.006361288881
 20
987.166264367579
 10
2822.006361288882
 20
987.1662643675791
 10
2822.006361288883
 20
795.1662643675792
 10
2852.006361288882
 20
795.1662643675792
 97
        0
 92
        7
 72
     0
 73
     1
 93
        5
 10
2944.006361288883
 20
987.1662643675788
 10
2906.006361288882
 20
987.1662643675786
 10
2868.006361288881
 20
987.1662643675788
 10
2868.006361288881
 20
795.1662643675791
 10
2944.006361288883
 20
795.1662643675791
 97
        0
 92
        7
 72
     0
 73
     1
 93
        4
 10
2990.006361288883
 20
1195.166264367579
 10
2960.006361288883
 20
1195.166264367579
 10
2960.006361288883
 20
1003.166264367579
 10
2990.006361288883
 20
1003.166264367579
 97
        0
 92
        7
 72
     0
 73
     1
 93
        4
 10
2990.006361288883
 20
987.166264367579
 10
2960.006361288883
 20
987.1662643675791
 10
2960.006361288883
 20
795.1662643675792
 10
2990.006361288883
 20
795.1662643675791
 97
        0
 92
        7
 72
     1
 73
     1
 93
        8
 10
3056.006361288882
 20
1195.166264367579
 42
0.0
 10
3006.006361288883
 20
1195.166264367579
 42
0.0
 10
3006.006361288883
 20
1003.166264367579
 42
0.0
 10
3014.006361288883
 20
1003.166264367579
 42
-1.0
 10
3014.006361288883
 20
987.1662643675791
 42
0.0
 10
3006.006361288883
 20
987.166264367579
 42
0.0
 10
3006.006361288883
 20
795.1662643675791
 42
0.0
 10
3056.006361288883
 20
795.1662643675791
 42
0.0
 97
        0
 75
     0
 76
     1
 52
45.0
 41
500.0
 77
     0
 78
     3
 53
45.0
 43
2756.006361288882
 44
795.1662643675791
 45
-88.38834764831843
 46
88.38834764831844
 79
     0
 53
45.0
 43
2744.957817832842
 44
806.2148078236189
 45
-88.38834764831843
 46
88.38834764831844
 79
     0
 53
45.0
 43
2733.909274376802
 44
817.2633512796587
 45
-88.38834764831843
 46
88.38834764831844
 79
     0
 47
1.157058759607269
 98
        8
 10
2803.285764525381
 20
1078.012459091243
 10
2833.570790604928
 20
1121.738387568469
 10
2890.775854064255
 20
1128.465454091768
 10
2847.030809294818
 20
963.6523203467423
 10
2877.315835374366
 20
963.6523203467423
 10
2972.985252687324
 20
1043.543686410439
 10
2984.560888439
 20
953.2931042543414
 10
3040.123996270964
 20
956.7642747557265
1001
ACAD
1010
2756.006361288882
1020
795.1662643675791
1030
0.0
  0
TEXT
  5
D48
330
17
100
AcDbEntity
  8
3
  6
Continuous
 62
     7
100
AcDbText
 10
191.2568223025592
 20
190.5813373508365
 30
0.0
 40
30.0
  1
・基礎図は参考図とする。
  7
STYLE1
100
AcDbText
  0
TEXT
  5
D9B
330
17
100
AcDbEntity
  8
3
  6
Continuous
 62
     7
100
AcDbText
 10
194.6903382038131
 20
291.0018361524018
 30
0.0
 40
29.997
  1
・鋼材は亜鉛メッキ（電気又は溶融）とし、環境対応型焼付塗装仕上げとする。
  7
STYLE1
100
AcDbText
  0
ENDSEC
  0
SECTION
  2
OBJECTS
  0
DICTIONARY
  5
C
330
0
100
AcDbDictionary
281
     1
  3
ACAD_GROUP
350
D
  3
ACAD_LAYOUT
350
269
  3
ACAD_MLINESTYLE
350
1A
  3
ACAD_PLOTSETTINGS
350
26A
  3
ACAD_PLOTSTYLENAME
350
267
  3
ACAD_SCALELIST
350
C64
  3
AcAmCatalogState
350
B5C
  3
AcAsAppObject
350
AEB
  3
ACASGREF_MASTER
350
B22
  3
ACDBVARIABLEDICTIONARY
350
249
  3
ACDMSYSVARMGR
350
AC5
  3
ACGREF_MASTER
350
ABF
  3
ACGREFACAD_MASTER
350
AE8
  3
AcmDictionary
350
B52
  3
ACME_BOM_MANAGER_NAME
350
AB8
  3
ACME_COMMAND_HISTORY
350
AB2
  3
ACME_SCOPE_NAME
350
AB1
  3
ACMESTATEMGR
350
ABD
  3
AcmeSysVarManager
350
AB4
  3
AD_APPL
350
B38
  3
AD_GREF_MODULE
350
B20
  3
AD_HOLENOTE_REPOSITORY
350
B3A
  3
AD_MAPI_MODULE
350
B51
  3
ADSYSVARMGR
350
B2A
  3
AEC_PROPERTY_SET_DEFS
350
C91
  3
AmdtNamedDwgMgr
350
AE3
  3
AMG
350
AA7
  3
AMGSNAPSETTINGS
350
B6C
  3
AMI_MASTER
350
B21
  3
APPDATA
350
DE3
  3
ASKSYSVAR
350
63D
  3
ASURF_STATIC_VARS
350
AEC
  3
AUTOCAD_ASSEMBLIES_PROJECT
350
B46
  3
AutoSurf_SysVars
350
AED
  3
Designer_Assemblies_SysVars
350
B3D
  3
DWGPROPS
350
DE4
  3
GREFAM_MODULE
350
B23
  0
DICTIONARY
  5
BA6
330
2
100
AcDbDictionary
280
     1
281
     1
  3
ACAD_LAYERSTATES
360
BA7
  0
DICTIONARY
  5
CE2
330
E
100
AcDbDictionary
280
     1
281
     1
  3
ADSK_XREC_LAYER_RECONCILED
360
CE3
  0
DICTIONARY
  5
CE4
330
37
100
AcDbDictionary
280
     1
281
     1
  3
ADSK_XREC_LAYER_RECONCILED
360
CE5
  0
DICTIONARY
  5
CE6
330
38
100
AcDbDictionary
280
     1
281
     1
  3
ADSK_XREC_LAYER_RECONCILED
360
CE7
  0
DICTIONARY
  5
CE8
330
3A
100
AcDbDictionary
280
     1
281
     1
  3
ADSK_XREC_LAYER_RECONCILED
360
CE9
  0
DICTIONARY
  5
CEA
330
3B
100
AcDbDictionary
280
     1
281
     1
  3
ADSK_XREC_LAYER_RECONCILED
360
CEB
  0
DICTIONARY
  5
CEC
330
24C
100
AcDbDictionary
280
     1
281
     1
  3
ADSK_XREC_LAYER_RECONCILED
360
CED
  0
DICTIONARY
  5
CEE
330
270
100
AcDbDictionary
280
     1
281
     1
  3
ADSK_XREC_LAYER_RECONCILED
360
CEF
  0
DICTIONARY
  5
CF0
330
271
100
AcDbDictionary
280
     1
281
     1
  3
ADSK_XREC_LAYER_RECONCILED
360
CF1
  0
DICTIONARY
  5
CF2
330
272
100
AcDbDictionary
280
     1
281
     1
  3
ADSK_XREC_LAYER_RECONCILED
360
CF3
  0
DICTIONARY
  5
C89
330
C88
100
AcDbDictionary
280
     1
281
     1
  3
ADSK_XREC_LAYER_RECONCILED
360
CF4
  0
DICTIONARY
  5
B8C
330
17
100
AcDbDictionary
280
     1
281
     1
  3
ACAD_INDEX
360
B8D
  3
ACAD_SORTENTS
360
BCB
  0
DICTIONARY
  5
D
102
{ACAD_REACTORS
330
C
102
}
330
C
100
AcDbDictionary
281
     1
  0
DICTIONARY
  5
269
102
{ACAD_REACTORS
330
C
102
}
330
C
100
AcDbDictionary
281
     1
  3
Model
350
26B
  3
ﾚｲｱｳﾄ1
350
26C
  0
DICTIONARY
  5
1A
102
{ACAD_REACTORS
330
C
102
}
330
C
100
AcDbDictionary
281
     1
  3
STANDARD
350
1B
  0
DICTIONARY
  5
26A
102
{ACAD_REACTORS
330
C
102
}
330
C
100
AcDbDictionary
281
     1
  0
ACDBDICTIONARYWDFLT
  5
267
102
{ACAD_REACTORS
330
C
102
}
330
C
100
AcDbDictionary
281
     1
  3
Normal
350
268
100
AcDbDictionaryWithDefault
340
268
  0
DICTIONARY
  5
C64
102
{ACAD_REACTORS
330
C
102
}
330
C
100
AcDbDictionary
281
     1
  3
A0
350
C65
  3
A1
350
C66
  3
A2
350
C67
  3
A3
350
C68
  3
A4
350
C69
  3
A5
350
C6A
  3
A6
350
C6B
  3
A7
350
C6C
  3
A8
350
C6D
  3
A9
350
C6E
  3
B0
350
C6F
  3
B1
350
C70
  3
B2
350
C71
  3
B3
350
C72
  3
B4
350
C73
  3
B5
350
C74
  3
B6
350
C75
  0
ACAD_PROXY_OBJECT
  5
B5C
102
{ACAD_REACTORS
330
C
102
}
330
C
100
AcDbProxyObject
 90
      499
 91
      561
 95
   983063
 70
     0
 93
      520
310
3FFFFFFFE00A02844029A221D2E456DC729485DC6F647C54AABC7C0483ECB6547ABAE1819467B44C0473DC86EAE181A41B3C1C641C541AC2E4131C13B4133400AA
1001
ACAD
1000
AcRTDxfName
1000
CATALOGSTATE
1000
AcRTDxfName
1000
CATALOGSTATE
1000
AcRTDxfName
1000
CATALOGSTATE
1000
AcRTDxfName
1000
CATALOGSTATE
  0
ACAD_PROXY_OBJECT
  5
AEB
102
{ACAD_REACTORS
330
C
102
}
330
C
100
AcDbProxyObject
 90
      499
 91
      528
 95
   983063
 70
     0
 93
       10
310
4040
1001
ACAD
1000
AcRTDxfName
1000
ASAPP
1000
AcRTDxfName
1000
ASAPP
1000
AcRTDxfName
1000
ASAPP
1000
AcRTDxfName
1000
ASAPP
  0
ACAD_PROXY_OBJECT
  5
B22
102
{ACAD_REACTORS
330
C
102
}
330
C
100
AcDbProxyObject
 90
      499
 91
      536
 95
   983063
 70
     0
 93
       34
310
0100004040
1001
ACAD
1000
AcRTDxfName
1000
ACASGREFMASTER
1000
AcRTDxfName
1000
ACASGREFMASTER
1000
AcRTDxfName
1000
ACASGREFMASTER
1000
AcRTDxfName
1000
ACASGREFMASTER
  0
DICTIONARY
  5
249
102
{ACAD_REACTORS
330
C
102
}
330
C
100
AcDbDictionary
281
     1
  3
DIMASSOC
350
C30
  3
INDEXCTL
350
AB3
  3
PROJECTNAME
350
C31
  3
SORTENTS
350
24A
  0
ACAD_PROXY_OBJECT
  5
AC5
102
{ACAD_REACTORS
330
C
102
}
330
C
100
AcDbProxyObject
 90
      499
 91
      508
 95
   983063
 70
     0
 93
      240
310
4C51A4820000000000000000000000000000000000000000000000000000
330
AC6
330
AC7
330
AC8
330
AC9
330
ACA
330
ACB
330
ACC
330
ACD
330
AD1
330
AD2
330
AD3
330
AD4
330
AD5
330
AD6
330
AD7
330
AD8
330
AD9
330
ADA
330
ADB
330
ADC
330
ADD
330
ADE
330
ADF
330
AE0
330
AE1
330
AE2
 94
        0
1001
ACAD
1000
AcRTDxfName
1000
ACIMSYSVARMAN
1000
AcRTDxfName
1000
ACIMSYSVARMAN
1000
AcRTDxfName
1000
ACIMSYSVARMAN
1000
AcRTDxfName
1000
ACIMSYSVARMAN
  0
ACAD_PROXY_OBJECT
  5
ABF
102
{ACAD_REACTORS
330
C
102
}
330
C
100
AcDbProxyObject
 90
      499
 91
      525
 95
   983063
 70
     0
 93
       34
310
0400004280
1001
ACAD
1000
AcRTDxfName
1000
ACGREFMASTER
1000
AcRTDxfName
1000
ACGREFMASTER
1000
AcRTDxfName
1000
ACGREFMASTER
1000
AcRTDxfName
1000
ACGREFMASTER
  0
ACAD_PROXY_OBJECT
  5
AE8
102
{ACAD_REACTORS
330
C
102
}
330
C
100
AcDbProxyObject
 90
      499
 91
      525
 95
   983063
 70
     0
 93
      114
310
04000041C000000000000000000000
1001
ACAD
1000
AcRTDxfName
1000
ACGREFMASTER
1000
AcRTDxfName
1000
ACGREFMASTER
1000
AcRTDxfName
1000
ACGREFMASTER
1000
AcRTDxfName
1000
ACGREFMASTER
  0
DICTIONARY
  5
B52
102
{ACAD_REACTORS
330
C
102
}
330
C
100
AcDbDictionary
281
     1
  3
AcmBOMDATA
350
B53
  0
ACAD_PROXY_OBJECT
  5
AB8
102
{ACAD_REACTORS
330
C
102
}
330
C
100
AcDbProxyObject
 90
      499
 91
      511
 95
   983063
 70
     0
 93
       52
310
00000040400060
330
0
330
0
330
AB9
 94
        0
1001
ACAD
1000
AcRTDxfName
1000
ACMEDRAWINGMAN
1000
AcRTDxfName
1000
ACMEDRAWINGMAN
1000
AcRTDxfName
1000
ACMEDRAWINGMAN
1000
AcRTDxfName
1000
ACMEDRAWINGMAN
  0
ACAD_PROXY_OBJECT
  5
AB2
102
{ACAD_REACTORS
330
C
102
}
330
C
100
AcDbProxyObject
 90
      499
 91
      507
 95
   983063
 70
     0
 93
     1484
310
43C050B41534B5F537461727454628050E414D4454524553455444424D4F4440805084E202D20554E444F014213880B4815539113C0504554E444F80504554E444F80504554E444F80504554E444F80504554E444F8050A41534B5F5442334A6F62805045A4F4F4D8050B41534B5F494E5041525453404050B4E202D202D49
310
4E534552540142D054D2D7D2539410549514E01425054D2D7D454D05591601415454D05591601421054D2D7D41313D5201421054D2D7D3D41153A0
1001
ACAD
1000
AcRTDxfName
1000
ACMECOMMANDHISTORY
1000
AcRTDxfName
1000
ACMECOMMANDHISTORY
1000
AcRTDxfName
1000
ACMECOMMANDHISTORY
1000
AcRTDxfName
1000
ACMECOMMANDHISTORY
  0
ACAD_PROXY_OBJECT
  5
AB1
102
{ACAD_REACTORS
330
C
102
}
330
C
100
AcDbProxyObject
 90
      499
 91
      506
 95
   983063
 70
     0
 93
     1074
310
04000043C00000000000000000001726020000000000000000000000000000000000000000000000000000000000000000000000000000000000000000000000000000000000000000000000000000000000000000000000000000000000000000000000000000000000000000000000000000000000000000000000000000
310
00000000AAAAAA80
360
AB5
360
AB6
360
AB7
360
AB9
360
AC0
360
AC1
360
AC2
360
AC3
360
AC6
360
AC7
360
AC8
360
AC9
360
ACA
360
ACB
360
ACC
360
ACD
360
AD1
360
AD2
360
AD3
360
AD4
360
AD5
360
AD6
360
AD7
360
AD8
360
AD9
360
ADA
360
ADB
360
ADC
360
ADD
360
ADE
360
ADF
360
AE0
360
AE1
360
AE2
360
AEE
360
AEF
360
AF0
360
AF1
360
AF2
360
AF3
360
AF4
360
AF5
360
AF6
360
AF7
360
AF8
360
AF9
360
AFA
360
AFB
360
AFC
360
AFD
360
AFE
360
AFF
360
B00
360
B01
360
B02
360
B03
360
B04
360
B05
360
B06
360
B07
360
B08
360
B09
360
B0A
360
B0B
360
B0C
360
B0D
360
B0E
360
B0F
360
B10
360
B11
360
B12
360
B13
360
B14
360
B15
360
B16
360
B17
360
B18
360
B19
360
B1A
360
B1B
360
B1C
360
B26
360
B27
360
B28
360
B29
360
B2B
360
B2C
360
B2D
360
B2E
360
B2F
360
B30
360
B31
360
B32
360
B33
360
B34
360
B35
360
B36
360
B37
360
B39
360
B3B
360
B3E
360
B3F
360
B40
360
B41
360
B42
360
B43
360
B44
360
B45
360
B4A
360
B4B
360
B4C
360
B4D
360
B4E
360
B4F
 94
        0
1001
ACAD
1000
AcRTDxfName
1000
ACMESCOPE
1000
AcRTDxfName
1000
ACMESCOPE
1000
AcRTDxfName
1000
ACMESCOPE
1000
AcRTDxfName
1000
ACMESCOPE
  0
ACAD_PROXY_OBJECT
  5
ABD
102
{ACAD_REACTORS
330
C
102
}
330
C
100
AcDbProxyObject
 90
      499
 91
      516
 95
   983063
 70
     0
 93
       50
310
04000040E41280
1001
ACAD
1000
AcRTDxfName
1000
ACMESTATEMGR
1000
AcRTDxfName
1000
ACMESTATEMGR
1000
AcRTDxfName
1000
ACMESTATEMGR
1000
AcRTDxfName
1000
ACMESTATEMGR
  0
ACAD_PROXY_OBJECT
  5
AB4
102
{ACAD_REACTORS
330
C
102
}
330
C
100
AcDbProxyObject
 90
      499
 91
      508
 95
   983063
 70
     0
 93
       48
310
903422000000
330
AB5
330
AB6
330
AB7
 94
        0
1001
ACAD
1000
AcRTDxfName
1000
ACIMSYSVARMAN
1000
AcRTDxfName
1000
ACIMSYSVARMAN
1000
AcRTDxfName
1000
ACIMSYSVARMAN
1000
AcRTDxfName
1000
ACIMSYSVARMAN
  0
ACAD_PROXY_OBJECT
  5
B38
102
{ACAD_REACTORS
330
C
102
}
330
C
100
AcDbProxyObject
 90
      499
 91
      544
 95
   983063
 70
     0
 93
       42
310
000400004500
330
B26
 94
        0
1001
ACAD
1000
AcRTDxfName
1000
NAMEDAPPL
1000
AcRTDxfName
1000
NAMEDAPPL
1000
AcRTDxfName
1000
NAMEDAPPL
1000
AcRTDxfName
1000
NAMEDAPPL
  0
ACAD_PROXY_OBJECT
  5
B20
102
{ACAD_REACTORS
330
C
102
}
330
C
100
AcDbProxyObject
 90
      499
 91
      534
 95
   983063
 70
     0
 93
      114
310
000000438000000000000000000000
1001
ACAD
1000
AcRTDxfName
1000
ACADGREFMODULE
1000
AcRTDxfName
1000
ACADGREFMODULE
1000
AcRTDxfName
1000
ACADGREFMODULE
1000
AcRTDxfName
1000
ACADGREFMODULE
  0
ACAD_PROXY_OBJECT
  5
B3A
102
{ACAD_REACTORS
330
C
102
}
330
C
100
AcDbProxyObject
 90
      499
 91
      546
 95
   983063
 70
     0
 93
        8
310
00
330
B39
 94
        0
1001
ACAD
1000
AcRTDxfName
1000
AM_HNTEMPLATE_MGR_NAME
1000
AcRTDxfName
1000
AM_HNTEMPLATE_MGR_NAME
1000
AcRTDxfName
1000
AM_HNTEMPLATE_MGR_NAME
1000
AcRTDxfName
1000
AM_HNTEMPLATE_MGR_NAME
  0
ACAD_PROXY_OBJECT
  5
B51
102
{ACAD_REACTORS
330
C
102
}
330
C
100
AcDbProxyObject
 90
      499
 91
      555
 95
   983063
 70
     0
 93
       34
310
0400004440
1001
ACAD
1000
AcRTDxfName
1000
MAPIADMODULE
1000
AcRTDxfName
1000
MAPIADMODULE
1000
AcRTDxfName
1000
MAPIADMODULE
1000
AcRTDxfName
1000
MAPIADMODULE
  0
ACAD_PROXY_OBJECT
  5
B2A
102
{ACAD_REACTORS
330
C
102
}
330
C
100
AcDbProxyObject
 90
      499
 91
      508
 95
   983063
 70
     0
 93
      136
310
90E4420000000000000000000000000000
330
B2B
330
B2C
330
B2D
330
B2E
330
B2F
330
B30
330
B31
330
B32
330
B33
330
B34
330
B35
330
B36
330
B37
330
B3B
 94
        0
1001
ACAD
1000
AcRTDxfName
1000
ACIMSYSVARMAN
1000
AcRTDxfName
1000
ACIMSYSVARMAN
1000
AcRTDxfName
1000
ACIMSYSVARMAN
1000
AcRTDxfName
1000
ACIMSYSVARMAN
  0
DICTIONARY
  5
C91
102
{ACAD_REACTORS
330
C
102
}
330
C
100
AcDbDictionary
281
     1
  0
ACAD_PROXY_OBJECT
  5
AE3
102
{ACAD_REACTORS
330
C
102
}
330
C
100
AcDbProxyObject
 90
      499
 91
      522
 95
   983063
 70
     0
 93
       42
310
000100004FC0
330
AC0
 94
        0
1001
ACAD
1000
AcRTDxfName
1000
AM_DWGMGR_NAME
1000
AcRTDxfName
1000
AM_DWGMGR_NAME
1000
AcRTDxfName
1000
AM_DWGMGR_NAME
1000
AcRTDxfName
1000
AM_DWGMGR_NAME
  0
DICTIONARY
  5
AA7
102
{ACAD_REACTORS
330
C
102
}
330
C
100
AcDbDictionary
281
     1
  3
AcMgSettings
350
AA8
  3
AMGLAYCFG
350
B5E
  0
DICTIONARY
  5
B6C
102
{ACAD_REACTORS
330
C
102
}
330
C
100
AcDbDictionary
281
     1
  3
DIMENSION
350
B71
  3
FEA
350
B70
  3
HATCH (1)
350
B6D
  3
HATCH (2)
350
B6E
  3
SYMBOLS
350
B6F
  0
ACAD_PROXY_OBJECT
  5
B21
102
{ACAD_REACTORS
330
C
102
}
330
C
100
AcDbProxyObject
 90
      499
 91
      535
 95
   983063
 70
     0
 93
       34
310
0400004180
1001
ACAD
1000
AcRTDxfName
1000
AMIMASTER
1000
AcRTDxfName
1000
AMIMASTER
1000
AcRTDxfName
1000
AMIMASTER
1000
AcRTDxfName
1000
AMIMASTER
  0
DICTIONARY
  5
DE3
102
{ACAD_REACTORS
330
C
102
}
330
C
100
AcDbDictionary
281
     1
  0
DICTIONARY
  5
63D
102
{ACAD_REACTORS
330
C
102
}
330
C
100
AcDbDictionary
281
     1
  3
ASK_SUMMARY
350
C0D
  3
ASKCURSC
350
63E
  0
ACAD_PROXY_OBJECT
  5
AEC
102
{ACAD_REACTORS
330
C
102
}
330
C
100
AcDbProxyObject
 90
      499
 91
      529
 95
   983063
 70
     0
 93
      272
310
4C51E482000000000000000000000000000000000000000000000000000000000000
330
AFF
330
B00
330
B01
330
B02
330
B03
330
B04
330
B05
330
B06
330
B07
330
B08
330
B09
330
B0A
330
B0B
330
B0C
330
B0D
330
B0E
330
B0F
330
B10
330
B11
330
B12
330
B13
330
B14
330
B15
330
B16
330
B17
330
B18
330
B19
330
B1A
330
B1B
330
B1C
 94
        0
1001
ACAD
1000
AcRTDxfName
1000
IM_STATIC_MAN
1000
AcRTDxfName
1000
IM_STATIC_MAN
1000
AcRTDxfName
1000
IM_STATIC_MAN
1000
AcRTDxfName
1000
IM_STATIC_MAN
  0
ACAD_PROXY_OBJECT
  5
B46
102
{ACAD_REACTORS
330
C
102
}
330
C
100
AcDbProxyObject
 90
      499
 91
      548
 95
   983063
 70
     0
 93
       74
310
04000048400000000000
330
B4D
330
0
330
B4E
330
0
330
0
 94
        0
1001
ACAD
1000
AcRTDxfName
1000
ACAMPROJECT
1000
AcRTDxfName
1000
ACAMPROJECT
1000
AcRTDxfName
1000
ACAMPROJECT
1000
AcRTDxfName
1000
ACAMPROJECT
  0
ACAD_PROXY_OBJECT
  5
AED
102
{ACAD_REACTORS
330
C
102
}
330
C
100
AcDbProxyObject
 90
      499
 91
      508
 95
   983063
 70
     0
 93
      168
310
4C5114820000000000000000000000000000000000
330
AEE
330
AEF
330
AF0
330
AF1
330
AF2
330
AF3
330
AF4
330
AF5
330
AF6
330
AF7
330
AF8
330
AF9
330
AFA
330
AFB
330
AFC
330
AFD
330
AFE
 94
        0
1001
ACAD
1000
AcRTDxfName
1000
ACIMSYSVARMAN
1000
AcRTDxfName
1000
ACIMSYSVARMAN
1000
AcRTDxfName
1000
ACIMSYSVARMAN
1000
AcRTDxfName
1000
ACIMSYSVARMAN
  0
ACAD_PROXY_OBJECT
  5
B3D
102
{ACAD_REACTORS
330
C
102
}
330
C
100
AcDbProxyObject
 90
      499
 91
      508
 95
   983063
 70
     0
 93
       88
310
9084220000000000000000
330
B3E
330
B3F
330
B40
330
B41
330
B42
330
B43
330
B44
330
B45
 94
        0
1001
ACAD
1000
AcRTDxfName
1000
ACIMSYSVARMAN
1000
AcRTDxfName
1000
ACIMSYSVARMAN
1000
AcRTDxfName
1000
ACIMSYSVARMAN
1000
AcRTDxfName
1000
ACIMSYSVARMAN
  0
XRECORD
  5
DE4
102
{ACAD_REACTORS
330
C
102
}
330
C
100
AcDbXrecord
280
     1
  1
DWGPROPS COOKIE
  2

  3

  4

  6

  7

  8
CAD01
  9

300
AmdtFileType=84
301
=
302
=
303
=
304
=
305
=
306
=
307
=
308
=
309
=
 40
0.0
 41
2449749.239178241
 42
2458698.235940718
  1

 90
        1
  0
ACAD_PROXY_OBJECT
  5
B23
102
{ACAD_REACTORS
330
C
102
}
330
C
100
AcDbProxyObject
 90
      499
 91
      537
 95
   983063
 70
     0
 93
        8
310
02
1001
ACAD
1000
AcRTDxfName
1000
MAPIAMMOUDLE
1000
AcRTDxfName
1000
MAPIAMMOUDLE
1000
AcRTDxfName
1000
MAPIAMMOUDLE
1000
AcRTDxfName
1000
MAPIAMMOUDLE
  0
DICTIONARY
  5
BA7
102
{ACAD_REACTORS
330
BA6
102
}
330
BA6
100
AcDbDictionary
281
     1
  0
XRECORD
  5
CE3
102
{ACAD_REACTORS
330
CE2
102
}
330
CE2
100
AcDbXrecord
280
     1
290
     1
  0
XRECORD
  5
CE5
102
{ACAD_REACTORS
330
CE4
102
}
330
CE4
100
AcDbXrecord
280
     1
290
     1
  0
XRECORD
  5
CE7
102
{ACAD_REACTORS
330
CE6
102
}
330
CE6
100
AcDbXrecord
280
     1
290
     1
  0
XRECORD
  5
CE9
102
{ACAD_REACTORS
330
CE8
102
}
330
CE8
100
AcDbXrecord
280
     1
290
     1
  0
XRECORD
  5
CEB
102
{ACAD_REACTORS
330
CEA
102
}
330
CEA
100
AcDbXrecord
280
     1
290
     1
  0
XRECORD
  5
CED
102
{ACAD_REACTORS
330
CEC
102
}
330
CEC
100
AcDbXrecord
280
     1
290
     1
  0
XRECORD
  5
CEF
102
{ACAD_REACTORS
330
CEE
102
}
330
CEE
100
AcDbXrecord
280
     1
290
     1
  0
XRECORD
  5
CF1
102
{ACAD_REACTORS
330
CF0
102
}
330
CF0
100
AcDbXrecord
280
     1
290
     1
  0
XRECORD
  5
CF3
102
{ACAD_REACTORS
330
CF2
102
}
330
CF2
100
AcDbXrecord
280
     1
290
     1
  0
XRECORD
  5
CF4
102
{ACAD_REACTORS
330
C89
102
}
330
C89
100
AcDbXrecord
280
     1
290
     1
  0
DICTIONARY
  5
B8D
102
{ACAD_REACTORS
330
B8C
102
}
330
B8C
100
AcDbDictionary
281
     1
  3
*A1
350
B8E
  0
SORTENTSTABLE
  5
BCB
102
{ACAD_REACTORS
330
B8C
102
}
330
B8C
100
AcDbSortentsTable
330
17
331
167
  5
167
331
191
  5
191
331
192
  5
192
331
193
  5
193
331
194
  5
194
331
195
  5
195
331
196
  5
196
331
197
  5
197
331
198
  5
198
331
199
  5
199
331
19B
  5
19B
331
19C
  5
19C
331
19D
  5
19D
331
19E
  5
19E
331
19F
  5
19F
331
1A0
  5
1A0
331
1A2
  5
1A2
331
1A3
  5
1A3
331
1A4
  5
1A4
331
1A6
  5
1A6
331
1A7
  5
1A7
331
1A8
  5
1A8
331
1A9
  5
1A9
331
1AA
  5
1AA
331
1AC
  5
1AC
331
1AD
  5
1AD
331
1AE
  5
1AE
331
1AF
  5
1AF
331
1B0
  5
1B0
331
1B2
  5
1B2
331
1B3
  5
1B3
331
1B4
  5
1B4
331
1B5
  5
1B5
331
1B6
  5
1B6
331
1B8
  5
1B8
331
1B9
  5
1B9
331
1BA
  5
1BA
331
1BB
  5
1BB
331
1BC
  5
1BC
331
1BF
  5
1BF
331
1C0
  5
1C0
331
1C1
  5
1C1
331
1C2
  5
1C2
331
1C3
  5
1C3
331
1C4
  5
1C4
331
1C5
  5
1C5
331
1C6
  5
1C6
331
1C7
  5
1C7
331
1C8
  5
1C8
331
1C9
  5
1C9
331
1CA
  5
1CA
331
1CB
  5
1CB
331
1CC
  5
1CC
331
1CD
  5
1CD
331
1CE
  5
1CE
331
1CF
  5
1CF
331
1D0
  5
1D0
331
1D1
  5
1D1
331
1D2
  5
1D2
331
1D3
  5
1D3
331
1D4
  5
1D4
331
1D5
  5
1D5
331
1D6
  5
1D6
331
1D7
  5
1D7
331
1D8
  5
1D8
331
1D9
  5
1D9
331
1DA
  5
1DA
331
1DB
  5
1DB
331
1DC
  5
1DC
331
1DD
  5
1DD
331
1DE
  5
1DE
331
1DF
  5
1E0
331
1E0
  5
1E1
331
1E1
  5
1E2
331
1E2
  5
1E3
331
1E3
  5
1E4
331
1E4
  5
1E5
331
1E5
  5
1E6
331
1E6
  5
1E7
331
1E7
  5
1E8
331
1E8
  5
1E9
331
1E9
  5
1EA
331
1EA
  5
1EB
331
1EB
  5
1EC
331
1EC
  5
1ED
331
1ED
  5
1EE
331
1EE
  5
1EF
331
1EF
  5
1F0
331
1F0
  5
1F1
331
1F1
  5
1F2
331
1F2
  5
1F3
331
1F3
  5
1F4
331
1F4
  5
1F5
331
1F5
  5
1F6
331
1F6
  5
1F7
331
1F7
  5
1F8
331
1F8
  5
1F9
331
1F9
  5
1FA
331
1FA
  5
1FB
331
1FB
  5
1FC
331
1FC
  5
1FD
331
1FD
  5
1FE
331
1FE
  5
1FF
331
1FF
  5
200
331
200
  5
201
331
201
  5
202
331
202
  5
203
331
203
  5
204
331
204
  5
206
331
205
  5
207
331
206
  5
209
331
207
  5
20A
331
209
  5
217
331
20A
  5
218
331
217
  5
219
331
218
  5
22E
331
219
  5
234
331
22E
  5
235
331
234
  5
243
331
235
  5
244
331
243
  5
245
331
244
  5
246
331
245
  5
24D
331
246
  5
261
331
24D
  5
2D1
331
261
  5
2D2
331
2D1
  5
2D3
331
2D2
  5
2D4
331
2D3
  5
2D5
331
2D4
  5
2D6
331
2D5
  5
2D7
331
2D6
  5
2D8
331
2D7
  5
2D9
331
2D8
  5
2DA
331
2D9
  5
2DB
331
2DA
  5
2DC
331
2DB
  5
2DD
331
2DC
  5
2DE
331
2DD
  5
2DF
331
2DE
  5
2E0
331
2DF
  5
2E2
331
2E0
  5
2E3
331
2E2
  5
2E4
331
2E3
  5
2E5
331
2E4
  5
2E6
331
2E5
  5
2E7
331
2E6
  5
2E8
331
2E7
  5
2E9
331
2E8
  5
2EA
331
2E9
  5
2EB
331
2EA
  5
2EC
331
2EB
  5
2ED
331
2EC
  5
2EE
331
2ED
  5
2EF
331
2EE
  5
2F0
331
2EF
  5
2F1
331
2F0
  5
2F2
331
2F1
  5
2F3
331
2F2
  5
2F4
331
2F3
  5
2F5
331
2F4
  5
2F6
331
2F5
  5
2F7
331
2F6
  5
2F8
331
2F7
  5
2F9
331
2F8
  5
2FA
331
2F9
  5
2FB
331
2FA
  5
2FC
331
2FB
  5
2FD
331
2FC
  5
2FE
331
2FD
  5
2FF
331
2FE
  5
300
331
2FF
  5
301
331
300
  5
302
331
301
  5
303
331
302
  5
304
331
303
  5
305
331
304
  5
306
331
305
  5
307
331
306
  5
308
331
307
  5
309
331
308
  5
30A
331
309
  5
30B
331
30A
  5
30C
331
30B
  5
30D
331
30C
  5
30E
331
30D
  5
30F
331
30E
  5
310
331
30F
  5
311
331
310
  5
312
331
311
  5
313
331
312
  5
314
331
313
  5
315
331
314
  5
316
331
315
  5
317
331
316
  5
318
331
317
  5
319
331
318
  5
31A
331
319
  5
31B
331
31A
  5
31C
331
31B
  5
31D
331
31C
  5
31E
331
31D
  5
31F
331
31E
  5
320
331
31F
  5
321
331
320
  5
322
331
321
  5
323
331
322
  5
324
331
323
  5
509
331
324
  5
50A
331
509
  5
59B
331
59B
  5
5A2
331
5A1
  5
5A3
331
5A2
  5
5A4
331
5A3
  5
5AF
331
5A4
  5
5B0
331
5AF
  5
5B1
331
5B0
  5
5B2
331
5B1
  5
5B3
331
5B2
  5
5B7
331
5B3
  5
5B8
331
5B7
  5
5B9
331
5B8
  5
5BA
331
5B9
  5
5BB
331
5BA
  5
5BC
331
5BB
  5
5BD
331
5BC
  5
5BE
331
5BD
  5
77D
331
5BE
  5
79B
331
77D
  5
7E9
331
79B
  5
7EA
331
7E9
  5
7EB
331
7EA
  5
7EC
331
7EB
  5
7ED
331
7EC
  5
7EE
331
7ED
  5
8D0
331
7EE
  5
8E7
331
8D0
  5
8FE
331
8E7
  5
92C
331
8FE
  5
94F
331
92C
  5
966
331
94F
  5
97D
331
966
  5
994
331
97D
  5
9B2
331
994
  5
9C9
331
9B2
  5
9FF
331
9C9
  5
A00
331
9FF
  5
A06
331
A00
  5
A07
331
A06
  5
A0E
331
A07
  5
A11
331
A0E
  5
A18
331
A11
  5
A30
331
A18
  5
A31
331
A30
  5
A38
331
A31
  5
A3A
331
A38
  5
B8B
331
A3A
  5
BAF
331
B8B
  5
BB0
331
BAF
  5
BCC
331
BCA
  5
205
331
C0C
  5
1DF
  0
LAYOUT
  5
26B
102
{ACAD_REACTORS
330
269
102
}
330
269
100
AcDbPlotSettings
  1

  2
FinePrint pdfFactoryA3.pc3
  4
A3
  6
V0
 40
5.87375
 41
5.873748
 42
5.873779
 43
5.873749
 44
420.031342
 45
297.010651
 46
4.64
 47
1.56
 48
105.0
 49
74.25
140
4095.0
141
2895.75
142
1.0
143
10.0
 70
 11956
 72
     1
 73
     0
 74
     4
  7
モノクロ.ctb
 75
    20
147
0.1
148
-105.0
149
-74.25
100
AcDbLayout
  1
Model
 70
     1
 71
     0
 10
0.0
 20
0.0
 11
12.0
 21
9.0
 12
0.0
 22
0.0
 32
0.0
 14
0.0
 24
-400.4618930181264
 34
0.0
 15
4200.0
 25
2970.0
 35
0.0
146
0.0
 13
0.0
 23
0.0
 33
0.0
 16
1.0
 26
0.0
 36
0.0
 17
0.0
 27
1.0
 37
0.0
 76
     0
330
17
331
C28
  0
LAYOUT
  5
26C
102
{ACAD_REACTORS
330
269
102
}
330
269
100
AcDbPlotSettings
  1

  2
C:\Program Files\ACAD2000\plotters\EPSON LP-8200.pc3
  4

  6

 40
0.0
 41
0.0
 42
0.0
 43
0.0
 44
0.0
 45
0.0
 46
0.0
 47
0.0
 48
0.0
 49
0.0
140
0.0
141
0.0
142
1.0
143
1.0
 70
   688
 72
     0
 73
     0
 74
     5
  7
モノクロ.ctb
 75
    16
147
1.0
148
0.0
149
0.0
100
AcDbLayout
  1
ﾚｲｱｳﾄ1
 70
     0
 71
     1
 10
0.0
 20
0.0
 11
12.0
 21
9.0
 12
0.0
 22
0.0
 32
0.0
 14
1.000000000000000E+20
 24
1.000000000000000E+20
 34
1.000000000000000E+20
 15
-1.000000000000000E+20
 25
-1.000000000000000E+20
 35
-1.000000000000000E+20
146
0.0
 13
0.0
 23
0.0
 33
0.0
 16
1.0
 26
0.0
 36
0.0
 17
0.0
 27
1.0
 37
0.0
 76
     0
330
14
  0
MLINESTYLE
  5
1B
102
{ACAD_REACTORS
330
1A
102
}
330
1A
100
AcDbMlineStyle
  2
STANDARD
 70
     0
  3

 62
   256
 51
90.0
 52
90.0
 71
     2
 49
0.5
 62
   256
  6
BYLAYER
 49
-0.5
 62
   256
  6
BYLAYER
  0
ACDBPLACEHOLDER
  5
268
102
{ACAD_REACTORS
330
267
102
}
330
267
  0
SCALE
  5
C65
102
{ACAD_REACTORS
330
C64
102
}
330
C64
100
AcDbScale
 70
     0
300
1:1
140
1.0
141
1.0
290
     1
  0
SCALE
  5
C66
102
{ACAD_REACTORS
330
C64
102
}
330
C64
100
AcDbScale
 70
     0
300
1/128" = 1'-0"
140
0.0078125
141
12.0
290
     0
  0
SCALE
  5
C67
102
{ACAD_REACTORS
330
C64
102
}
330
C64
100
AcDbScale
 70
     0
300
1/64" = 1'-0"
140
0.015625
141
12.0
290
     0
  0
SCALE
  5
C68
102
{ACAD_REACTORS
330
C64
102
}
330
C64
100
AcDbScale
 70
     0
300
1/32" = 1'-0"
140
0.03125
141
12.0
290
     0
  0
SCALE
  5
C69
102
{ACAD_REACTORS
330
C64
102
}
330
C64
100
AcDbScale
 70
     0
300
1/16" = 1'-0"
140
0.0625
141
12.0
290
     0
  0
SCALE
  5
C6A
102
{ACAD_REACTORS
330
C64
102
}
330
C64
100
AcDbScale
 70
     0
300
3/32" = 1'-0"
140
0.09375
141
12.0
290
     0
  0
SCALE
  5
C6B
102
{ACAD_REACTORS
330
C64
102
}
330
C64
100
AcDbScale
 70
     0
300
1/8" = 1'-0"
140
0.125
141
12.0
290
     0
  0
SCALE
  5
C6C
102
{ACAD_REACTORS
330
C64
102
}
330
C64
100
AcDbScale
 70
     0
300
3/16" = 1'-0"
140
0.1875
141
12.0
290
     0
  0
SCALE
  5
C6D
102
{ACAD_REACTORS
330
C64
102
}
330
C64
100
AcDbScale
 70
     0
300
1/4" = 1'-0"
140
0.25
141
12.0
290
     0
  0
SCALE
  5
C6E
102
{ACAD_REACTORS
330
C64
102
}
330
C64
100
AcDbScale
 70
     0
300
3/8" = 1'-0"
140
0.375
141
12.0
290
     0
  0
SCALE
  5
C6F
102
{ACAD_REACTORS
330
C64
102
}
330
C64
100
AcDbScale
 70
     0
300
1/2" = 1'-0"
140
0.5
141
12.0
290
     0
  0
SCALE
  5
C70
102
{ACAD_REACTORS
330
C64
102
}
330
C64
100
AcDbScale
 70
     0
300
3/4" = 1'-0"
140
0.75
141
12.0
290
     0
  0
SCALE
  5
C71
102
{ACAD_REACTORS
330
C64
102
}
330
C64
100
AcDbScale
 70
     0
300
1" = 1'-0"
140
1.0
141
12.0
290
     0
  0
SCALE
  5
C72
102
{ACAD_REACTORS
330
C64
102
}
330
C64
100
AcDbScale
 70
     0
300
1-1/2" = 1'-0"
140
1.5
141
12.0
290
     0
  0
SCALE
  5
C73
102
{ACAD_REACTORS
330
C64
102
}
330
C64
100
AcDbScale
 70
     0
300
3" = 1'-0"
140
3.0
141
12.0
290
     0
  0
SCALE
  5
C74
102
{ACAD_REACTORS
330
C64
102
}
330
C64
100
AcDbScale
 70
     0
300
6" = 1'-0"
140
6.0
141
12.0
290
     0
  0
SCALE
  5
C75
102
{ACAD_REACTORS
330
C64
102
}
330
C64
100
AcDbScale
 70
     0
300
1'-0" = 1'-0"
140
12.0
141
12.0
290
     0
  0
DICTIONARYVAR
  5
C30
102
{ACAD_REACTORS
330
249
102
}
330
249
100
DictionaryVariables
280
     0
  1
1
  0
DICTIONARYVAR
  5
AB3
102
{ACAD_REACTORS
330
249
102
}
330
249
100
DictionaryVariables
280
     0
  1
1
  0
DICTIONARYVAR
  5
C31
102
{ACAD_REACTORS
330
249
102
}
330
249
100
DictionaryVariables
280
     0
  1

  0
DICTIONARYVAR
  5
24A
102
{ACAD_REACTORS
330
249
102
}
330
249
100
DictionaryVariables
280
     0
  1
99
  0
ACAD_PROXY_OBJECT
  5
B53
102
{ACAD_REACTORS
330
B52
102
}
330
B52
100
AcDbProxyObject
 90
      499
 91
      556
 95
   983063
 70
     0
 93
      118
310
405010040CA904C415CD5B074D5028
350
B54
 94
        0
1001
ACAD
1000
AcRTDxfName
1000
ACMDATADICTIONARY
1000
AcRTDxfName
1000
ACMDATADICTIONARY
1000
AcRTDxfName
1000
ACMDATADICTIONARY
1000
AcRTDxfName
1000
ACMDATADICTIONARY
  0
ACAD_PROXY_OBJECT
  5
AB5
330
AB1
100
AcDbProxyObject
 90
      499
 91
      509
 95
   983063
 70
     0
 93
      156
310
00010143D050D351505391D5531054925390D490
330
AB1
 94
        0
1001
ACAD
1000
AcRTDxfName
1000
ACIMREALSYSVAR
1000
AcRTDxfName
1000
ACIMREALSYSVAR
1000
AcRTDxfName
1000
ACIMREALSYSVAR
1000
AcRTDxfName
1000
ACIMREALSYSVAR
  0
ACAD_PROXY_OBJECT
  5
AB6
330
AB1
100
AcDbProxyObject
 90
      499
 91
      509
 95
   983063
 70
     0
 93
      148
310
000101439050D351531253915054925390D490
330
AB1
 94
        0
1001
ACAD
1000
AcRTDxfName
1000
ACIMREALSYSVAR
1000
AcRTDxfName
1000
ACIMREALSYSVAR
1000
AcRTDxfName
1000
ACIMREALSYSVAR
1000
AcRTDxfName
1000
ACIMREALSYSVAR
  0
ACAD_PROXY_OBJECT
  5
AB7
330
AB1
100
AcDbProxyObject
 90
      499
 91
      510
 95
   983063
 70
     0
 93
      156
310
000101439050D35154D6535093D314D256915080
330
AB1
 94
        0
1001
ACAD
1000
AcRTDxfName
1000
ACIMINTSYSVAR
1000
AcRTDxfName
1000
ACIMINTSYSVAR
1000
AcRTDxfName
1000
ACIMINTSYSVAR
1000
AcRTDxfName
1000
ACIMINTSYSVAR
  0
ACAD_PROXY_OBJECT
  5
AB9
330
AB1
100
AcDbProxyObject
 90
      499
 91
      512
 95
   983063
 70
     0
 93
       88
310
000101411093D34C402B00
330
AB1
330
0
330
0
 94
        0
1001
ACAD
1000
AcRTDxfName
1000
ACMEVIEW
1000
AcRTDxfName
1000
ACMEVIEW
1000
AcRTDxfName
1000
ACMEVIEW
1000
AcRTDxfName
1000
ACMEVIEW
  0
ACAD_PROXY_OBJECT
  5
AC0
330
AB1
100
AcDbProxyObject
 90
      499
 91
      518
 95
   983063
 70
     0
 93
      366
310
0001014124FEA55D00507342E312E332E35014124FEA55D00507342E312E332E3540501000041905394D24CCC658
330
AB1
330
AC1
330
AC5
 94
        0
1001
ACAD
1000
AcRTDxfName
1000
AM_DRAWING_MGR
1000
AcRTDxfName
1000
AM_DRAWING_MGR
1000
AcRTDxfName
1000
AM_DRAWING_MGR
1000
AcRTDxfName
1000
AM_DRAWING_MGR
  0
ACAD_PROXY_OBJECT
  5
AC1
330
AB1
100
AcDbProxyObject
 90
      499
 91
      519
 95
   983063
 70
     0
 93
       48
310
000190142200
330
AB1
330
AC2
 94
        0
1001
ACAD
1000
AcRTDxfName
1000
AM_DWG_DOCUMENT
1000
AcRTDxfName
1000
AM_DWG_DOCUMENT
1000
AcRTDxfName
1000
AM_DWG_DOCUMENT
1000
AcRTDxfName
1000
AM_DWG_DOCUMENT
  0
ACAD_PROXY_OBJECT
  5
AC2
330
AB1
100
AcDbProxyObject
 90
      499
 91
      520
 95
   983063
 70
     0
 93
       48
310
0001AA000000
330
AB1
330
26C
330
AC3
330
0
 94
        0
1001
ACAD
1000
AcRTDxfName
1000
AM_DWG_SHEET
1000
AcRTDxfName
1000
AM_DWG_SHEET
1000
AcRTDxfName
1000
AM_DWG_SHEET
1000
AcRTDxfName
1000
AM_DWG_SHEET
  0
ACAD_PROXY_OBJECT
  5
AC3
330
AB1
100
AcDbProxyObject
 90
      499
 91
      521
 95
   983063
 70
     0
 93
       28
310
0001AAA0
330
AB1
 94
        0
1001
ACAD
1000
AcRTDxfName
1000
AM_VIEWDIMPARMAP
1000
AcRTDxfName
1000
AM_VIEWDIMPARMAP
1000
AcRTDxfName
1000
AM_VIEWDIMPARMAP
1000
AcRTDxfName
1000
AM_VIEWDIMPARMAP
  0
ACAD_PROXY_OBJECT
  5
AC6
330
AB1
100
AcDbProxyObject
 90
      499
 91
      510
 95
   983063
 70
     0
 93
      108
310
000101421053521310D05310D010
330
AB1
 94
        0
1001
ACAD
1000
AcRTDxfName
1000
ACIMINTSYSVAR
1000
AcRTDxfName
1000
ACIMINTSYSVAR
1000
AcRTDxfName
1000
ACIMINTSYSVAR
1000
AcRTDxfName
1000
ACIMINTSYSVAR
  0
ACAD_PROXY_OBJECT
  5
AC7
330
AB1
100
AcDbProxyObject
 90
      499
 91
      510
 95
   983063
 70
     0
 93
      124
310
000101429053541493D2951654115010
330
AB1
 94
        0
1001
ACAD
1000
AcRTDxfName
1000
ACIMINTSYSVAR
1000
AcRTDxfName
1000
ACIMINTSYSVAR
1000
AcRTDxfName
1000
ACIMINTSYSVAR
1000
AcRTDxfName
1000
ACIMINTSYSVAR
  0
ACAD_PROXY_OBJECT
  5
AC8
330
AB1
100
AcDbProxyObject
 90
      499
 91
      510
 95
   983063
 70
     0
 93
      124
310
00010142905354915554D15112535010
330
AB1
 94
        0
1001
ACAD
1000
AcRTDxfName
1000
ACIMINTSYSVAR
1000
AcRTDxfName
1000
ACIMINTSYSVAR
1000
AcRTDxfName
1000
ACIMINTSYSVAR
1000
AcRTDxfName
1000
ACIMINTSYSVAR
  0
ACAD_PROXY_OBJECT
  5
AC9
330
AB1
100
AcDbProxyObject
 90
      499
 91
      510
 95
   983063
 70
     0
 93
      132
310
00010143105354D150D51253D391125360
330
AB1
 94
        0
1001
ACAD
1000
AcRTDxfName
1000
ACIMINTSYSVAR
1000
AcRTDxfName
1000
ACIMINTSYSVAR
1000
AcRTDxfName
1000
ACIMINTSYSVAR
1000
AcRTDxfName
1000
ACIMINTSYSVAR
  0
ACAD_PROXY_OBJECT
  5
ACA
330
AB1
100
AcDbProxyObject
 90
      499
 91
      510
 95
   983063
 70
     0
 93
      124
310
00010142905355941093D49111549010
330
AB1
 94
        0
1001
ACAD
1000
AcRTDxfName
1000
ACIMINTSYSVAR
1000
AcRTDxfName
1000
ACIMINTSYSVAR
1000
AcRTDxfName
1000
ACIMINTSYSVAR
1000
AcRTDxfName
1000
ACIMINTSYSVAR
  0
ACAD_PROXY_OBJECT
  5
ACB
330
AB1
100
AcDbProxyObject
 90
      499
 91
      510
 95
   983063
 70
     0
 93
      116
310
0001014290535115D1D0D3D313D4A0
330
AB1
 94
        0
1001
ACAD
1000
AcRTDxfName
1000
ACIMINTSYSVAR
1000
AcRTDxfName
1000
ACIMINTSYSVAR
1000
AcRTDxfName
1000
ACIMINTSYSVAR
1000
AcRTDxfName
1000
ACIMINTSYSVAR
  0
ACAD_PROXY_OBJECT
  5
ACC
330
AB1
100
AcDbProxyObject
 90
      499
 91
      510
 95
   983063
 70
     0
 93
      148
310
00010143505355925155D49151949154D21010
330
AB1
 94
        0
1001
ACAD
1000
AcRTDxfName
1000
ACIMINTSYSVAR
1000
AcRTDxfName
1000
ACIMINTSYSVAR
1000
AcRTDxfName
1000
ACIMINTSYSVAR
1000
AcRTDxfName
1000
ACIMINTSYSVAR
  0
ACAD_PROXY_OBJECT
  5
ACD
330
AB1
100
AcDbProxyObject
 90
      499
 91
      510
 95
   983063
 70
     0
 93
      172
310
00010144105350539393D51154149154D15495915010
330
AB1
 94
        0
1001
ACAD
1000
AcRTDxfName
1000
ACIMINTSYSVAR
1000
AcRTDxfName
1000
ACIMINTSYSVAR
1000
AcRTDxfName
1000
ACIMINTSYSVAR
1000
AcRTDxfName
1000
ACIMINTSYSVAR
  0
ACAD_PROXY_OBJECT
  5
AD1
330
AB1
100
AcDbProxyObject
 90
      499
 91
      510
 95
   983063
 70
     0
 93
      108
310
00010142105354D51114D0D51060
330
AB1
 94
        0
1001
ACAD
1000
AcRTDxfName
1000
ACIMINTSYSVAR
1000
AcRTDxfName
1000
ACIMINTSYSVAR
1000
AcRTDxfName
1000
ACIMINTSYSVAR
1000
AcRTDxfName
1000
ACIMINTSYSVAR
  0
ACAD_PROXY_OBJECT
  5
AD2
330
AB1
100
AcDbProxyObject
 90
      499
 91
      510
 95
   983063
 70
     0
 93
      108
310
00010142105354D5111510541060
330
AB1
 94
        0
1001
ACAD
1000
AcRTDxfName
1000
ACIMINTSYSVAR
1000
AcRTDxfName
1000
ACIMINTSYSVAR
1000
AcRTDxfName
1000
ACIMINTSYSVAR
1000
AcRTDxfName
1000
ACIMINTSYSVAR
  0
ACAD_PROXY_OBJECT
  5
AD3
330
AB1
100
AcDbProxyObject
 90
      499
 91
      510
 95
   983063
 70
     0
 93
      108
310
00010142105354D5111115131060
330
AB1
 94
        0
1001
ACAD
1000
AcRTDxfName
1000
ACIMINTSYSVAR
1000
AcRTDxfName
1000
ACIMINTSYSVAR
1000
AcRTDxfName
1000
ACIMINTSYSVAR
1000
AcRTDxfName
1000
ACIMINTSYSVAR
  0
ACAD_PROXY_OBJECT
  5
AD4
330
AB1
100
AcDbProxyObject
 90
      499
 91
      509
 95
   983063
 70
     0
 93
      148
310
00010141905350D310D34295C8FC2F528BC3F0
330
AB1
 94
        0
1001
ACAD
1000
AcRTDxfName
1000
ACIMREALSYSVAR
1000
AcRTDxfName
1000
ACIMREALSYSVAR
1000
AcRTDxfName
1000
ACIMREALSYSVAR
1000
AcRTDxfName
1000
ACIMREALSYSVAR
  0
ACAD_PROXY_OBJECT
  5
AD5
330
AB1
100
AcDbProxyObject
 90
      499
 91
      509
 95
   983063
 70
     0
 93
      156
310
00010141D05350D311D05402B8716D9CEF7C33F0
330
AB1
 94
        0
1001
ACAD
1000
AcRTDxfName
1000
ACIMREALSYSVAR
1000
AcRTDxfName
1000
ACIMREALSYSVAR
1000
AcRTDxfName
1000
ACIMREALSYSVAR
1000
AcRTDxfName
1000
ACIMREALSYSVAR
  0
ACAD_PROXY_OBJECT
  5
AD6
330
AB1
100
AcDbProxyObject
 90
      499
 91
      509
 95
   983063
 70
     0
 93
      164
310
00010142105350D313D4D2150295C8FC2F528BC3F0
330
AB1
 94
        0
1001
ACAD
1000
AcRTDxfName
1000
ACIMREALSYSVAR
1000
AcRTDxfName
1000
ACIMREALSYSVAR
1000
AcRTDxfName
1000
ACIMREALSYSVAR
1000
AcRTDxfName
1000
ACIMREALSYSVAR
  0
ACAD_PROXY_OBJECT
  5
AD7
330
AB1
100
AcDbProxyObject
 90
      499
 91
      510
 95
   983063
 70
     0
 93
      100
310
00010141D05350D31410549010
330
AB1
 94
        0
1001
ACAD
1000
AcRTDxfName
1000
ACIMINTSYSVAR
1000
AcRTDxfName
1000
ACIMINTSYSVAR
1000
AcRTDxfName
1000
ACIMINTSYSVAR
1000
AcRTDxfName
1000
ACIMINTSYSVAR
  0
ACAD_PROXY_OBJECT
  5
AD8
330
AB1
100
AcDbProxyObject
 90
      499
 91
      510
 95
   983063
 70
     0
 93
      100
310
0001014210535590539254D220
330
AB1
 94
        0
1001
ACAD
1000
AcRTDxfName
1000
ACIMINTSYSVAR
1000
AcRTDxfName
1000
ACIMINTSYSVAR
1000
AcRTDxfName
1000
ACIMINTSYSVAR
1000
AcRTDxfName
1000
ACIMINTSYSVAR
  0
ACAD_PROXY_OBJECT
  5
AD9
330
AB1
100
AcDbProxyObject
 90
      499
 91
      509
 95
   983063
 70
     0
 93
      188
310
00010142D0535312539155121250D2C295C8FC2F5289C3F0
330
AB1
 94
        0
1001
ACAD
1000
AcRTDxfName
1000
ACIMREALSYSVAR
1000
AcRTDxfName
1000
ACIMREALSYSVAR
1000
AcRTDxfName
1000
ACIMREALSYSVAR
1000
AcRTDxfName
1000
ACIMREALSYSVAR
  0
ACAD_PROXY_OBJECT
  5
ADA
330
AB1
100
AcDbProxyObject
 90
      499
 91
      510
 95
   983063
 70
     0
 93
      172
310
00010144105350555513D11253505494905391D15010
330
AB1
 94
        0
1001
ACAD
1000
AcRTDxfName
1000
ACIMINTSYSVAR
1000
AcRTDxfName
1000
ACIMINTSYSVAR
1000
AcRTDxfName
1000
ACIMINTSYSVAR
1000
AcRTDxfName
1000
ACIMINTSYSVAR
  0
ACAD_PROXY_OBJECT
  5
ADB
330
AB1
100
AcDbProxyObject
 90
      499
 91
      510
 95
   983063
 70
     0
 93
      124
310
00010142D05351561514915191125360
330
AB1
 94
        0
1001
ACAD
1000
AcRTDxfName
1000
ACIMINTSYSVAR
1000
AcRTDxfName
1000
ACIMINTSYSVAR
1000
AcRTDxfName
1000
ACIMINTSYSVAR
1000
AcRTDxfName
1000
ACIMINTSYSVAR
  0
ACAD_PROXY_OBJECT
  5
ADC
330
AB1
100
AcDbProxyObject
 90
      499
 91
      510
 95
   983063
 70
     0
 93
      132
310
00010142D05355105410539393D5115010
330
AB1
 94
        0
1001
ACAD
1000
AcRTDxfName
1000
ACIMINTSYSVAR
1000
AcRTDxfName
1000
ACIMINTSYSVAR
1000
AcRTDxfName
1000
ACIMINTSYSVAR
1000
AcRTDxfName
1000
ACIMINTSYSVAR
  0
ACAD_PROXY_OBJECT
  5
ADD
330
AB1
100
AcDbProxyObject
 90
      499
 91
      510
 95
   983063
 70
     0
 93
      108
310
00010142105350555513D0D31010
330
AB1
 94
        0
1001
ACAD
1000
AcRTDxfName
1000
ACIMINTSYSVAR
1000
AcRTDxfName
1000
ACIMINTSYSVAR
1000
AcRTDxfName
1000
ACIMINTSYSVAR
1000
AcRTDxfName
1000
ACIMINTSYSVAR
  0
ACAD_PROXY_OBJECT
  5
ADE
330
AB1
100
AcDbProxyObject
 90
      499
 91
      510
 95
   983063
 70
     0
 93
      108
310
00010142105350D3119150551050
330
AB1
 94
        0
1001
ACAD
1000
AcRTDxfName
1000
ACIMINTSYSVAR
1000
AcRTDxfName
1000
ACIMINTSYSVAR
1000
AcRTDxfName
1000
ACIMINTSYSVAR
1000
AcRTDxfName
1000
ACIMINTSYSVAR
  0
ACAD_PROXY_OBJECT
  5
ADF
330
AB1
100
AcDbProxyObject
 90
      499
 91
      510
 95
   983063
 70
     0
 93
      108
310
00010142105350D315925155D3F0
330
AB1
 94
        0
1001
ACAD
1000
AcRTDxfName
1000
ACIMINTSYSVAR
1000
AcRTDxfName
1000
ACIMINTSYSVAR
1000
AcRTDxfName
1000
ACIMINTSYSVAR
1000
AcRTDxfName
1000
ACIMINTSYSVAR
  0
ACAD_PROXY_OBJECT
  5
AE0
330
AB1
100
AcDbProxyObject
 90
      499
 91
      510
 95
   983063
 70
     0
 93
      148
310
0001014350535212511156915493D112535010
330
AB1
 94
        0
1001
ACAD
1000
AcRTDxfName
1000
ACIMINTSYSVAR
1000
AcRTDxfName
1000
ACIMINTSYSVAR
1000
AcRTDxfName
1000
ACIMINTSYSVAR
1000
AcRTDxfName
1000
ACIMINTSYSVAR
  0
ACAD_PROXY_OBJECT
  5
AE1
330
AB1
100
AcDbProxyObject
 90
      499
 91
      510
 95
   983063
 70
     0
 93
      116
310
00010142905352105510D21254D3E0
330
AB1
 94
        0
1001
ACAD
1000
AcRTDxfName
1000
ACIMINTSYSVAR
1000
AcRTDxfName
1000
ACIMINTSYSVAR
1000
AcRTDxfName
1000
ACIMINTSYSVAR
1000
AcRTDxfName
1000
ACIMINTSYSVAR
  0
ACAD_PROXY_OBJECT
  5
AE2
330
AB1
100
AcDbProxyObject
 90
      499
 91
      510
 95
   983063
 70
     0
 93
      148
310
00010143905354D25391D31152105513105660
330
AB1
 94
        0
1001
ACAD
1000
AcRTDxfName
1000
ACIMINTSYSVAR
1000
AcRTDxfName
1000
ACIMINTSYSVAR
1000
AcRTDxfName
1000
ACIMINTSYSVAR
1000
AcRTDxfName
1000
ACIMINTSYSVAR
  0
ACAD_PROXY_OBJECT
  5
AEE
330
AB1
100
AcDbProxyObject
 90
      499
 91
      510
 95
   983063
 70
     0
 93
      116
310
000101425053541051D15311539190
330
AB1
 94
        0
1001
ACAD
1000
AcRTDxfName
1000
ACIMINTSYSVAR
1000
AcRTDxfName
1000
ACIMINTSYSVAR
1000
AcRTDxfName
1000
ACIMINTSYSVAR
1000
AcRTDxfName
1000
ACIMINTSYSVAR
  0
ACAD_PROXY_OBJECT
  5
AEF
330
AB1
100
AcDbProxyObject
 90
      499
 91
      510
 95
   983063
 70
     0
 93
      108
310
000101421053555312539154D050
330
AB1
 94
        0
1001
ACAD
1000
AcRTDxfName
1000
ACIMINTSYSVAR
1000
AcRTDxfName
1000
ACIMINTSYSVAR
1000
AcRTDxfName
1000
ACIMINTSYSVAR
1000
AcRTDxfName
1000
ACIMINTSYSVAR
  0
ACAD_PROXY_OBJECT
  5
AF0
330
AB1
100
AcDbProxyObject
 90
      499
 91
      510
 95
   983063
 70
     0
 93
      108
310
000101421053559312539154D030
330
AB1
 94
        0
1001
ACAD
1000
AcRTDxfName
1000
ACIMINTSYSVAR
1000
AcRTDxfName
1000
ACIMINTSYSVAR
1000
AcRTDxfName
1000
ACIMINTSYSVAR
1000
AcRTDxfName
1000
ACIMINTSYSVAR
  0
ACAD_PROXY_OBJECT
  5
AF1
330
AB1
100
AcDbProxyObject
 90
      499
 91
      510
 95
   983063
 70
     0
 93
      140
310
00010143105354D1911254D41353D1115010
330
AB1
 94
        0
1001
ACAD
1000
AcRTDxfName
1000
ACIMINTSYSVAR
1000
AcRTDxfName
1000
ACIMINTSYSVAR
1000
AcRTDxfName
1000
ACIMINTSYSVAR
1000
AcRTDxfName
1000
ACIMINTSYSVAR
  0
ACAD_PROXY_OBJECT
  5
AF2
330
AB1
100
AcDbProxyObject
 90
      499
 91
      509
 95
   983063
 70
     0
 93
      172
310
00010142505354119255105391C1C052DC9A6F104400
330
AB1
 94
        0
1001
ACAD
1000
AcRTDxfName
1000
ACIMREALSYSVAR
1000
AcRTDxfName
1000
ACIMREALSYSVAR
1000
AcRTDxfName
1000
ACIMREALSYSVAR
1000
AcRTDxfName
1000
ACIMREALSYSVAR
  0
ACAD_PROXY_OBJECT
  5
AF3
330
AB1
100
AcDbProxyObject
 90
      499
 91
      509
 95
   983063
 70
     0
 93
      164
310
000101421053559150D05551C000000000000E03F0
330
AB1
 94
        0
1001
ACAD
1000
AcRTDxfName
1000
ACIMREALSYSVAR
1000
AcRTDxfName
1000
ACIMREALSYSVAR
1000
AcRTDxfName
1000
ACIMREALSYSVAR
1000
AcRTDxfName
1000
ACIMREALSYSVAR
  0
ACAD_PROXY_OBJECT
  5
AF4
330
AB1
100
AcDbProxyObject
 90
      499
 91
      509
 95
   983063
 70
     0
 93
      180
310
00010142905350931153911513D307B14AE47E17A843F0
330
AB1
 94
        0
1001
ACAD
1000
AcRTDxfName
1000
ACIMREALSYSVAR
1000
AcRTDxfName
1000
ACIMREALSYSVAR
1000
AcRTDxfName
1000
ACIMREALSYSVAR
1000
AcRTDxfName
1000
ACIMREALSYSVAR
  0
ACAD_PROXY_OBJECT
  5
AF5
330
AB1
100
AcDbProxyObject
 90
      499
 91
      509
 95
   983063
 70
     0
 93
      172
310
0001014250535293D25391D05407B14AE47E17A843F0
330
AB1
 94
        0
1001
ACAD
1000
AcRTDxfName
1000
ACIMREALSYSVAR
1000
AcRTDxfName
1000
ACIMREALSYSVAR
1000
AcRTDxfName
1000
ACIMREALSYSVAR
1000
AcRTDxfName
1000
ACIMREALSYSVAR
  0
ACAD_PROXY_OBJECT
  5
AF6
330
AB1
100
AcDbProxyObject
 90
      499
 91
      509
 95
   983063
 70
     0
 93
      172
310
000101425053541192551311538000000FC83D797410
330
AB1
 94
        0
1001
ACAD
1000
AcRTDxfName
1000
ACIMREALSYSVAR
1000
AcRTDxfName
1000
ACIMREALSYSVAR
1000
AcRTDxfName
1000
ACIMREALSYSVAR
1000
AcRTDxfName
1000
ACIMREALSYSVAR
  0
ACAD_PROXY_OBJECT
  5
AF7
330
AB1
100
AcDbProxyObject
 90
      499
 91
      509
 95
   983063
 70
     0
 93
      156
310
00010141D053559150D4D18000000000000E03F0
330
AB1
 94
        0
1001
ACAD
1000
AcRTDxfName
1000
ACIMREALSYSVAR
1000
AcRTDxfName
1000
ACIMREALSYSVAR
1000
AcRTDxfName
1000
ACIMREALSYSVAR
1000
AcRTDxfName
1000
ACIMREALSYSVAR
  0
ACAD_PROXY_OBJECT
  5
AF8
330
AB1
100
AcDbProxyObject
 90
      499
 91
      509
 95
   983063
 70
     0
 93
      156
310
00010141D05354D19513D30FCA9F1D24D62503F0
330
AB1
 94
        0
1001
ACAD
1000
AcRTDxfName
1000
ACIMREALSYSVAR
1000
AcRTDxfName
1000
ACIMREALSYSVAR
1000
AcRTDxfName
1000
ACIMREALSYSVAR
1000
AcRTDxfName
1000
ACIMREALSYSVAR
  0
ACAD_PROXY_OBJECT
  5
AF9
330
AB1
100
AcDbProxyObject
 90
      499
 91
      509
 95
   983063
 70
     0
 93
      172
310
000101425053541192551513D307B14AE47E17A843F0
330
AB1
 94
        0
1001
ACAD
1000
AcRTDxfName
1000
ACIMREALSYSVAR
1000
AcRTDxfName
1000
ACIMREALSYSVAR
1000
AcRTDxfName
1000
ACIMREALSYSVAR
1000
AcRTDxfName
1000
ACIMREALSYSVAR
  0
ACAD_PROXY_OBJECT
  5
AFA
330
AB1
100
AcDbProxyObject
 90
      499
 91
      509
 95
   983063
 70
     0
 93
      188
310
00010142D05354D151D192551513D307B14AE47E17A843F0
330
AB1
 94
        0
1001
ACAD
1000
AcRTDxfName
1000
ACIMREALSYSVAR
1000
AcRTDxfName
1000
ACIMREALSYSVAR
1000
AcRTDxfName
1000
ACIMREALSYSVAR
1000
AcRTDxfName
1000
ACIMREALSYSVAR
  0
ACAD_PROXY_OBJECT
  5
AFB
330
AB1
100
AcDbProxyObject
 90
      499
 91
      509
 95
   983063
 70
     0
 93
      148
310
000101419053541311538000000FC83D797410
330
AB1
 94
        0
1001
ACAD
1000
AcRTDxfName
1000
ACIMREALSYSVAR
1000
AcRTDxfName
1000
ACIMREALSYSVAR
1000
AcRTDxfName
1000
ACIMREALSYSVAR
1000
AcRTDxfName
1000
ACIMREALSYSVAR
  0
ACAD_PROXY_OBJECT
  5
AFC
330
AB1
100
AcDbProxyObject
 90
      499
 91
      509
 95
   983063
 70
     0
 93
      172
310
00010142505354105391D513D301C052DC9A6F104400
330
AB1
 94
        0
1001
ACAD
1000
AcRTDxfName
1000
ACIMREALSYSVAR
1000
AcRTDxfName
1000
ACIMREALSYSVAR
1000
AcRTDxfName
1000
ACIMREALSYSVAR
1000
AcRTDxfName
1000
ACIMREALSYSVAR
  0
ACAD_PROXY_OBJECT
  5
AFD
330
AB1
100
AcDbProxyObject
 90
      499
 91
      509
 95
   983063
 70
     0
 93
      132
310
0001014114D25691400000000000024400
330
AB1
 94
        0
1001
ACAD
1000
AcRTDxfName
1000
ACIMREALSYSVAR
1000
AcRTDxfName
1000
ACIMREALSYSVAR
1000
AcRTDxfName
1000
ACIMREALSYSVAR
1000
AcRTDxfName
1000
ACIMREALSYSVAR
  0
ACAD_PROXY_OBJECT
  5
AFE
330
AB1
100
AcDbProxyObject
 90
      499
 91
      530
 95
   983063
 70
     0
 93
      156
310
00010142905351D4941491519256005034153470
330
AB1
 94
        0
1001
ACAD
1000
AcRTDxfName
1000
ACIMSTRSYSVAR
1000
AcRTDxfName
1000
ACIMSTRSYSVAR
1000
AcRTDxfName
1000
ACIMSTRSYSVAR
1000
AcRTDxfName
1000
ACIMSTRSYSVAR
  0
ACAD_PROXY_OBJECT
  5
AFF
330
AB1
100
AcDbProxyObject
 90
      499
 91
      531
 95
   983063
 70
     0
 93
      314
310
00014080509646973745363616C650000000000003C2FC000000000000F0BF0000003F20F5E5D040
330
AB1
 94
        0
1001
ACAD
1000
AcRTDxfName
1000
ACIMDBLSTATICVAR
1000
AcRTDxfName
1000
ACIMDBLSTATICVAR
1000
AcRTDxfName
1000
ACIMDBLSTATICVAR
1000
AcRTDxfName
1000
ACIMDBLSTATICVAR
  0
ACAD_PROXY_OBJECT
  5
B00
330
AB1
100
AcDbProxyObject
 90
      499
 91
      531
 95
   983063
 70
     0
 93
      322
310
0001408050A65646175526F74617465060B51153EC87E4FC182D4454FB2119C0060B51153EC8465000
330
AB1
 94
        0
1001
ACAD
1000
AcRTDxfName
1000
ACIMDBLSTATICVAR
1000
AcRTDxfName
1000
ACIMDBLSTATICVAR
1000
AcRTDxfName
1000
ACIMDBLSTATICVAR
1000
AcRTDxfName
1000
ACIMDBLSTATICVAR
  0
ACAD_PROXY_OBJECT
  5
B01
330
AB1
100
AcDbProxyObject
 90
      499
 91
      531
 95
   983063
 70
     0
 93
      314
310
00014080509656461755477697374060B51153EC846500000000FC83D797C10000003F20F5E5D040
330
AB1
 94
        0
1001
ACAD
1000
AcRTDxfName
1000
ACIMDBLSTATICVAR
1000
AcRTDxfName
1000
ACIMDBLSTATICVAR
1000
AcRTDxfName
1000
ACIMDBLSTATICVAR
1000
AcRTDxfName
1000
ACIMDBLSTATICVAR
  0
ACAD_PROXY_OBJECT
  5
B02
330
AB1
100
AcDbProxyObject
 90
      499
 91
      532
 95
   983063
 70
     0
 93
      294
310
000140C050A656467654F75747075740144F3B7F635ECB74A140A4817D41BDB1E5B1A5B994
330
AB1
 94
        0
1001
ACAD
1000
AcRTDxfName
1000
ACIMSTRSTATICVAR
1000
AcRTDxfName
1000
ACIMSTRSTATICVAR
1000
AcRTDxfName
1000
ACIMSTRSTATICVAR
1000
AcRTDxfName
1000
ACIMSTRSTATICVAR
  0
ACAD_PROXY_OBJECT
  5
B03
330
AB1
100
AcDbProxyObject
 90
      499
 91
      533
 95
   983063
 70
     0
 93
      154
310
0001404050B65646974507265766965774064040
330
AB1
 94
        0
1001
ACAD
1000
AcRTDxfName
1000
ACIMINTSTATICVAR
1000
AcRTDxfName
1000
ACIMINTSTATICVAR
1000
AcRTDxfName
1000
ACIMINTSTATICVAR
1000
AcRTDxfName
1000
ACIMINTSTATICVAR
  0
ACAD_PROXY_OBJECT
  5
B04
330
AB1
100
AcDbProxyObject
 90
      499
 91
      533
 95
   983063
 70
     0
 93
      170
310
0001404050A666C6F77556C696E657342A3A00C00000
330
AB1
 94
        0
1001
ACAD
1000
AcRTDxfName
1000
ACIMINTSTATICVAR
1000
AcRTDxfName
1000
ACIMINTSTATICVAR
1000
AcRTDxfName
1000
ACIMINTSTATICVAR
1000
AcRTDxfName
1000
ACIMINTSTATICVAR
  0
ACAD_PROXY_OBJECT
  5
B05
330
AB1
100
AcDbProxyObject
 90
      499
 91
      533
 95
   983063
 70
     0
 93
      170
310
0001404050A666C6F77566C696E657342A3A00C00000
330
AB1
 94
        0
1001
ACAD
1000
AcRTDxfName
1000
ACIMINTSTATICVAR
1000
AcRTDxfName
1000
ACIMINTSTATICVAR
1000
AcRTDxfName
1000
ACIMINTSTATICVAR
1000
AcRTDxfName
1000
ACIMINTSTATICVAR
  0
ACAD_PROXY_OBJECT
  5
B06
330
AB1
100
AcDbProxyObject
 90
      499
 91
      531
 95
   983063
 70
     0
 93
      322
310
0001408050A666C7366456E645261640000000000003C2FC000000000000F0BF0000003F20F5E5D040
330
AB1
 94
        0
1001
ACAD
1000
AcRTDxfName
1000
ACIMDBLSTATICVAR
1000
AcRTDxfName
1000
ACIMDBLSTATICVAR
1000
AcRTDxfName
1000
ACIMDBLSTATICVAR
1000
AcRTDxfName
1000
ACIMDBLSTATICVAR
  0
ACAD_PROXY_OBJECT
  5
B07
330
AB1
100
AcDbProxyObject
 90
      499
 91
      532
 95
   983063
 70
     0
 93
      246
310
000140C05086A6E33644D6F64650143E3BA24EB8A134A4817D3585B9D585B0
330
AB1
 94
        0
1001
ACAD
1000
AcRTDxfName
1000
ACIMSTRSTATICVAR
1000
AcRTDxfName
1000
ACIMSTRSTATICVAR
1000
AcRTDxfName
1000
ACIMSTRSTATICVAR
1000
AcRTDxfName
1000
ACIMSTRSTATICVAR
  0
ACAD_PROXY_OBJECT
  5
B08
330
AB1
100
AcDbProxyObject
 90
      499
 91
      532
 95
   983063
 70
     0
 93
      294
310
000140C050A6A6E33644F75747075740144F3B7F635ECB74A140A4817D41BDB1E5B1A5B994
330
AB1
 94
        0
1001
ACAD
1000
AcRTDxfName
1000
ACIMSTRSTATICVAR
1000
AcRTDxfName
1000
ACIMSTRSTATICVAR
1000
AcRTDxfName
1000
ACIMSTRSTATICVAR
1000
AcRTDxfName
1000
ACIMSTRSTATICVAR
  0
ACAD_PROXY_OBJECT
  5
B09
330
AB1
100
AcDbProxyObject
 90
      499
 91
      531
 95
   983063
 70
     0
 93
      306
310
000140805086C656E675065726300000000002016D002D431CEBE2361A3F0000003F20F5E5D040
330
AB1
 94
        0
1001
ACAD
1000
AcRTDxfName
1000
ACIMDBLSTATICVAR
1000
AcRTDxfName
1000
ACIMDBLSTATICVAR
1000
AcRTDxfName
1000
ACIMDBLSTATICVAR
1000
AcRTDxfName
1000
ACIMDBLSTATICVAR
  0
ACAD_PROXY_OBJECT
  5
B0A
330
AB1
100
AcDbProxyObject
 90
      499
 91
      531
 95
   983063
 70
     0
 93
      266
310
0001408050B6D61737344656E7369747942D431CEBE2361A3F0000003F20F5E5D040
330
AB1
 94
        0
1001
ACAD
1000
AcRTDxfName
1000
ACIMDBLSTATICVAR
1000
AcRTDxfName
1000
ACIMDBLSTATICVAR
1000
AcRTDxfName
1000
ACIMDBLSTATICVAR
1000
AcRTDxfName
1000
ACIMDBLSTATICVAR
  0
ACAD_PROXY_OBJECT
  5
B0B
330
AB1
100
AcDbProxyObject
 90
      499
 91
      531
 95
   983063
 70
     0
 93
      186
310
000140805096D617373546869636BA0000003F20F5E5D040
330
AB1
 94
        0
1001
ACAD
1000
AcRTDxfName
1000
ACIMDBLSTATICVAR
1000
AcRTDxfName
1000
ACIMDBLSTATICVAR
1000
AcRTDxfName
1000
ACIMDBLSTATICVAR
1000
AcRTDxfName
1000
ACIMDBLSTATICVAR
  0
ACAD_PROXY_OBJECT
  5
B0C
330
AB1
100
AcDbProxyObject
 90
      499
 91
      532
 95
   983063
 70
     0
 93
      230
310
000140C05086D6173735479706501436F2AB64A14CA4817D4DA195B1B0
330
AB1
 94
        0
1001
ACAD
1000
AcRTDxfName
1000
ACIMSTRSTATICVAR
1000
AcRTDxfName
1000
ACIMSTRSTATICVAR
1000
AcRTDxfName
1000
ACIMSTRSTATICVAR
1000
AcRTDxfName
1000
ACIMSTRSTATICVAR
  0
ACAD_PROXY_OBJECT
  5
B0D
330
AB1
100
AcDbProxyObject
 90
      499
 91
      531
 95
   983063
 70
     0
 93
      242
310
000140805086F667366446973744000000FC83D797C10000003F20F5E5D040
330
AB1
 94
        0
1001
ACAD
1000
AcRTDxfName
1000
ACIMDBLSTATICVAR
1000
AcRTDxfName
1000
ACIMDBLSTATICVAR
1000
AcRTDxfName
1000
ACIMDBLSTATICVAR
1000
AcRTDxfName
1000
ACIMDBLSTATICVAR
  0
ACAD_PROXY_OBJECT
  5
B0E
330
AB1
100
AcDbProxyObject
 90
      499
 91
      531
 95
   983063
 70
     0
 93
      258
310
0001408050A7072696D52616469757342D431CEBE2361A3F0000003F20F5E5D040
330
AB1
 94
        0
1001
ACAD
1000
AcRTDxfName
1000
ACIMDBLSTATICVAR
1000
AcRTDxfName
1000
ACIMDBLSTATICVAR
1000
AcRTDxfName
1000
ACIMDBLSTATICVAR
1000
AcRTDxfName
1000
ACIMDBLSTATICVAR
  0
ACAD_PROXY_OBJECT
  5
B0F
330
AB1
100
AcDbProxyObject
 90
      499
 91
      531
 95
   983063
 70
     0
 93
      194
310
0001408050A7072696D546F70526164A0000003F20F5E5D040
330
AB1
 94
        0
1001
ACAD
1000
AcRTDxfName
1000
ACIMDBLSTATICVAR
1000
AcRTDxfName
1000
ACIMDBLSTATICVAR
1000
AcRTDxfName
1000
ACIMDBLSTATICVAR
1000
AcRTDxfName
1000
ACIMDBLSTATICVAR
  0
ACAD_PROXY_OBJECT
  5
B10
330
AB1
100
AcDbProxyObject
 90
      499
 91
      531
 95
   983063
 70
     0
 93
      266
310
0001408050B7072696D5475626552616442D431CEBE2361A3F0000003F20F5E5D040
330
AB1
 94
        0
1001
ACAD
1000
AcRTDxfName
1000
ACIMDBLSTATICVAR
1000
AcRTDxfName
1000
ACIMDBLSTATICVAR
1000
AcRTDxfName
1000
ACIMDBLSTATICVAR
1000
AcRTDxfName
1000
ACIMDBLSTATICVAR
  0
ACAD_PROXY_OBJECT
  5
B11
330
AB1
100
AcDbProxyObject
 90
      499
 91
      531
 95
   983063
 70
     0
 93
      258
310
0001408050A7072696D4865696768744000000FC83D797C10000003F20F5E5D040
330
AB1
 94
        0
1001
ACAD
1000
AcRTDxfName
1000
ACIMDBLSTATICVAR
1000
AcRTDxfName
1000
ACIMDBLSTATICVAR
1000
AcRTDxfName
1000
ACIMDBLSTATICVAR
1000
AcRTDxfName
1000
ACIMDBLSTATICVAR
  0
ACAD_PROXY_OBJECT
  5
B12
330
AB1
100
AcDbProxyObject
 90
      499
 91
      531
 95
   983063
 70
     0
 93
      250
310
000140805097072696D5374416E678182D4454FB2119C0060B51153EC8465000
330
AB1
 94
        0
1001
ACAD
1000
AcRTDxfName
1000
ACIMDBLSTATICVAR
1000
AcRTDxfName
1000
ACIMDBLSTATICVAR
1000
AcRTDxfName
1000
ACIMDBLSTATICVAR
1000
AcRTDxfName
1000
ACIMDBLSTATICVAR
  0
ACAD_PROXY_OBJECT
  5
B13
330
AB1
100
AcDbProxyObject
 90
      499
 91
      531
 95
   983063
 70
     0
 93
      322
310
0001408050A7072696D456E64416E67060B51153EC846500182D4454FB2119C0060B51153EC8465000
330
AB1
 94
        0
1001
ACAD
1000
AcRTDxfName
1000
ACIMDBLSTATICVAR
1000
AcRTDxfName
1000
ACIMDBLSTATICVAR
1000
AcRTDxfName
1000
ACIMDBLSTATICVAR
1000
AcRTDxfName
1000
ACIMDBLSTATICVAR
  0
ACAD_PROXY_OBJECT
  5
B14
330
AB1
100
AcDbProxyObject
 90
      499
 91
      531
 95
   983063
 70
     0
 93
      242
310
000140805087265765374416E678182D4454FB2119C0060B51153EC8465000
330
AB1
 94
        0
1001
ACAD
1000
AcRTDxfName
1000
ACIMDBLSTATICVAR
1000
AcRTDxfName
1000
ACIMDBLSTATICVAR
1000
AcRTDxfName
1000
ACIMDBLSTATICVAR
1000
AcRTDxfName
1000
ACIMDBLSTATICVAR
  0
ACAD_PROXY_OBJECT
  5
B15
330
AB1
100
AcDbProxyObject
 90
      499
 91
      531
 95
   983063
 70
     0
 93
      314
310
00014080509726576456E64416E67060B51153EC846500182D4454FB2119C0060B51153EC8465000
330
AB1
 94
        0
1001
ACAD
1000
AcRTDxfName
1000
ACIMDBLSTATICVAR
1000
AcRTDxfName
1000
ACIMDBLSTATICVAR
1000
AcRTDxfName
1000
ACIMDBLSTATICVAR
1000
AcRTDxfName
1000
ACIMDBLSTATICVAR
  0
ACAD_PROXY_OBJECT
  5
B16
330
AB1
100
AcDbProxyObject
 90
      499
 91
      533
 95
   983063
 70
     0
 93
      194
310
0001404050C7266736655706174636865734290139C0C00000
330
AB1
 94
        0
1001
ACAD
1000
AcRTDxfName
1000
ACIMINTSTATICVAR
1000
AcRTDxfName
1000
ACIMINTSTATICVAR
1000
AcRTDxfName
1000
ACIMINTSTATICVAR
1000
AcRTDxfName
1000
ACIMINTSTATICVAR
  0
ACAD_PROXY_OBJECT
  5
B17
330
AB1
100
AcDbProxyObject
 90
      499
 91
      533
 95
   983063
 70
     0
 93
      194
310
0001404050C7266736656706174636865734290139C0C00000
330
AB1
 94
        0
1001
ACAD
1000
AcRTDxfName
1000
ACIMINTSTATICVAR
1000
AcRTDxfName
1000
ACIMINTSTATICVAR
1000
AcRTDxfName
1000
ACIMINTSTATICVAR
1000
AcRTDxfName
1000
ACIMINTSTATICVAR
  0
ACAD_PROXY_OBJECT
  5
B18
330
AB1
100
AcDbProxyObject
 90
      499
 91
      532
 95
   983063
 70
     0
 93
      246
310
000140C0508747562654D6F64650143E3BA24EB8A134A4817D3585B9D585B0
330
AB1
 94
        0
1001
ACAD
1000
AcRTDxfName
1000
ACIMSTRSTATICVAR
1000
AcRTDxfName
1000
ACIMSTRSTATICVAR
1000
AcRTDxfName
1000
ACIMSTRSTATICVAR
1000
AcRTDxfName
1000
ACIMSTRSTATICVAR
  0
ACAD_PROXY_OBJECT
  5
B19
330
AB1
100
AcDbProxyObject
 90
      499
 91
      531
 95
   983063
 70
     0
 93
      274
310
0001408050C747562654469616D6574657242D431CEBE2361A3F0000003F20F5E5D040
330
AB1
 94
        0
1001
ACAD
1000
AcRTDxfName
1000
ACIMDBLSTATICVAR
1000
AcRTDxfName
1000
ACIMDBLSTATICVAR
1000
AcRTDxfName
1000
ACIMDBLSTATICVAR
1000
AcRTDxfName
1000
ACIMDBLSTATICVAR
  0
ACAD_PROXY_OBJECT
  5
B1A
330
AB1
100
AcDbProxyObject
 90
      499
 91
      531
 95
   983063
 70
     0
 93
      314
310
00014080509626C656E644261636B0000000000000D1002D431CEBE2361A3F000000000000165000
330
AB1
 94
        0
1001
ACAD
1000
AcRTDxfName
1000
ACIMDBLSTATICVAR
1000
AcRTDxfName
1000
ACIMDBLSTATICVAR
1000
AcRTDxfName
1000
ACIMDBLSTATICVAR
1000
AcRTDxfName
1000
ACIMDBLSTATICVAR
  0
ACAD_PROXY_OBJECT
  5
B1B
330
AB1
100
AcDbProxyObject
 90
      499
 91
      533
 95
   983063
 70
     0
 93
      130
310
00014040509696E746572506F6C79A4040
330
AB1
 94
        0
1001
ACAD
1000
AcRTDxfName
1000
ACIMINTSTATICVAR
1000
AcRTDxfName
1000
ACIMINTSTATICVAR
1000
AcRTDxfName
1000
ACIMINTSTATICVAR
1000
AcRTDxfName
1000
ACIMINTSTATICVAR
  0
ACAD_PROXY_OBJECT
  5
B1C
330
AB1
100
AcDbProxyObject
 90
      499
 91
      533
 95
   983063
 70
     0
 93
      146
310
0001404050A70726F6A4F757470757440A4080
330
AB1
 94
        0
1001
ACAD
1000
AcRTDxfName
1000
ACIMINTSTATICVAR
1000
AcRTDxfName
1000
ACIMINTSTATICVAR
1000
AcRTDxfName
1000
ACIMINTSTATICVAR
1000
AcRTDxfName
1000
ACIMINTSTATICVAR
  0
ACAD_PROXY_OBJECT
  5
B26
330
AB1
100
AcDbProxyObject
 90
      499
 91
      540
 95
   983063
 70
     0
 93
      666
310
0001000000009AA6A9AA40518467269204D61792030322031393A31323A3337203230303301420D0B8C4B8CCB8C4C00518467269204D61792030322031393A31333A3337203230303301420D0B8C4B8CCB8C4C00
330
AB1
330
B27
330
B28
330
B2A
330
0
 94
        0
1001
ACAD
1000
AcRTDxfName
1000
ADAPPL
1000
AcRTDxfName
1000
ADAPPL
1000
AcRTDxfName
1000
ADAPPL
1000
AcRTDxfName
1000
ADAPPL
  0
ACAD_PROXY_OBJECT
  5
B27
330
AB1
100
AcDbProxyObject
 90
      499
 91
      541
 95
   983063
 70
     0
 93
       70
310
0001AAA80820000000
330
AB1
330
B27
330
B27
 94
        0
1001
ACAD
1000
AcRTDxfName
1000
DEPMGR
1000
AcRTDxfName
1000
DEPMGR
1000
AcRTDxfName
1000
DEPMGR
1000
AcRTDxfName
1000
DEPMGR
  0
ACAD_PROXY_OBJECT
  5
B28
330
AB1
100
AcDbProxyObject
 90
      499
 91
      542
 95
   983063
 70
     0
 93
       48
310
000100000000
330
AB1
330
0
330
B29
330
0
330
0
 94
        0
1001
ACAD
1000
AcRTDxfName
1000
PARAMMGR
1000
AcRTDxfName
1000
PARAMMGR
1000
AcRTDxfName
1000
PARAMMGR
1000
AcRTDxfName
1000
PARAMMGR
  0
ACAD_PROXY_OBJECT
  5
B29
330
AB1
100
AcDbProxyObject
 90
      499
 91
      543
 95
   983063
 70
     0
 93
       40
310
000100AAAA
330
AB1
330
0
 94
        0
1001
ACAD
1000
AcRTDxfName
1000
PARAMSCOPE
1000
AcRTDxfName
1000
PARAMSCOPE
1000
AcRTDxfName
1000
PARAMSCOPE
1000
AcRTDxfName
1000
PARAMSCOPE
  0
ACAD_PROXY_OBJECT
  5
B2B
330
AB1
100
AcDbProxyObject
 90
      499
 91
      510
 95
   983063
 70
     0
 93
      124
310
00010142905350D3D39114D414D69050
330
AB1
 94
        0
1001
ACAD
1000
AcRTDxfName
1000
ACIMINTSYSVAR
1000
AcRTDxfName
1000
ACIMINTSYSVAR
1000
AcRTDxfName
1000
ACIMINTSYSVAR
1000
AcRTDxfName
1000
ACIMINTSYSVAR
  0
ACAD_PROXY_OBJECT
  5
B2C
330
AB1
100
AcDbProxyObject
 90
      499
 91
      510
 95
   983063
 70
     0
 93
      124
310
000101429053549553115353D1115010
330
AB1
 94
        0
1001
ACAD
1000
AcRTDxfName
1000
ACIMINTSYSVAR
1000
AcRTDxfName
1000
ACIMINTSYSVAR
1000
AcRTDxfName
1000
ACIMINTSYSVAR
1000
AcRTDxfName
1000
ACIMINTSYSVAR
  0
ACAD_PROXY_OBJECT
  5
B2D
330
AB1
100
AcDbProxyObject
 90
      499
 91
      510
 95
   983063
 70
     0
 93
      108
310
00010142105354D2D353D1115010
330
AB1
 94
        0
1001
ACAD
1000
AcRTDxfName
1000
ACIMINTSYSVAR
1000
AcRTDxfName
1000
ACIMINTSYSVAR
1000
AcRTDxfName
1000
ACIMINTSYSVAR
1000
AcRTDxfName
1000
ACIMINTSYSVAR
  0
ACAD_PROXY_OBJECT
  5
B2E
330
AB1
100
AcDbProxyObject
 90
      499
 91
      510
 95
   983063
 70
     0
 93
      140
310
000101435053511253511254D41353D11160
330
AB1
 94
        0
1001
ACAD
1000
AcRTDxfName
1000
ACIMINTSYSVAR
1000
AcRTDxfName
1000
ACIMINTSYSVAR
1000
AcRTDxfName
1000
ACIMINTSYSVAR
1000
AcRTDxfName
1000
ACIMINTSYSVAR
  0
ACAD_PROXY_OBJECT
  5
B2F
330
AB1
100
AcDbProxyObject
 90
      499
 91
      509
 95
   983063
 70
     0
 93
      180
310
00010142905354D2D05391D513D3000000000000010400
330
AB1
 94
        0
1001
ACAD
1000
AcRTDxfName
1000
ACIMREALSYSVAR
1000
AcRTDxfName
1000
ACIMREALSYSVAR
1000
AcRTDxfName
1000
ACIMREALSYSVAR
1000
AcRTDxfName
1000
ACIMREALSYSVAR
  0
ACAD_PROXY_OBJECT
  5
B30
330
AB1
100
AcDbProxyObject
 90
      499
 91
      530
 95
   983063
 70
     0
 93
      164
310
00010142505354D2D4D516531140505434F4E542A0
330
AB1
 94
        0
1001
ACAD
1000
AcRTDxfName
1000
ACIMSTRSYSVAR
1000
AcRTDxfName
1000
ACIMSTRSYSVAR
1000
AcRTDxfName
1000
ACIMSTRSYSVAR
1000
AcRTDxfName
1000
ACIMSTRSYSVAR
  0
ACAD_PROXY_OBJECT
  5
B31
330
AB1
100
AcDbProxyObject
 90
      499
 91
      510
 95
   983063
 70
     0
 93
      108
310
00010142105350D3511112535010
330
AB1
 94
        0
1001
ACAD
1000
AcRTDxfName
1000
ACIMINTSYSVAR
1000
AcRTDxfName
1000
ACIMINTSYSVAR
1000
AcRTDxfName
1000
ACIMINTSYSVAR
1000
AcRTDxfName
1000
ACIMINTSYSVAR
  0
ACAD_PROXY_OBJECT
  5
B32
330
AB1
100
AcDbProxyObject
 90
      499
 91
      510
 95
   983063
 70
     0
 93
      108
310
00010142105350D3D35414D59010
330
AB1
 94
        0
1001
ACAD
1000
AcRTDxfName
1000
ACIMINTSYSVAR
1000
AcRTDxfName
1000
ACIMINTSYSVAR
1000
AcRTDxfName
1000
ACIMINTSYSVAR
1000
AcRTDxfName
1000
ACIMINTSYSVAR
  0
ACAD_PROXY_OBJECT
  5
B33
330
AB1
100
AcDbProxyObject
 90
      499
 91
      530
 95
   983063
 70
     0
 93
      164
310
0001014290535410549514D4119600504504152540
330
AB1
 94
        0
1001
ACAD
1000
AcRTDxfName
1000
ACIMSTRSYSVAR
1000
AcRTDxfName
1000
ACIMSTRSYSVAR
1000
AcRTDxfName
1000
ACIMSTRSYSVAR
1000
AcRTDxfName
1000
ACIMSTRSYSVAR
  0
ACAD_PROXY_OBJECT
  5
B34
330
AB1
100
AcDbProxyObject
 90
      499
 91
      530
 95
   983063
 70
     0
 93
      220
310
0001014350535513D3D31093D11654119600508544F4F4C424F44590
330
AB1
 94
        0
1001
ACAD
1000
AcRTDxfName
1000
ACIMSTRSYSVAR
1000
AcRTDxfName
1000
ACIMSTRSYSVAR
1000
AcRTDxfName
1000
ACIMSTRSYSVAR
1000
AcRTDxfName
1000
ACIMSTRSYSVAR
  0
ACAD_PROXY_OBJECT
  5
B35
330
AB1
100
AcDbProxyObject
 90
      499
 91
      510
 95
   983063
 70
     0
 93
      116
310
000101425053511254D410D3D39010
330
AB1
 94
        0
1001
ACAD
1000
AcRTDxfName
1000
ACIMINTSYSVAR
1000
AcRTDxfName
1000
ACIMINTSYSVAR
1000
AcRTDxfName
1000
ACIMINTSYSVAR
1000
AcRTDxfName
1000
ACIMINTSYSVAR
  0
ACAD_PROXY_OBJECT
  5
B36
330
AB1
100
AcDbProxyObject
 90
      499
 91
      510
 95
   983063
 70
     0
 93
      108
310
00010142105350D3D39114D41010
330
AB1
 94
        0
1001
ACAD
1000
AcRTDxfName
1000
ACIMINTSYSVAR
1000
AcRTDxfName
1000
ACIMINTSYSVAR
1000
AcRTDxfName
1000
ACIMINTSYSVAR
1000
AcRTDxfName
1000
ACIMINTSYSVAR
  0
ACAD_PROXY_OBJECT
  5
B37
330
AB1
100
AcDbProxyObject
 90
      499
 91
      510
 95
   983063
 70
     0
 93
      124
310
0001014290535490511114D414D69190
330
AB1
 94
        0
1001
ACAD
1000
AcRTDxfName
1000
ACIMINTSYSVAR
1000
AcRTDxfName
1000
ACIMINTSYSVAR
1000
AcRTDxfName
1000
ACIMINTSYSVAR
1000
AcRTDxfName
1000
ACIMINTSYSVAR
  0
ACAD_PROXY_OBJECT
  5
B39
330
AB1
100
AcDbProxyObject
 90
      499
 91
      545
 95
   983063
 70
     0
 93
     3196
310
0001419088050A544852555F4452494C4C0142D09312539117D1149253130050A544852555F43424F52450142D09312539117D0D093D4914050A544852555F4353494E4B0142D09312539117D0D4D25392D0642201459EC94958C8094950535112504815121493D551D20B9F4051C7B252563202525414D444941205820252
310
5414D44455020444545507D014F5EC94958C8094950535112504815121493D551D20B9F57141ED0D093D49148094958C80949505350D112504816080949505350D091115408111151541F405437B252563202525414D4449412058202525414D44455020444545507D5C507B43424F524520252563202525414D4344494120
310
58202525414D434244455020444545507D014EDEC94958C8094950535112504815121493D551D20B9F57141ED0D4D25392C8094958C80949505350D112504816080949505350D4D05391C949591F405417B252563202525414D4449412058202525414D44455020444545507D5C507B4353494E4B20252563202525414D434
310
449412058202525414D4353414E472525647D0
330
AB1
 94
        0
1001
ACAD
1000
AcRTDxfName
1000
ADHNTMPLT
1000
AcRTDxfName
1000
ADHNTMPLT
1000
AcRTDxfName
1000
ADHNTMPLT
1000
AcRTDxfName
1000
ADHNTMPLT
  0
ACAD_PROXY_OBJECT
  5
B3B
330
AB1
100
AcDbProxyObject
 90
      499
 91
      510
 95
   983063
 70
     0
 93
      140
310
00010143105354D554141490D3D313D49060
330
AB1
 94
        0
1001
ACAD
1000
AcRTDxfName
1000
ACIMINTSYSVAR
1000
AcRTDxfName
1000
ACIMINTSYSVAR
1000
AcRTDxfName
1000
ACIMINTSYSVAR
1000
AcRTDxfName
1000
ACIMINTSYSVAR
  0
ACAD_PROXY_OBJECT
  5
B3E
330
AB1
100
AcDbProxyObject
 90
      499
 91
      510
 95
   983063
 70
     0
 93
      132
310
00010142D05050555513D4D3D315915010
330
AB1
 94
        0
1001
ACAD
1000
AcRTDxfName
1000
ACIMINTSYSVAR
1000
AcRTDxfName
1000
ACIMINTSYSVAR
1000
AcRTDxfName
1000
ACIMINTSYSVAR
1000
AcRTDxfName
1000
ACIMINTSYSVAR
  0
ACAD_PROXY_OBJECT
  5
B3F
330
AB1
100
AcDbProxyObject
 90
      499
 91
      510
 95
   983063
 70
     0
 93
      156
310
00010143905050555513D054D4D1535093115010
330
AB1
 94
        0
1001
ACAD
1000
AcRTDxfName
1000
ACIMINTSYSVAR
1000
AcRTDxfName
1000
ACIMINTSYSVAR
1000
AcRTDxfName
1000
ACIMINTSYSVAR
1000
AcRTDxfName
1000
ACIMINTSYSVAR
  0
ACAD_PROXY_OBJECT
  5
B40
330
AB1
100
AcDbProxyObject
 90
      499
 91
      510
 95
   983063
 70
     0
 93
      148
310
00010143505055925155D49154D513D4915010
330
AB1
 94
        0
1001
ACAD
1000
AcRTDxfName
1000
ACIMINTSYSVAR
1000
AcRTDxfName
1000
ACIMINTSYSVAR
1000
AcRTDxfName
1000
ACIMINTSYSVAR
1000
AcRTDxfName
1000
ACIMINTSYSVAR
  0
ACAD_PROXY_OBJECT
  5
B41
330
AB1
100
AcDbProxyObject
 90
      499
 91
      510
 95
   983063
 70
     0
 93
      124
310
00010142D050525394D15495105094E0
330
AB1
 94
        0
1001
ACAD
1000
AcRTDxfName
1000
ACIMINTSYSVAR
1000
AcRTDxfName
1000
ACIMINTSYSVAR
1000
AcRTDxfName
1000
ACIMINTSYSVAR
1000
AcRTDxfName
1000
ACIMINTSYSVAR
  0
ACAD_PROXY_OBJECT
  5
B42
330
AB1
100
AcDbProxyObject
 90
      499
 91
      510
 95
   983063
 70
     0
 93
      148
310
00010143505054D0D153915554111055115010
330
AB1
 94
        0
1001
ACAD
1000
AcRTDxfName
1000
ACIMINTSYSVAR
1000
AcRTDxfName
1000
ACIMINTSYSVAR
1000
AcRTDxfName
1000
ACIMINTSYSVAR
1000
AcRTDxfName
1000
ACIMINTSYSVAR
  0
ACAD_PROXY_OBJECT
  5
B43
330
AB1
100
AcDbProxyObject
 90
      499
 91
      530
 95
   983063
 70
     0
 93
      172
310
00010143105054D5509054D4D3541196005035355420
330
AB1
 94
        0
1001
ACAD
1000
AcRTDxfName
1000
ACIMSTRSYSVAR
1000
AcRTDxfName
1000
ACIMSTRSYSVAR
1000
AcRTDxfName
1000
ACIMSTRSYSVAR
1000
AcRTDxfName
1000
ACIMSTRSYSVAR
  0
ACAD_PROXY_OBJECT
  5
B44
330
AB1
100
AcDbProxyObject
 90
      499
 91
      530
 95
   983063
 70
     0
 93
      172
310
00010142905054D0D15391541196005055343454E450
330
AB1
 94
        0
1001
ACAD
1000
AcRTDxfName
1000
ACIMSTRSYSVAR
1000
AcRTDxfName
1000
ACIMSTRSYSVAR
1000
AcRTDxfName
1000
ACIMSTRSYSVAR
1000
AcRTDxfName
1000
ACIMSTRSYSVAR
  0
ACAD_PROXY_OBJECT
  5
B45
330
AB1
100
AcDbProxyObject
 90
      499
 91
      510
 95
   983063
 70
     0
 93
      148
310
00010143505350555513D313D0D2D4D0D39010
330
AB1
 94
        0
1001
ACAD
1000
AcRTDxfName
1000
ACIMINTSYSVAR
1000
AcRTDxfName
1000
ACIMINTSYSVAR
1000
AcRTDxfName
1000
ACIMINTSYSVAR
1000
AcRTDxfName
1000
ACIMINTSYSVAR
  0
ACAD_PROXY_OBJECT
  5
B4A
330
AB1
100
AcDbProxyObject
 90
      499
 91
      549
 95
   983063
 70
     0
 93
       32
310
00010000
330
AB1
340
B47
330
B4C
330
B47
 94
        0
1001
ACAD
1000
AcRTDxfName
1000
ACAMGRCOMPDEF
1000
AcRTDxfName
1000
ACAMGRCOMPDEF
1000
AcRTDxfName
1000
ACAMGRCOMPDEF
1000
AcRTDxfName
1000
ACAMGRCOMPDEF
  0
ACAD_PROXY_OBJECT
  5
B4B
330
AB1
100
AcDbProxyObject
 90
      499
 91
      550
 95
   983063
 70
     0
 93
       18
310
000180
330
AB1
 94
        0
1001
ACAD
1000
AcRTDxfName
1000
ACCMCONTEXT
1000
AcRTDxfName
1000
ACCMCONTEXT
1000
AcRTDxfName
1000
ACCMCONTEXT
1000
AcRTDxfName
1000
ACCMCONTEXT
  0
ACAD_PROXY_OBJECT
  5
B4C
330
AB1
100
AcDbProxyObject
 90
      499
 91
      551
 95
   983063
 70
     0
 93
      111
310
0001014155148B540D1050055400
330
AB1
330
B4A
330
B4B
 94
        0
1001
ACAD
1000
AcRTDxfName
1000
ACAMCOMPDEF
1000
AcRTDxfName
1000
ACAMCOMPDEF
1000
AcRTDxfName
1000
ACAMCOMPDEF
1000
AcRTDxfName
1000
ACAMCOMPDEF
  0
ACAD_PROXY_OBJECT
  5
B4D
330
AB1
100
AcDbProxyObject
 90
      499
 91
      552
 95
   983063
 70
     0
 93
       40
310
000100AAAA
330
AB1
330
B4C
 94
        0
1001
ACAD
1000
AcRTDxfName
1000
ACAMCOMPDEFMGR
1000
AcRTDxfName
1000
ACAMCOMPDEFMGR
1000
AcRTDxfName
1000
ACAMCOMPDEFMGR
1000
AcRTDxfName
1000
ACAMCOMPDEFMGR
  0
ACAD_PROXY_OBJECT
  5
B4E
330
AB1
100
AcDbProxyObject
 90
      499
 91
      553
 95
   983063
 70
     0
 93
       96
310
0001901422000000000000AA
330
AB1
330
B4F
330
B4F
330
B4F
330
B4F
330
B4F
330
0
 94
        0
1001
ACAD
1000
AcRTDxfName
1000
AMCONTEXTMGR
1000
AcRTDxfName
1000
AMCONTEXTMGR
1000
AcRTDxfName
1000
AMCONTEXTMGR
1000
AcRTDxfName
1000
AMCONTEXTMGR
  0
ACAD_PROXY_OBJECT
  5
B4F
330
AB1
100
AcDbProxyObject
 90
      499
 91
      554
 95
   983063
 70
     0
 93
      141
310
00010000406AAAAAAAAAAAAAA9A9806AAAA0
330
AB1
330
B4E
330
B4C
 94
        0
1001
ACAD
1000
AcRTDxfName
1000
ACAMCONTEXTMODELER
1000
AcRTDxfName
1000
ACAMCONTEXTMODELER
1000
AcRTDxfName
1000
ACAMCONTEXTMODELER
1000
AcRTDxfName
1000
ACAMCONTEXTMODELER
  0
DICTIONARY
  5
AA8
102
{ACAD_REACTORS
330
AA7
102
}
330
AA7
100
AcDbDictionary
281
     1
  3
DWGSETTINGS
350
AA9
  3
TRANSSETTINGS
350
AAD
  0
ACAD_PROXY_OBJECT
  5
B5E
102
{ACAD_REACTORS
330
AA7
102
}
330
AA7
100
AcDbProxyObject
 90
      499
 91
      563
 95
   983063
 70
     0
 93
    16352
310
40903491013041105357CC10747A404C504414D5F314391E9013241105357CC90547A404CD04414D5F334190F9013441105357CD10343E404D504414D5F3540D0F9013641105357CD90247A404DD04414D5F374110F9013841105357CE10143E404E504414D5F397F641102324141505357CC4C10747A408D10505414D5F31
310
3140D0F902495041505357CC4C90747902408C13905414D5F304E41D1E902314E41505357CC5390E47A408C93905414D5F324E4151E902334E41505357CCD390643E408D13905414D5F344E40D0F902354E41505357CD5390343E408D93905414D5F364E4091E902374E41505357CDD390443E408E13905414D5F384E4050F
310
902394E41505357CE539FD90440CC9053906414D5F31304E41D1E90334414E41905357CC4C5390343E40D25413906414D5F31324E41D1E409044B4C494E41505357D0D310143D094112539193D08414D5F50415245464110F42D055241484D3541905357D093D4907479094115925155D08414D5F56494557534050F42D064
310
24548494E4441905357D253959FD90D415514905253105414D5F545240D0F4250348494441905357D2125110743D0940D59254D06414D5F56495341D1E4250650415244494D42505357D4105491125350343D0941949151911253509414D5F52454644494D4110F4257641105315149013441D1E411091531250134CFFFFFF
310
FF411092139590139CFFFFFFFF415092139594D06424548494E44CFFFFFFFF41109312511023441CFFFFFFFF411093D0541023441CFFFFFFFF411093D48C9055241484D354050F411093D48CD055241484D354091E411093D48D5055241484D35CFFFFFFFF411093D48DD055241484D354793C41109410541023441CFFFFFF
310
FF41109411561023441CFFFFFFFF411095111250135CFFFFFFFF4110D0530C90134CFFFFFFFF4110D0530CD01344091E4110D0530D5013441D1E4110D0530DD01344793C4110D1539390137CFFFFFFFF4110D15395D0137CFFFFFFFF4110D312539044B4C494ECFFFFFFFF4110D3D38C50130CFFFFFFFF4110D3D38C90131C
310
FFFFFFFF4110D3D38CD0132CFFFFFFFF4110D3D38D10132CFFFFFFFF411111549410134CFFFFFFFF411111551050134CFFFFFFFF4111125051D0135CFFFFFFFF411112531250135CFFFFFFFF411112535410650415244494DCFFFFFFFF411112535490652454644494DCFFFFFFFF41115613541023441CFFFFFFFF41119153
310
5390138CFFFFFFFF4151915354139013840CFFFFFFFF4151915354D41023441CFFFFFFFF4151915354D5102344140D0F41519153559390132CFFFFFFFF4151915355951013240D0F411193105510130CFFFFFFFF41119490549023441CFFFFFFFF4111D4931250135CFFFFFFFF4111D593125023441CFFFFFFFF4112105510
310
D0138CFFFFFFFF411212511390133CFFFFFFFF4112125115D0133CFFFFFFFF411213125390134CFFFFFFFF411213D0D390137CFFFFFFFF411213D0D5D0137CFFFFFFFF4112539193D04494E464FCFFFFFFFF411310511250134CFFFFFFFF411311505110135CFFFFFFFF419397D0921395902394ECFFFFFFFF419397D0D3D3
310
8C502304ECFFFFFFFF419397D0D3D38C902314ECFFFFFFFF419397D0D3D38CD02324ECFFFFFFFF419397D0D3D38D102324ECFFFFFFFF419397D0D15393902374ECFFFFFFFF419397D0D15395D02374ECFFFFFFFF419397D1125312502354ECFFFFFFFF419397D2105510D02384ECFFFFFFFF419397D2125113902334ECFFFF
310
FFFF419397D2125115D02334ECFFFFFFFF419397D3115051102354ECFFFFFFFF419397D391D25410349504ECFFFFFFFF419397D412105390334414ECFFFFFFFF419397D510D3D3902304ECFFFFFFFF419397D5121312502344ECFFFFFFFF419397D5131153902304ECFFFFFFFF419397D516150CD02364ECFFFFFFFF419397
310
D594131250332414ECFFFFFFFF411391D2541024950CFFFFFFFF411410530C9055241484D354050F411410530CD055241484D354091E411410530D5055241484D35CFFFFFFFF411410530DD055241484D354793C41141210539023441CFFFFFFFF411413D4D39013641D1E419413D4D49151901364151E411413D4D610136C
310
FFFFFFFF411414D150D023441CFFFFFFFF411490D1D390137CFFFFFFFF411490D1D5D0137CFFFFFFFF411491911250134CFFFFFFFF41149455149013441D1E411494D093D0130CFFFFFFFF4114D09492D013441D1E4114D0D15390137CFFFFFFFF4114D150D510134CFFFFFFFF4114D1531390137CFFFFFFFF4114D15315D0
310
137CFFFFFFFF4114D4D654D0130CFFFFFFFF4114D513125013441D1E4114D6508C50135CFFFFFFFF4114D6508C90135CFFFFFFFF4114D6508CD01354091E4114D6508D5013541D1E4114D6535390137CFFFFFFFF4114D65355D0137CFFFFFFFF411510D3D390130CFFFFFFFF411512131250134CFFFFFFFF411512550C9055
310
241484D354050F411512550CD055241484D354091E411512550D5055241484D35CFFFFFFFF411512550DD055241484D354793C411513115390130CFFFFFFFF415514905253105545241494CCFFFFFFFF41151492D390137CFFFFFFFF41151492D5D0137CFFFFFFFF411514931250134CFFFFFFFF411516150C5013640D0F41
310
1516150C9013640D0F411516150CD0136CFFFFFFFF411516150D5013641D1E411516150DD01364793C4115925155D0456494557CFFFFFFFF4115915112103484944CFFFFFFFF4115915115903564953CFFFFFFFF41159413125023241CFFFFFFFF411692569050134CFFFFFFFFAA7F5013F90A4391E41D1E4190F4151E4110
310
F40D0F4091E4050F4793C7F6
340
13
340
13
340
13
340
ACE
340
13
340
13
340
13
340
AD0
340
13
340
13
340
AD0
340
ACF
340
13
340
13
340
13
340
13
340
ACE
340
13
340
13
340
13
340
AD0
340
13
340
13
340
AD0
340
ACF
340
13
340
B62
340
13
340
13
340
13
340
13
340
13
340
ACE
340
13
340
13
340
13
340
B68
340
12
340
12
340
12
340
12
340
12
340
12
340
12
340
12
340
12
340
12
340
12
340
12
340
12
340
12
340
12
340
12
340
B69
340
12
340
12
340
12
340
12
340
12
340
12
340
ACF
340
12
340
12
340
12
340
12
340
12
340
12
340
12
340
12
340
13
340
12
340
12
340
12
340
12
340
12
340
12
340
12
340
12
340
B68
340
12
340
12
340
B69
340
12
340
12
340
12
340
12
340
12
340
12
340
12
340
12
340
12
340
B69
340
12
340
12
340
12
340
B68
340
12
340
12
340
12
340
12
340
12
340
B68
340
12
340
12
340
ACF
340
12
340
12
340
12
340
12
340
12
340
12
340
12
340
12
340
12
340
12
340
B69
340
12
340
12
340
B69
340
12
340
12
340
13
340
12
340
B69
340
12
340
12
340
B68
340
12
340
12
340
13
340
12
340
B69
340
12
340
12
340
B68
340
12
340
12
340
12
340
12
340
12
340
12
340
B69
340
12
340
12
340
12
340
12
340
12
340
12
340
12
340
12
340
12
340
12
340
ACF
340
B6A
 94
        0
1001
ACAD
1000
AcRTDxfName
1000
AMGOBJPROPCFG
1000
AcRTDxfName
1000
AMGOBJPROPCFG
1000
AcRTDxfName
1000
AMGOBJPROPCFG
1000
AcRTDxfName
1000
AMGOBJPROPCFG
  0
ACAD_PROXY_OBJECT
  5
B71
102
{ACAD_REACTORS
330
B6C
102
}
330
B6C
100
AcDbProxyObject
 90
      499
 91
      564
 95
   983063
 70
     0
 93
      253
310
43D1444494D454E53494F4E2C414D44545F2A5F44494D404A9012A404A9012A8
1001
ACAD
1000
AcRTDxfName
1000
ACAMGFILTERDAT
1000
AcRTDxfName
1000
ACAMGFILTERDAT
1000
AcRTDxfName
1000
ACAMGFILTERDAT
1000
AcRTDxfName
1000
ACAMGFILTERDAT
  0
ACAD_PROXY_OBJECT
  5
B70
102
{ACAD_REACTORS
330
B6C
102
}
330
B6C
100
AcDbProxyObject
 90
      499
 91
      564
 95
   983063
 70
     0
 93
      181
310
43D012A42D05357D191504B505357CA9012A404A9012A8
1001
ACAD
1000
AcRTDxfName
1000
ACAMGFILTERDAT
1000
AcRTDxfName
1000
ACAMGFILTERDAT
1000
AcRTDxfName
1000
ACAMGFILTERDAT
1000
AcRTDxfName
1000
ACAMGFILTERDAT
  0
ACAD_PROXY_OBJECT
  5
B6D
102
{ACAD_REACTORS
330
B6C
102
}
330
B6C
100
AcDbProxyObject
 90
      499
 91
      564
 95
   983063
 70
     0
 93
      133
310
43D054841544348404A9012A404A9012A8
1001
ACAD
1000
AcRTDxfName
1000
ACAMGFILTERDAT
1000
AcRTDxfName
1000
ACAMGFILTERDAT
1000
AcRTDxfName
1000
ACAMGFILTERDAT
1000
AcRTDxfName
1000
ACAMGFILTERDAT
  0
ACAD_PROXY_OBJECT
  5
B6E
102
{ACAD_REACTORS
330
B6C
102
}
330
B6C
100
AcDbProxyObject
 90
      499
 91
      564
 95
   983063
 70
     0
 93
      549
310
43D044C494E4549CE0B0E138B0A8B4E0B0A8B4E138B105357CE0B105357CE138B0A8B505357CE0B0A8B505357CE139012A404A910494E534552542C5354445041525432448
1001
ACAD
1000
AcRTDxfName
1000
ACAMGFILTERDAT
1000
AcRTDxfName
1000
ACAMGFILTERDAT
1000
AcRTDxfName
1000
ACAMGFILTERDAT
1000
AcRTDxfName
1000
ACAMGFILTERDAT
  0
ACAD_PROXY_OBJECT
  5
B6F
102
{ACAD_REACTORS
330
B6C
102
}
330
B6C
100
AcDbProxyObject
 90
      499
 91
      564
 95
   983063
 70
     0
 93
      909
310
43D6641434D46434652414D452C41434D444154554D5441524745542C41434D444154554D49442C41434D57454C4453594D2C41434D5355524653594D2C41434D4645415449442C41434D504152545245462C41434D42414C4C4F4F4E2C414D44544544474553594D404A9012A404A9012A8
1001
ACAD
1000
AcRTDxfName
1000
ACAMGFILTERDAT
1000
AcRTDxfName
1000
ACAMGFILTERDAT
1000
AcRTDxfName
1000
ACAMGFILTERDAT
1000
AcRTDxfName
1000
ACAMGFILTERDAT
  0
XRECORD
  5
C0D
102
{ACAD_REACTORS
330
63D
102
}
330
63D
100
AcDbXrecord
280
     1
300
ASK2000BIKOU>>A3横 1/10       <<                                                                                                                                                                                                                                                                                
  0
XRECORD
  5
63E
102
{ACAD_REACTORS
330
63D
102
}
330
63D
100
AcDbXrecord
280
     1
  1
DwgScale
  0
LAYER_INDEX
  5
B8E
102
{ACAD_REACTORS
330
B8D
102
}
330
B8D
100
AcDbIndex
 40
2457088.308539791
100
AcDbLayerIndex
  8
0
360
B8F
 90
      168
  8
3
360
B90
 90
        3
  8
SUNPO_0
360
B91
 90
        1
  8
Defpoints
360
B92
 90
        0
  8
HATCHING_0
360
B93
 90
        0
  8
TEXT_0
360
B94
 90
        7
  8
ASKPAPERSIZE
360
B95
 90
        1
  8
9図面枠
360
B96
 90
       26
  8
9図面文字
360
B97
 90
       49
  8
非表示破線
360
B98
 90
        8
  8
1
360
CA1
 90
        0
  0
ACAD_PROXY_OBJECT
  5
B54
102
{ACAD_REACTORS
330
B53
102
}
330
B53
100
AcDbProxyObject
 90
      499
 91
      557
 95
   983063
 70
     0
 93
      139
310
057356C1D35406406AA8FFFFFFFF09AA4040
330
17
330
0
330
0
 94
        0
1001
ACAD
1000
AcRTDxfName
1000
ACMDATAENTRYBLOCK
1000
AcRTDxfName
1000
ACMDATAENTRYBLOCK
1000
AcRTDxfName
1000
ACMDATAENTRYBLOCK
1000
AcRTDxfName
1000
ACMDATAENTRYBLOCK
  0
ACAD_PROXY_OBJECT
  5
AA9
102
{ACAD_REACTORS
330
AA8
102
}
330
AA8
100
AcDbProxyObject
 90
      499
 91
      505
 95
   983063
 70
     0
 93
     2627
310
4050B44574753455454494E4753A0E8482A68AA6A88882A08829CA69284A1A0A723A0A92920ACA0A8419983E1A1ABE1B1820C868A9C829C8E82A12686AF87260F862666A8321A2A72224A0A50000000000000701FA0E868A9C889282A682A16605C6AF8625C60F8625C6A83A1A2A72224A9AA250000000000000601FA0C868
310
A9C988A9C940000000000001C07E8321A2A727A323250000000000000701FA128698929C82A4A482B282A1C605C62646AF8605C646AF8605C6A8421A624A722AA2CA820A82AC2624A722A1288AE8EAAA68682988A94283A620A9AA27A12520A80982109A82968AAC928AAE9FA04832922AB24A9A4A0A809820AA68682988A8
310
2A08627462608429AA20A72220A92220A8220A729A4A12A8929A8AA6A8829AA0941C69C1EC68434E68283AB22A929A4A7A720A82989A971818220F688AE8EA68AA8A8929C8EA68A9C88FA0
1001
ACAD
1000
AcRTDxfName
1000
AMGSETTINGSOBJ
1000
AcRTDxfName
1000
AMGSETTINGSOBJ
1000
AcRTDxfName
1000
AMGSETTINGSOBJ
1000
AcRTDxfName
1000
AMGSETTINGSOBJ
  0
ACAD_PROXY_OBJECT
  5
AAD
102
{ACAD_REACTORS
330
AA8
102
}
330
AA8
100
AcDbProxyObject
 90
      499
 91
      505
 95
   983063
 70
     0
 93
      852
310
4050D5452414E5353455454494E4753A2488A482AE929C8EA8A4829CA69882A8929E9C0C00800050D4F524947494E414C4C595F4F4E0600400008529A7AAA921A2A620A723A0A81A52827212AAA0A48AA68AA4AC8A0C0080001107B44574753455454494E4753454E447D0
1001
ACAD
1000
AcRTDxfName
1000
AMGSETTINGSOBJ
1000
AcRTDxfName
1000
AMGSETTINGSOBJ
1000
AcRTDxfName
1000
AMGSETTINGSOBJ
1000
AcRTDxfName
1000
AMGSETTINGSOBJ
  0
IDBUFFER
  5
B8F
330
B8E
100
AcDbIdBuffer
330
191
330
192
330
193
330
194
330
195
330
196
330
197
330
198
330
199
330
19B
330
19C
330
19D
330
19E
330
19F
330
1A0
330
1A2
330
1A3
330
1A4
330
1A6
330
1A7
330
1A8
330
1A9
330
1AA
330
1AC
330
1AD
330
1AE
330
1AF
330
1B0
330
1B2
330
1B3
330
1B4
330
1B5
330
1B6
330
1B8
330
1B9
330
1BA
330
1BB
330
1BC
330
1BF
330
1C0
330
1C1
330
1C2
330
1C3
330
1C4
330
1C5
330
1C6
330
1C7
330
1C8
330
1C9
330
1CA
330
1CB
330
1CC
330
1CD
330
1CE
330
1CF
330
1D0
330
1D1
330
1D2
330
1D3
330
1D4
330
1D5
330
1D6
330
1D7
330
1D8
330
1D9
330
1DA
330
1DB
330
1DC
330
1DD
330
1DE
330
1DF
330
1E0
330
1E1
330
1E2
330
1E3
330
1E4
330
1E5
330
1E6
330
1E7
330
1E8
330
1E9
330
1EA
330
1EB
330
1EC
330
1ED
330
1EE
330
1EF
330
1F0
330
1F1
330
1F2
330
1F3
330
1F4
330
1F5
330
1F6
330
1F7
330
1F8
330
1F9
330
1FA
330
1FB
330
1FC
330
1FD
330
1FE
330
1FF
330
200
330
201
330
202
330
203
330
204
330
205
330
206
330
207
330
209
330
20A
330
217
330
218
330
219
330
244
330
245
330
59B
330
5A1
330
5A2
330
5A3
330
5A4
330
5AF
330
5B0
330
5B1
330
5B2
330
5B3
330
5B7
330
5B8
330
5B9
330
5BA
330
5BB
330
5BC
330
5BD
330
5BE
330
77D
330
79B
330
7E9
330
7EA
330
7EB
330
7EC
330
7ED
330
7EE
330
8D0
330
8E7
330
8FE
330
92C
330
94F
330
966
330
97D
330
994
330
9B2
330
9C9
330
9FF
330
A00
330
A06
330
A07
330
A0E
330
A11
330
A18
330
A30
330
A31
330
A38
330
A3A
330
B8B
330
BCA
330
C0C
  0
IDBUFFER
  5
B90
330
B8E
100
AcDbIdBuffer
330
D9B
330
167
330
D48
  0
IDBUFFER
  5
B91
330
B8E
100
AcDbIdBuffer
330
22E
  0
IDBUFFER
  5
B92
330
B8E
100
AcDbIdBuffer
  0
IDBUFFER
  5
B93
330
B8E
100
AcDbIdBuffer
  0
IDBUFFER
  5
B94
330
B8E
100
AcDbIdBuffer
330
234
330
235
330
243
330
246
330
261
330
509
330
BAF
  0
IDBUFFER
  5
B95
330
B8E
100
AcDbIdBuffer
330
24D
  0
IDBUFFER
  5
B96
330
B8E
100
AcDbIdBuffer
330
2D5
330
2D8
330
2D9
330
2DD
330
2E4
330
2EE
330
2F0
330
2F2
330
2F3
330
2F4
330
2F5
330
2F6
330
2F9
330
2FB
330
2FC
330
2FD
330
2FE
330
2FF
330
300
330
301
330
307
330
308
330
30A
330
30F
330
310
330
311
  0
IDBUFFER
  5
B97
330
B8E
100
AcDbIdBuffer
330
2D1
330
2D2
330
2D3
330
2D4
330
2D6
330
2D7
330
2DA
330
2DB
330
2DC
330
2E6
330
2E7
330
2E8
330
2E9
330
2EA
330
2EB
330
2EC
330
2ED
330
2F1
330
2F8
330
2FA
330
302
330
303
330
304
330
305
330
306
330
309
330
30B
330
30C
330
30D
330
30E
330
312
330
313
330
314
330
315
330
316
330
317
330
318
330
319
330
31A
330
31B
330
31C
330
31D
330
31E
330
31F
330
320
330
321
330
322
330
323
330
324
  0
IDBUFFER
  5
B98
330
B8E
100
AcDbIdBuffer
330
2DE
330
2DF
330
2E0
330
2E2
330
2E3
330
2E5
330
2EF
330
2F7
  0
IDBUFFER
  5
CA1
330
B8E
100
AcDbIdBuffer
  0
ENDSEC
  0
EOF
