  0
SECTION
  2
HEADER
  9
$ACADVER
  1
AC1015
  9
$ACADMAINTVER
 70
     6
  9
$DWGCODEPAGE
  3
ANSI_932
  9
$INSBASE
 10
0.0
 20
0.0
 30
0.0
  9
$EXTMIN
 10
0.0
 20
-800.9237860362527
 30
0.0
  9
$EXTMAX
 10
8400.0
 20
5940.0
 30
0.0
  9
$LIMMIN
 10
0.0
 20
0.0
  9
$LIMMAX
 10
8400.0
 20
5940.0
  9
$ORTHOMODE
 70
     1
  9
$REGENMODE
 70
     0
  9
$FILLMODE
 70
     1
  9
$QTEXTMODE
 70
     0
  9
$MIRRTEXT
 70
     1
  9
$LTSCALE
 40
20.0
  9
$ATTMODE
 70
     1
  9
$TEXTSIZE
 40
60.0
  9
$TRACEWID
 40
9.0
  9
$TEXTSTYLE
  7
STD
  9
$CLAYER
  8
0
  9
$CELTYPE
  6
CONTINUOUS
  9
$CECOLOR
 62
     7
  9
$CELTSCALE
 40
1.0
  9
$DISPSILH
 70
     0
  9
$DIMSCALE
 40
20.0
  9
$DIMASZ
 40
2.0
  9
$DIMEXO
 40
1.0
  9
$DIMDLI
 40
8.0
  9
$DIMRND
 40
0.0
  9
$DIMDLE
 40
2.0
  9
$DIMEXE
 40
1.0
  9
$DIMTP
 40
0.0
  9
$DIMTM
 40
0.0
  9
$DIMTXT
 40
2.0
  9
$DIMCEN
 40
64.542
  9
$DIMTSZ
 40
0.0
  9
$DIMTOL
 70
     0
  9
$DIMLIM
 70
     0
  9
$DIMTIH
 70
     0
  9
$DIMTOH
 70
     0
  9
$DIMSE1
 70
     0
  9
$DIMSE2
 70
     0
  9
$DIMTAD
 70
     0
  9
$DIMZIN
 70
     8
  9
$DIMBLK
  1

  9
$DIMASO
 70
     1
  9
$DIMSHO
 70
     0
  9
$DIMPOST
  1

  9
$DIMAPOST
  1

  9
$DIMALT
 70
     0
  9
$DIMALTD
 70
     2
  9
$DIMALTF
 40
25.4
  9
$DIMLFAC
 40
1.0
  9
$DIMTOFL
 70
     1
  9
$DIMTVP
 40
1.0
  9
$DIMTIX
 70
     0
  9
$DIMSOXD
 70
     0
  9
$DIMSAH
 70
     0
  9
$DIMBLK1
  1

  9
$DIMBLK2
  1
ARRI
  9
$DIMSTYLE
  2
ASKSTANDARD
  9
$DIMCLRD
 70
     3
  9
$DIMCLRE
 70
     3
  9
$DIMCLRT
 70
     3
  9
$DIMTFAC
 40
0.7
  9
$DIMGAP
 40
0.09
  9
$DIMJUST
 70
     0
  9
$DIMSD1
 70
     0
  9
$DIMSD2
 70
     0
  9
$DIMTOLJ
 70
     1
  9
$DIMTZIN
 70
     0
  9
$DIMALTZ
 70
     0
  9
$DIMALTTZ
 70
     0
  9
$DIMUPT
 70
     0
  9
$DIMDEC
 70
     2
  9
$DIMTDEC
 70
     2
  9
$DIMALTU
 70
     2
  9
$DIMALTTD
 70
     2
  9
$DIMTXSTY
  7
STD
  9
$DIMAUNIT
 70
     0
  9
$DIMADEC
 70
     0
  9
$DIMALTRND
 40
0.0
  9
$DIMAZIN
 70
     0
  9
$DIMDSEP
 70
    46
  9
$DIMATFIT
 70
     3
  9
$DIMFRAC
 70
     0
  9
$DIMLDRBLK
  1

  9
$DIMLUNIT
 70
     2
  9
$DIMLWD
 70
    -2
  9
$DIMLWE
 70
    -2
  9
$DIMTMOVE
 70
     2
  9
$LUNITS
 70
     2
  9
$LUPREC
 70
     2
  9
$SKETCHINC
 40
0.1
  9
$FILLETRAD
 40
0.0
  9
$AUNITS
 70
     0
  9
$AUPREC
 70
     2
  9
$MENU
  1
sk
  9
$ELEVATION
 40
0.0
  9
$PELEVATION
 40
0.0
  9
$THICKNESS
 40
0.0
  9
$LIMCHECK
 70
     0
  9
$CHAMFERA
 40
2.0
  9
$CHAMFERB
 40
2.0
  9
$CHAMFERC
 40
0.0
  9
$CHAMFERD
 40
0.0
  9
$SKPOLY
 70
     0
  9
$TDCREATE
 40
2449288.663229167
  9
$TDUCREATE
 40
2449288.288229167
  9
$TDUPDATE
 40
2458698.61608522
  9
$TDUUPDATE
 40
2458698.24108522
  9
$TDINDWG
 40
0.178121412
  9
$TDUSRTIMER
 40
0.0046471296
  9
$USRTIMER
 70
     1
  9
$ANGBASE
 50
0.0
  9
$ANGDIR
 70
     0
  9
$PDMODE
 70
     3
  9
$PDSIZE
 40
0.0
  9
$PLINEWID
 40
0.0
  9
$SPLFRAME
 70
     0
  9
$SPLINETYPE
 70
     6
  9
$SPLINESEGS
 70
     8
  9
$HANDSEED
  5
17B0
  9
$SURFTAB1
 70
     6
  9
$SURFTAB2
 70
     6
  9
$SURFTYPE
 70
     6
  9
$SURFU
 70
     6
  9
$SURFV
 70
     6
  9
$UCSBASE
  2

  9
$UCSNAME
  2

  9
$UCSORG
 10
0.0
 20
0.0
 30
0.0
  9
$UCSXDIR
 10
1.0
 20
0.0
 30
0.0
  9
$UCSYDIR
 10
0.0
 20
1.0
 30
0.0
  9
$UCSORTHOREF
  2

  9
$UCSORTHOVIEW
 70
     0
  9
$UCSORGTOP
 10
0.0
 20
0.0
 30
0.0
  9
$UCSORGBOTTOM
 10
0.0
 20
0.0
 30
0.0
  9
$UCSORGLEFT
 10
0.0
 20
0.0
 30
0.0
  9
$UCSORGRIGHT
 10
0.0
 20
0.0
 30
0.0
  9
$UCSORGFRONT
 10
0.0
 20
0.0
 30
0.0
  9
$UCSORGBACK
 10
0.0
 20
0.0
 30
0.0
  9
$PUCSBASE
  2

  9
$PUCSNAME
  2

  9
$PUCSORG
 10
0.0
 20
0.0
 30
0.0
  9
$PUCSXDIR
 10
1.0
 20
0.0
 30
0.0
  9
$PUCSYDIR
 10
0.0
 20
1.0
 30
0.0
  9
$PUCSORTHOREF
  2

  9
$PUCSORTHOVIEW
 70
     0
  9
$PUCSORGTOP
 10
0.0
 20
0.0
 30
0.0
  9
$PUCSORGBOTTOM
 10
0.0
 20
0.0
 30
0.0
  9
$PUCSORGLEFT
 10
0.0
 20
0.0
 30
0.0
  9
$PUCSORGRIGHT
 10
0.0
 20
0.0
 30
0.0
  9
$PUCSORGFRONT
 10
0.0
 20
0.0
 30
0.0
  9
$PUCSORGBACK
 10
0.0
 20
0.0
 30
0.0
  9
$USERI1
 70
     0
  9
$USERI2
 70
     0
  9
$USERI3
 70
     1
  9
$USERI4
 70
     0
  9
$USERI5
 70
    15
  9
$USERR1
 40
0.0
  9
$USERR2
 40
0.0
  9
$USERR3
 40
0.0
  9
$USERR4
 40
0.0
  9
$USERR5
 40
0.0
  9
$WORLDVIEW
 70
     1
  9
$SHADEDGE
 70
     3
  9
$SHADEDIF
 70
    70
  9
$TILEMODE
 70
     1
  9
$MAXACTVP
 70
    16
  9
$PINSBASE
 10
0.0
 20
0.0
 30
0.0
  9
$PLIMCHECK
 70
     0
  9
$PEXTMIN
 10
1.000000000000000E+20
 20
1.000000000000000E+20
 30
1.000000000000000E+20
  9
$PEXTMAX
 10
-1.000000000000000E+20
 20
-1.000000000000000E+20
 30
-1.000000000000000E+20
  9
$PLIMMIN
 10
0.0
 20
0.0
  9
$PLIMMAX
 10
0.0
 20
0.0
  9
$UNITMODE
 70
     0
  9
$VISRETAIN
 70
     0
  9
$PLINEGEN
 70
     0
  9
$PSLTSCALE
 70
     0
  9
$TREEDEPTH
 70
  3020
  9
$CMLSTYLE
  2
STANDARD
  9
$CMLJUST
 70
     0
  9
$CMLSCALE
 40
1.0
  9
$PROXYGRAPHICS
 70
     1
  9
$MEASUREMENT
 70
     0
  9
$CELWEIGHT
370
    -1
  9
$ENDCAPS
280
     0
  9
$JOINSTYLE
280
     0
  9
$LWDISPLAY
290
     0
  9
$INSUNITS
 70
     0
  9
$HYPERLINKBASE
  1

  9
$STYLESHEET
  1
モノクロ.ctb
  9
$XEDIT
290
     1
  9
$CEPSNTYPE
380
     0
  9
$PSTYLEMODE
290
     1
  9
$FINGERPRINTGUID
  2
{135C9A12-FE90-410B-9E55-79037E2B6B76}
  9
$VERSIONGUID
  2
{6806770C-B98A-4E8D-84D2-0B670635F5D5}
  9
$EXTNAMES
290
     1
  9
$PSVPSCALE
 40
0.0
  9
$OLESTARTUP
290
     0
  0
ENDSEC
  0
SECTION
  2
CLASSES
  0
CLASS
  1
DICTIONARYVAR
  2
AcDbDictionaryVar
  3
ObjectDBX Classes
 90
        0
280
     0
281
     0
  0
CLASS
  1
ACDBDICTIONARYWDFLT
  2
AcDbDictionaryWithDefault
  3
ObjectDBX Classes
 90
        0
280
     0
281
     0
  0
CLASS
  1
ACDBPLACEHOLDER
  2
AcDbPlaceHolder
  3
ObjectDBX Classes
 90
        0
280
     0
281
     0
  0
CLASS
  1
LAYOUT
  2
AcDbLayout
  3
ObjectDBX Classes
 90
        0
280
     0
281
     0
  0
CLASS
  1
PLOTSETTINGS
  2
AcDbPlotSettings
  3
ObjectDBX Classes
 90
        0
280
     0
281
     0
  0
CLASS
  1
ACME_DOCUMENT
  2
AcMeDbDoc
  3
AcMeServices
 90
   -65536
280
     1
281
     0
  0
CLASS
  1
AMGSETTINGSOBJ
  2
AmgSettingsObj
  3
"AcadM|Product Description: AutoCAD Mechanical 2000|Company: Autodesk"
 90
        0
280
     1
281
     0
  0
CLASS
  1
ACMESCOPE
  2
AcMeScope
  3
AcMeServices
 90
        0
280
     1
281
     0
  0
CLASS
  1
ACMECOMMANDHISTORY
  2
AcMeCommandHistory
  3
AcMeServices
 90
        0
280
     1
281
     0
  0
CLASS
  1
ACIMSYSVARMAN
  2
AcImSysVarManager
  3
AcMeServices
 90
        0
280
     1
281
     0
  0
CLASS
  1
ACIMREALSYSVAR
  2
AcImRealSysVar
  3
AcMeServices
 90
        0
280
     1
281
     0
  0
CLASS
  1
ACIMINTSYSVAR
  2
AcImIntSysVar
  3
AcMeServices
 90
        0
280
     1
281
     0
  0
CLASS
  1
ACMEDRAWINGMAN
  2
AcMeDrawingMan
  3
AcMeServices
 90
        0
280
     1
281
     0
  0
CLASS
  1
ACMEVIEW
  2
AcMeView
  3
AcMeServices
 90
        0
280
     1
281
     0
  0
CLASS
  1
ACDBENTITYCACHE
  2
AcMeEntityCache
  3
AcMeServices
 90
   -65536
280
     1
281
     0
  0
CLASS
  1
GSMANAGER
  2
AcMeGSManager
  3
AcMeServices
 90
   -65536
280
     1
281
     0
  0
CLASS
  1
AmdtInternalReactor
  2
AmdtInternalReactor
  3
AcMeServices
 90
   -65536
280
     1
281
     0
  0
CLASS
  1
ACMESTATEMGR
  2
AcMeStateMgr
  3
AcMeServices
 90
        0
280
     1
281
     0
  0
CLASS
  1
ACGREFMASTER
  2
AcGrefMaster
  3
AcAttribServices
 90
   -65536
280
     1
281
     0
  0
CLASS
  1
AM_DRAWING_MGR
  2
AcDmDwgMgr
  3
AcMechDwgViewMgmt
 90
        0
280
     1
281
     0
  0
CLASS
  1
AM_DWG_DOCUMENT
  2
AcDmDwgDocument
  3
AcMechDwgViewMgmt
 90
        0
280
     1
281
     0
  0
CLASS
  1
AM_DWG_SHEET
  2
AcDmSheet
  3
AcMechDwgViewMgmt
 90
        0
280
     1
281
     0
  0
CLASS
  1
AM_VIEWDIMPARMAP
  2
AcDmViewDimParMap
  3
AcMechDwgViewMgmt
 90
        0
280
     1
281
     0
  0
CLASS
  1
AM_DWGMGR_NAME
  2
AcDmDwgMgrName
  3
AcMechDwgViewMgmt
 90
        0
280
     1
281
     0
  0
CLASS
  1
ACME_DATABASE
  2
AcMeDbDatabase
  3
AcMeServices
 90
   -65536
280
     1
281
     0
  0
CLASS
  1
ACRFINSADJUSTERMGR
  2
AcRfInsAdjusterMgr
  3
AcMeServices
 90
   -65536
280
     1
281
     0
  0
CLASS
  1
ACGREFMASTER
  2
AcGrefacadMaster
  3
AcGrefServices
 90
        0
280
     1
281
     0
  0
CLASS
  1
AMDTMENUSTATEMGR
  2
AmdtMenuStateMgr
  3
McadcomServices
 90
   -65536
280
     1
281
     0
  0
CLASS
  1
AMDTMCOMMENUSTATE
  2
AmdtMcomMenuState
  3
McadcomServices
 90
   -65536
280
     1
281
     0
  0
CLASS
  1
ASAPP
  2
AcAsAppObject
  3
AutoSurfServices
 90
        0
280
     1
281
     0
  0
CLASS
  1
IM_STATIC_MAN
  2
AcImStaticVarManager
  3
AcMeServices
 90
        0
280
     1
281
     0
  0
CLASS
  1
ACIMSTRSYSVAR
  2
AcImStrSysVar
  3
AcMeServices
 90
        0
280
     1
281
     0
  0
CLASS
  1
ACIMDBLSTATICVAR
  2
AcImDblStaticVar
  3
AcMeServices
 90
        0
280
     1
281
     0
  0
CLASS
  1
ACIMSTRSTATICVAR
  2
AcImStrStaticVar
  3
AcMeServices
 90
        0
280
     1
281
     0
  0
CLASS
  1
ACIMINTSTATICVAR
  2
AcImIntStaticVar
  3
AcMeServices
 90
        0
280
     1
281
     0
  0
CLASS
  1
ACADGREFMODULE
  2
AcAdGrefModule
  3
AdGrefServices
 90
        0
280
     1
281
     0
  0
CLASS
  1
AMIMASTER
  2
AmiMaster
  3
AmiServices
 90
        0
280
     1
281
     0
  0
CLASS
  1
ACASGREFMASTER
  2
AcAsGrefMaster
  3
AutoSurfResolverServices
 90
        0
280
     1
281
     0
  0
CLASS
  1
MAPIAMMOUDLE
  2
MApiAmModule
  3
MApiAmServices
 90
        0
280
     1
281
     0
  0
CLASS
  1
AMDTDMMENUSTATE
  2
AmdtDmMenuState
  3
AcMechDwgViewMgmt
 90
   -65536
280
     1
281
     0
  0
CLASS
  1
AMDTADMENUSTATE
  2
AmdtAdMenuState
  3
DesignerServices
 90
   -65536
280
     1
281
     0
  0
CLASS
  1
ADAPPL
  2
AcAdAppl
  3
DesignerServices
 90
        0
280
     1
281
     0
  0
CLASS
  1
DEPMGR
  2
AcAdDepMgr
  3
DesignerServices
 90
        0
280
     1
281
     0
  0
CLASS
  1
PARAMMGR
  2
AcAdParamMgr
  3
DesignerServices
 90
        0
280
     1
281
     0
  0
CLASS
  1
PARAMSCOPE
  2
AcAdParamScope
  3
DesignerServices
 90
        0
280
     1
281
     0
  0
CLASS
  1
NAMEDAPPL
  2
AcAdNamedAppl
  3
DesignerServices
 90
        0
280
     1
281
     0
  0
CLASS
  1
ADHNTMPLT
  2
AdHoleNoteTemplateMgr
  3
DesignerServices
 90
        0
280
     1
281
     0
  0
CLASS
  1
AM_HNTEMPLATE_MGR_NAME
  2
AdHoleNoteTemplateMgrName
  3
DesignerServices
 90
        0
280
     1
281
     0
  0
CLASS
  1
AMDTAMMENUSTATE
  2
AmdtAmMenuState
  3
DesignerAssemblies
 90
   -65536
280
     1
281
     0
  0
CLASS
  1
ACAMPROJECT
  2
AcAmProject
  3
DesignerAssemblies
 90
        0
280
     1
281
     0
  0
CLASS
  1
ACAMGRCOMPDEF
  2
AcAmGrCompDef
  3
DesignerAssemblies
 90
        0
280
     1
281
     0
  0
CLASS
  1
ACCMCONTEXT
  2
AcCmContext
  3
DesignerAssemblies
 90
        0
280
     1
281
     0
  0
CLASS
  1
ACAMCOMPDEF
  2
AcAmCompDef
  3
DesignerAssemblies
 90
        0
280
     1
281
     0
  0
CLASS
  1
ACAMCOMPDEFMGR
  2
AcAmCompDefMgr
  3
DesignerAssemblies
 90
        0
280
     1
281
     0
  0
CLASS
  1
AMCONTEXTMGR
  2
AcAmContextMgr
  3
DesignerAssemblies
 90
        0
280
     1
281
     0
  0
CLASS
  1
ACAMCONTEXTMODELER
  2
AcAmContextModeler
  3
DesignerAssemblies
 90
        0
280
     1
281
     0
  0
CLASS
  1
MAPIADMODULE
  2
MApiAdModule
  3
MApiAdServices
 90
        0
280
     1
281
     0
  0
CLASS
  1
ACMDATADICTIONARY
  2
AcmDataDictionary
  3
"AcmSymBB|Product Description: AutoCAD Mechanical 2000|Company: Autodesk"
 90
        0
280
     1
281
     0
  0
CLASS
  1
ACMDATAENTRYBLOCK
  2
AcmDataEntryBlock
  3
"AcmSymBB|Product Description: AutoCAD Mechanical 2000|Company: Autodesk"
 90
        0
280
     1
281
     0
  0
CLASS
  1
AMDTBROWSERDBTAB
  2
AmdtBrowserDbTab
  3
McadcomServices
 90
   -65536
280
     1
281
     0
  0
CLASS
  1
CBROWSERAPPOBJECT
  2
CBrowserAppObject
  3
McadcomServices
 90
   -65536
280
     1
281
     0
  0
CLASS
  1
DM_PLACEHOLDER
  2
AcDmSelsetPlaceholder
  3
AcMechDwgViewMgmt
 90
   -65536
280
     1
281
     0
  0
CLASS
  1
CATALOGSTATE
  2
AcAmCatalogState
  3
DesignerAssemblies
 90
        0
280
     1
281
     0
  0
CLASS
  1
ACAMGRCOMPDEFSET
  2
AcAmGrCompDefSet
  3
DesignerAssemblies
 90
   -65536
280
     1
281
     0
  0
CLASS
  1
AMGOBJPROPCFG
  2
AmgObjPropCfg
  3
"AmgLay|Product Description: AutoCAD Mechanical 2000|Company: Autodesk"
 90
        1
280
     1
281
     0
  0
CLASS
  1
ACAMGFILTERDAT
  2
AcAmgFilterDat
  3
"AcadM|Product Description: AutoCAD Mechanical 2000|Company: Autodesk"
 90
        0
280
     1
281
     0
  0
CLASS
  1
ACRFATTGENMGR
  2
AcRfAttGeneralMgr
  3
AcAttribServices
 90
   -65536
280
     1
281
     0
  0
CLASS
  1
LAYER_INDEX
  2
AcDbLayerIndex
  3
ObjectDBX Classes
 90
        0
280
     0
281
     0
  0
CLASS
  1
IDBUFFER
  2
AcDbIdBuffer
  3
ObjectDBX Classes
 90
        0
280
     0
281
     0
  0
CLASS
  1
TABLESTYLE
  2
AcDbTableStyle
  3
ObjectDBX Classes
 90
     4095
280
     0
281
     0
  0
CLASS
  1
SORTENTSTABLE
  2
AcDbSortentsTable
  3
ObjectDBX Classes
 90
        0
280
     0
281
     0
  0
CLASS
  1
MATERIAL
  2
AcDbMaterial
  3
ObjectDBX Classes
 90
     1153
280
     0
281
     0
  0
CLASS
  1
VISUALSTYLE
  2
AcDbVisualStyle
  3
ObjectDBX Classes
 90
     4095
280
     0
281
     0
  0
CLASS
  1
SCALE
  2
AcDbScale
  3
ObjectDBX Classes
 90
     1153
280
     0
281
     0
  0
CLASS
  1
MLEADERSTYLE
  2
AcDbMLeaderStyle
  3
ACDB_MLEADERSTYLE_CLASS
 90
     4095
280
     0
281
     0
  0
CLASS
  1
CELLSTYLEMAP
  2
AcDbCellStyleMap
  3
ObjectDBX Classes
 90
     1152
280
     0
281
     0
  0
CLASS
  1
AEC_REFEDIT_STATUS_TRACKER
  2
AecDbRefEditStatusTracker
  3
AecArchBase60|Product Desc: Autodesk Architectural Desktop 2007 |Company: Autodesk,Inc. |WEB Address: www.autodesk.com
 90
   -65407
280
     1
281
     0
  0
CLASS
  1
NPOCOLLECTION
  2
AcDbImpNonPersistentObjectsCollection
  3
ObjectDBX Classes
 90
   -64383
280
     1
281
     0
  0
ENDSEC
  0
SECTION
  2
TABLES
  0
TABLE
  2
VPORT
  5
8
330
0
100
AcDbSymbolTable
 70
     1
  0
VPORT
  5
1432
330
8
100
AcDbSymbolTableRecord
100
AcDbViewportTableRecord
  2
*Active
 70
     0
 10
0.0
 20
0.0
 11
1.0
 21
1.0
 12
4235.556289279644
 22
2425.783199688225
 13
0.0
 23
0.0
 14
1.0
 24
1.0
 15
0.0
 25
0.0
 16
0.0
 26
0.0
 36
1.0
 17
0.0
 27
0.0
 37
0.0
 40
4776.626983137092
 41
2.197956577266922
 42
50.0
 43
0.0
 44
0.0
 50
0.0
 51
0.0
 71
    16
 72
  2000
 73
     1
 74
     1
 75
     0
 76
     0
 77
     0
 78
     0
281
     0
 65
     1
110
0.0
120
0.0
130
0.0
111
1.0
121
0.0
131
0.0
112
0.0
122
1.0
132
0.0
 79
     0
146
0.0
  0
ENDTAB
  0
TABLE
  2
LTYPE
  5
5
330
0
100
AcDbSymbolTable
 70
    24
  0
LTYPE
  5
11
330
5
100
AcDbSymbolTableRecord
100
AcDbLinetypeTableRecord
  2
BYBLOCK
 70
     0
  3

 72
    65
 73
     0
 40
0.0
  0
LTYPE
  5
12
330
5
100
AcDbSymbolTableRecord
100
AcDbLinetypeTableRecord
  2
BYLAYER
 70
     0
  3

 72
    65
 73
     0
 40
0.0
  0
LTYPE
  5
13
330
5
100
AcDbSymbolTableRecord
100
AcDbLinetypeTableRecord
  2
CONTINUOUS
 70
     0
  3
Solid line
 72
    65
 73
     0
 40
0.0
  0
LTYPE
  5
2B
330
5
100
AcDbSymbolTableRecord
100
AcDbLinetypeTableRecord
  2
CENS
 70
     0
  3
(一点鎖線１)---- - ---- - ---- - ---- - ---- - 
 72
    65
 73
     4
 40
13.0
 49
10.0
 74
     0
 49
-1.0
 74
     0
 49
1.0
 74
     0
 49
-1.0
 74
     0
  0
LTYPE
  5
2C
330
5
100
AcDbSymbolTableRecord
100
AcDbLinetypeTableRecord
  2
HIDS
 70
     0
  3
(破線１)- - - - - - - - - - - - - - - - - - - -
 72
    65
 73
     2
 40
2.5
 49
1.5
 74
     0
 49
-1.0
 74
     0
  0
LTYPE
  5
3AC
330
5
100
AcDbSymbolTableRecord
100
AcDbLinetypeTableRecord
  2
DIMENSION
 70
     0
  3
__________________________________________________
 72
    65
 73
     2
 40
0.0000000000000002
 49
0.0000000000000001
 74
     0
 49
0.0000000000000001
 74
     0
  0
LTYPE
  5
BA1
330
5
100
AcDbSymbolTableRecord
100
AcDbLinetypeTableRecord
  2
DRAFT
 70
     0
  3

 72
    65
 73
     2
 40
0.000000000000002
 49
0.000000000000001
 74
     0
 49
0.000000000000001
 74
     0
  0
LTYPE
  5
E15
330
5
100
AcDbSymbolTableRecord
100
AcDbLinetypeTableRecord
  2
HIDDEN
 70
     0
  3
Hidden __ __ __ __ __ __ __ __ __ __ __ __ __ _
 72
    65
 73
     2
 40
0.375
 49
0.25
 74
     0
 49
-0.125
 74
     0
  0
LTYPE
  5
E16
330
5
100
AcDbSymbolTableRecord
100
AcDbLinetypeTableRecord
  2
PHANTOM2
 70
     0
  3
Phantom (.5x) ___ _ _ ___ _ _ ___ _ _ ___ _ _
 72
    65
 73
     6
 40
1.25
 49
0.625
 74
     0
 49
-0.125
 74
     0
 49
0.125
 74
     0
 49
-0.125
 74
     0
 49
0.125
 74
     0
 49
-0.125
 74
     0
  0
LTYPE
  5
E17
330
5
100
AcDbSymbolTableRecord
100
AcDbLinetypeTableRecord
  2
CENTER
 70
     0
  3
Center ____ _ ____ _ ____ _ ____ _ ____ _ ____
 72
    65
 73
     4
 40
2.0
 49
1.25
 74
     0
 49
-0.25
 74
     0
 49
0.25
 74
     0
 49
-0.25
 74
     0
  0
LTYPE
  5
E64
330
5
100
AcDbSymbolTableRecord
100
AcDbLinetypeTableRecord
  2
ASULTYPE
 70
     0
  3
実線
 72
    65
 73
     2
 40
3.0
 49
2.5
 74
     0
 49
0.5
 74
     0
  0
LTYPE
  5
E65
330
5
100
AcDbSymbolTableRecord
100
AcDbLinetypeTableRecord
  2
ASVLTYPE
 70
     0
  3
__ __ __ __ __ __ __ __ __ __ __ __ __ __ __ __ __ __ __ __ __
 72
    65
 73
     2
 40
0.75
 49
0.5
 74
     0
 49
-0.25
 74
     0
  0
LTYPE
  5
EA6
330
5
100
AcDbSymbolTableRecord
100
AcDbLinetypeTableRecord
  2
AM_ISO02W050
 70
     0
  3
__ __ __ __ __ __ __ __ __ __ __ __ __ __ __
 72
    65
 73
     2
 40
7.5
 49
6.0
 74
     0
 49
-1.5
 74
     0
  0
LTYPE
  5
EA7
330
5
100
AcDbSymbolTableRecord
100
AcDbLinetypeTableRecord
  2
AM_ISO08W050
 70
     0
  3
____ . ____ . ____ . ____ . ____ . ____ . ____
 72
    65
 73
     4
 40
18.0
 49
12.0
 74
     0
 49
-1.5
 74
     0
 49
3.0
 74
     0
 49
-1.5
 74
     0
  0
LTYPE
  5
EA8
330
5
100
AcDbSymbolTableRecord
100
AcDbLinetypeTableRecord
  2
AM_ISO09W050
 70
     0
  3
_____ . . _____ . . _____ . . ____ .. ____
 72
    65
 73
     6
 40
22.5
 49
12.0
 74
     0
 49
-1.5
 74
     0
 49
3.0
 74
     0
 49
-1.5
 74
     0
 49
3.0
 74
     0
 49
-1.5
 74
     0
  0
LTYPE
  5
EA9
330
5
100
AcDbSymbolTableRecord
100
AcDbLinetypeTableRecord
  2
Amconstr
 70
     0
  3
_______________________
 72
    65
 73
     2
 40
9999.0
 49
9999.0
 74
     0
 49
0.0
 74
     0
  0
LTYPE
  5
EAA
330
5
100
AcDbSymbolTableRecord
100
AcDbLinetypeTableRecord
  2
AM_ISO02W050x2
 70
     0
  3
 _ _ _ _ _ _ _ _ _ _ _ _
 72
    65
 73
     2
 40
3.75
 49
3.0
 74
     0
 49
-0.75
 74
     0
  0
LTYPE
  5
EAB
330
5
100
AcDbSymbolTableRecord
100
AcDbLinetypeTableRecord
  2
AM_ISO08W050x2
 70
     0
  3
__ . __ . __ . __ . __ . __
 72
    65
 73
     4
 40
9.0
 49
6.0
 74
     0
 49
-0.75
 74
     0
 49
1.5
 74
     0
 49
-0.75
 74
     0
  0
LTYPE
  5
EAE
330
5
100
AcDbSymbolTableRecord
100
AcDbLinetypeTableRecord
  2
Amzigzag
 70
     0
  3
/\/-/\/-/\/-/\/-/\/-/\/
 72
    65
 73
     2
 40
11.0001
 49
0.0001
 74
     4
 75
   135
340
EAD
 46
0.04
 50
0.0
 44
0.0
 45
0.0
 49
-11.0
 74
     0
  0
LTYPE
  5
EAF
330
5
100
AcDbSymbolTableRecord
100
AcDbLinetypeTableRecord
  2
HIDDEN2
 70
     0
  3
Hidden (.5x) _ _ _ _ _ _ _ _ _ _ _ _ _ _ _ _ _
 72
    65
 73
     2
 40
0.1875
 49
0.125
 74
     0
 49
-0.0625
 74
     0
  0
LTYPE
  5
EB0
330
5
100
AcDbSymbolTableRecord
100
AcDbLinetypeTableRecord
  2
CENTER2
 70
     0
  3
Center (.5x) ___ _ ___ _ ___ _ ___ _ ___ _ ___
 72
    65
 73
     4
 40
1.125
 49
0.75
 74
     0
 49
-0.125
 74
     0
 49
0.125
 74
     0
 49
-0.125
 74
     0
  0
LTYPE
  5
EB1
330
5
100
AcDbSymbolTableRecord
100
AcDbLinetypeTableRecord
  2
Amzigzag2
 70
     0
  3
/\/-/\/-/\/-/\/-/\/-/\/
 72
    65
 73
     2
 40
0.4401
 49
0.0001
 74
     4
 75
   135
340
EAD
 46
0.0016
 50
0.0
 44
0.0
 45
0.0
 49
-0.44
 74
     0
  0
LTYPE
  5
F8A
330
5
100
AcDbSymbolTableRecord
100
AcDbLinetypeTableRecord
  2
HIDL
 70
     0
  3
(破線2)--  --  --  --  --  --  --  --  --  --  
 72
    65
 73
     2
 40
4.0
 49
2.5
 74
     0
 49
-1.5
 74
     0
  0
LTYPE
  5
F8B
330
5
100
AcDbSymbolTableRecord
100
AcDbLinetypeTableRecord
  2
CENL
 70
     0
  3
(1点鎖線2)------ - ------ - ------ - ------ - -
 72
    65
 73
     4
 40
19.5
 49
15.0
 74
     0
 49
-1.5
 74
     0
 49
1.5
 74
     0
 49
-1.5
 74
     0
  0
LTYPE
  5
F8C
330
5
100
AcDbSymbolTableRecord
100
AcDbLinetypeTableRecord
  2
PHAS
 70
     0
  3
(2点鎖線1)---- - - ---- - - ---- - - ---- - - -
 72
    65
 73
     6
 40
15.0
 49
10.0
 74
     0
 49
-1.0
 74
     0
 49
1.0
 74
     0
 49
-1.0
 74
     0
 49
1.0
 74
     0
 49
-1.0
 74
     0
  0
LTYPE
  5
F8D
330
5
100
AcDbSymbolTableRecord
100
AcDbLinetypeTableRecord
  2
PHAL
 70
     0
  3
(2点鎖線2)------ - - ------ - - ------ - - ----
 72
    65
 73
     6
 40
22.5
 49
15.0
 74
     0
 49
-1.5
 74
     0
 49
1.5
 74
     0
 49
-1.5
 74
     0
 49
1.5
 74
     0
 49
-1.5
 74
     0
  0
ENDTAB
  0
TABLE
  2
LAYER
  5
2
102
{ACAD_XDICTIONARY
360
1173
102
}
330
0
100
AcDbSymbolTable
 70
    11
  0
LAYER
  5
E
102
{ACAD_XDICTIONARY
360
1498
102
}
330
2
100
AcDbSymbolTableRecord
100
AcDbLayerTableRecord
  2
0
 70
     0
 62
     3
  6
CONTINUOUS
370
    -3
390
36A
  0
LAYER
  5
30
102
{ACAD_XDICTIONARY
360
149A
102
}
330
2
100
AcDbSymbolTableRecord
100
AcDbLayerTableRecord
  2
3
 70
     0
 62
     4
  6
CONTINUOUS
370
    -3
390
36A
  0
LAYER
  5
31
102
{ACAD_XDICTIONARY
360
149C
102
}
330
2
100
AcDbSymbolTableRecord
100
AcDbLayerTableRecord
  2
HATCHING_0
 70
     0
 62
     7
  6
CONTINUOUS
370
    -3
390
36A
  0
LAYER
  5
32
102
{ACAD_XDICTIONARY
360
149E
102
}
330
2
100
AcDbSymbolTableRecord
100
AcDbLayerTableRecord
  2
SUNPO_0
 70
     0
 62
     7
  6
CONTINUOUS
370
    -3
390
36A
  0
LAYER
  5
33
330
2
100
AcDbSymbolTableRecord
100
AcDbLayerTableRecord
  2
Defpoints
 70
     0
 62
    -7
  6
CONTINUOUS
290
     0
370
    -3
390
36A
  0
LAYER
  5
34
102
{ACAD_XDICTIONARY
360
14A0
102
}
330
2
100
AcDbSymbolTableRecord
100
AcDbLayerTableRecord
  2
TEXT_0
 70
     0
 62
     7
  6
CONTINUOUS
370
    -3
390
36A
  0
LAYER
  5
35
102
{ACAD_XDICTIONARY
360
14A2
102
}
330
2
100
AcDbSymbolTableRecord
100
AcDbLayerTableRecord
  2
1
 70
     0
 62
     7
  6
CONTINUOUS
370
    -3
390
36A
  0
LAYER
  5
33A
102
{ACAD_XDICTIONARY
360
14A4
102
}
330
2
100
AcDbSymbolTableRecord
100
AcDbLayerTableRecord
  2
ASKPAPERSIZE
 70
     0
 62
     7
  6
CONTINUOUS
370
    -3
390
36A
  0
LAYER
  5
835
102
{ACAD_XDICTIONARY
360
14A6
102
}
330
2
100
AcDbSymbolTableRecord
100
AcDbLayerTableRecord
  2
9図面枠
 70
     0
 62
     5
  6
CONTINUOUS
370
    -3
390
36A
  0
LAYER
  5
836
102
{ACAD_XDICTIONARY
360
14A8
102
}
330
2
100
AcDbSymbolTableRecord
100
AcDbLayerTableRecord
  2
9図面文字
 70
     0
 62
     7
  6
CONTINUOUS
370
    -3
390
36A
  0
LAYER
  5
83E
102
{ACAD_XDICTIONARY
360
14AA
102
}
330
2
100
AcDbSymbolTableRecord
100
AcDbLayerTableRecord
  2
非表示破線
 70
     0
 62
     7
  6
CONTINUOUS
290
     0
370
    -3
390
36A
  0
ENDTAB
  0
TABLE
  2
STYLE
  5
3
330
0
100
AcDbSymbolTable
 70
     6
  0
STYLE
  5
F
330
3
100
AcDbSymbolTableRecord
100
AcDbTextStyleTableRecord
  2
STANDARD
 70
     0
 40
0.0
 41
1.0
 50
0.0
 71
     0
 42
90.0
  3
TXT
  4
BIGFONT
  0
STYLE
  5
2A
330
3
100
AcDbSymbolTableRecord
100
AcDbTextStyleTableRecord
  2
STD
 70
     0
 40
0.0
 41
1.0
 50
0.0
 71
     0
 42
60.0
  3
TXT
  4
BIGFONT
  0
STYLE
  5
83F
330
3
100
AcDbSymbolTableRecord
100
AcDbTextStyleTableRecord
  2
STYLE1
 70
     0
 40
0.0
 41
1.0
 50
0.0
 71
     0
 42
64.0
  3

  4

1001
ACAD
1000
MS PGothic
1071
    32818
  0
STYLE
  5
841
330
3
100
AcDbSymbolTableRecord
100
AcDbTextStyleTableRecord
  2
STYLE3
 70
     0
 40
0.0
 41
1.5
 50
0.0
 71
     0
 42
64.0
  3

  4

1001
ACAD
1000
MS PGothic
1071
    32818
  0
STYLE
  5
DCC
330
3
100
AcDbSymbolTableRecord
100
AcDbTextStyleTableRecord
  2
ｽﾀｲﾙ1
 70
     0
 40
0.0
 41
1.0
 50
0.0
 71
     0
 42
64.0
  3

  4

1001
ACAD
1000
HGGyoshotai
1071
    32833
  0
STYLE
  5
EAD
330
3
100
AcDbSymbolTableRecord
100
AcDbTextStyleTableRecord
  2

 70
     1
 40
0.0
 41
1.0
 50
0.0
 71
     0
 42
60.0
  3
ltypeshp.shx
  4

  0
ENDTAB
  0
TABLE
  2
VIEW
  5
6
330
0
100
AcDbSymbolTable
 70
     2
  0
VIEW
  5
2D
330
6
100
AcDbSymbolTableRecord
100
AcDbViewTableRecord
  2
V0
 70
     0
 40
5940.0
 10
4200.0
 20
2970.0
 41
8400.0
 11
0.0
 21
0.0
 31
1.0
 12
0.0
 22
0.0
 32
0.0
 42
50.0
 43
0.0
 44
0.0
 50
0.0
 71
     0
281
     0
 72
     0
  0
VIEW
  5
343
330
6
100
AcDbSymbolTableRecord
100
AcDbViewTableRecord
  2
VP
 70
     0
 40
5940.0
 10
4200.0
 20
2970.0
 41
8400.0
 11
0.0
 21
0.0
 31
1.0
 12
0.0
 22
0.0
 32
0.0
 42
50.0
 43
0.0
 44
0.0
 50
0.0
 71
     0
281
     0
 72
     0
  0
ENDTAB
  0
TABLE
  2
UCS
  5
7
330
0
100
AcDbSymbolTable
 70
     0
  0
ENDTAB
  0
TABLE
  2
APPID
  5
9
330
0
100
AcDbSymbolTable
 70
    19
  0
APPID
  5
10
330
9
100
AcDbSymbolTableRecord
100
AcDbRegAppTableRecord
  2
ACAD
 70
     0
  0
APPID
  5
339
330
9
100
AcDbSymbolTableRecord
100
AcDbRegAppTableRecord
  2
AUTO_SEKKEIYA
 70
     0
  0
APPID
  5
84B
330
9
100
AcDbSymbolTableRecord
100
AcDbRegAppTableRecord
  2
MCAD_NO_VIS
 70
     0
  0
APPID
  5
84C
330
9
100
AcDbSymbolTableRecord
100
AcDbRegAppTableRecord
  2
ACAD_TEMP_GRAPHIC
 70
     0
  0
APPID
  5
DC0
330
9
100
AcDbSymbolTableRecord
100
AcDbRegAppTableRecord
  2
DCO15
 70
     0
  0
APPID
  5
DCD
330
9
100
AcDbSymbolTableRecord
100
AcDbRegAppTableRecord
  2
ASKOBJSC
 70
     0
  0
APPID
  5
DCE
330
9
100
AcDbSymbolTableRecord
100
AcDbRegAppTableRecord
  2
ASKDWGSC
 70
     0
  0
APPID
  5
DF3
330
9
100
AcDbSymbolTableRecord
100
AcDbRegAppTableRecord
  2
GENIUS_GENDIM_13
 70
     0
  0
APPID
  5
DF4
330
9
100
AcDbSymbolTableRecord
100
AcDbRegAppTableRecord
  2
GENIUS_GENDTOL_13
 70
     0
  0
APPID
  5
DF5
330
9
100
AcDbSymbolTableRecord
100
AcDbRegAppTableRecord
  2
GENIUS_GE3DTOL_13
 70
     0
  0
APPID
  5
E2B
330
9
100
AcDbSymbolTableRecord
100
AcDbRegAppTableRecord
  2
AD_DRAW
 70
     0
  0
APPID
  5
E2E
330
9
100
AcDbSymbolTableRecord
100
AcDbRegAppTableRecord
  2
ACATTRIBSERVICES
 70
     0
  0
APPID
  5
E66
330
9
100
AcDbSymbolTableRecord
100
AcDbRegAppTableRecord
  2
ASURF_PCURVE_APPNAME
 70
     0
  0
APPID
  5
E97
330
9
100
AcDbSymbolTableRecord
100
AcDbRegAppTableRecord
  2
DESIGNERASSEMBLIES
 70
     0
  0
APPID
  5
EA0
330
9
100
AcDbSymbolTableRecord
100
AcDbRegAppTableRecord
  2
ACADM_DIM_EDIT
 70
     0
  0
APPID
  5
1495
330
9
100
AcDbSymbolTableRecord
100
AcDbRegAppTableRecord
  2
ACAD_EXEMPT_FROM_CAD_STANDARDS
 70
     0
  0
APPID
  5
1558
330
9
100
AcDbSymbolTableRecord
100
AcDbRegAppTableRecord
  2
ACAD_MLEADERVER
 70
     0
  0
APPID
  5
1565
330
9
100
AcDbSymbolTableRecord
100
AcDbRegAppTableRecord
  2
ACAD_PSEXT
 70
     0
  0
APPID
  5
17A9
330
9
100
AcDbSymbolTableRecord
100
AcDbRegAppTableRecord
  2
PLOTTRANSPARENCY
 70
     0
  0
ENDTAB
  0
TABLE
  2
DIMSTYLE
  5
A
330
0
100
AcDbSymbolTable
 70
     2
100
AcDbDimStyleTable
  0
DIMSTYLE
105
3AB
102
{ACAD_REACTORS
330
BC3
330
BDA
330
BEF
330
C04
330
C1B
330
C6A
330
C6F
330
C91
330
C99
330
C9E
330
CE7
330
CFD
330
D14
330
D3C
330
D86
330
D8B
330
D91
330
D99
330
1009
330
1020
330
103D
330
1054
330
10E0
330
10FB
330
1112
330
1129
330
1140
102
}
330
A
100
AcDbSymbolTableRecord
100
AcDbDimStyleTableRecord
  2
ASKSTANDARD
 70
     0
 40
20.0
 41
2.3
 42
1.0
 43
8.0
 44
1.0
 46
2.0
 73
     0
 74
     0
140
2.0
141
64.542
145
1.0
146
0.7
172
     1
173
     1
176
     3
177
     3
271
     2
178
     3
271
     2
272
     2
279
     2
340
2A
341
1C
342
1C
343
1C
344
1C
  0
DIMSTYLE
105
D2B
330
A
100
AcDbSymbolTableRecord
100
AcDbDimStyleTableRecord
  2
Standard
 70
     0
178
     0
340
F
  0
ENDTAB
  0
TABLE
  2
BLOCK_RECORD
  5
1
330
0
100
AcDbSymbolTable
 70
    26
  0
BLOCK_RECORD
  5
17
102
{ACAD_XDICTIONARY
360
1157
102
}
330
1
100
AcDbSymbolTableRecord
100
AcDbBlockTableRecord
  2
*MODEL_SPACE
340
36D
  0
BLOCK_RECORD
  5
14
330
1
100
AcDbSymbolTableRecord
100
AcDbBlockTableRecord
  2
*PAPER_SPACE
340
36E
  0
BLOCK_RECORD
  5
1C
330
1
100
AcDbSymbolTableRecord
100
AcDbBlockTableRecord
  2
ARRI
340
0
  0
BLOCK_RECORD
  5
386
330
1
100
AcDbSymbolTableRecord
100
AcDbBlockTableRecord
  2
N1_07
340
0
102
{BLKREFS
331
395
331
396
331
F94
331
F95
331
F98
331
F99
102
}
  0
BLOCK_RECORD
  5
39A
330
1
100
AcDbSymbolTableRecord
100
AcDbBlockTableRecord
  2
N1_06
340
0
102
{BLKREFS
331
3A8
331
3A9
102
}
  0
BLOCK_RECORD
  5
BC4
330
1
100
AcDbSymbolTableRecord
100
AcDbBlockTableRecord
  2
*D3
340
0
  0
BLOCK_RECORD
  5
BDB
330
1
100
AcDbSymbolTableRecord
100
AcDbBlockTableRecord
  2
*D4
340
0
  0
BLOCK_RECORD
  5
BF0
330
1
100
AcDbSymbolTableRecord
100
AcDbBlockTableRecord
  2
*D5
340
0
  0
BLOCK_RECORD
  5
C05
330
1
100
AcDbSymbolTableRecord
100
AcDbBlockTableRecord
  2
*D6
340
0
  0
BLOCK_RECORD
  5
C1C
330
1
100
AcDbSymbolTableRecord
100
AcDbBlockTableRecord
  2
*D7
340
0
  0
BLOCK_RECORD
  5
CFE
330
1
100
AcDbSymbolTableRecord
100
AcDbBlockTableRecord
  2
*D8
340
0
  0
BLOCK_RECORD
  5
D15
330
1
100
AcDbSymbolTableRecord
100
AcDbBlockTableRecord
  2
*D9
340
0
  0
BLOCK_RECORD
  5
D2C
330
1
100
AcDbSymbolTableRecord
100
AcDbBlockTableRecord
  2
B1_06
340
0
  0
BLOCK_RECORD
  5
D79
330
1
100
AcDbSymbolTableRecord
100
AcDbBlockTableRecord
  2
A$C235E2914
340
0
  0
BLOCK_RECORD
  5
D9A
330
1
100
AcDbSymbolTableRecord
100
AcDbBlockTableRecord
  2
*D12
340
0
  0
BLOCK_RECORD
  5
DCF
330
1
100
AcDbSymbolTableRecord
100
AcDbBlockTableRecord
  2
signMARU
340
0
102
{BLKREFS
331
DD8
102
}
  0
BLOCK_RECORD
  5
DD9
330
1
100
AcDbSymbolTableRecord
100
AcDbBlockTableRecord
  2
A$C55431ECD
340
0
  0
BLOCK_RECORD
  5
DDE
330
1
100
AcDbSymbolTableRecord
100
AcDbBlockTableRecord
  2
sugnkINAMI
340
0
102
{BLKREFS
331
DE5
102
}
  0
BLOCK_RECORD
  5
E8E
330
1
100
AcDbSymbolTableRecord
100
AcDbBlockTableRecord
  2
*U16
340
0
  0
BLOCK_RECORD
  5
100A
330
1
100
AcDbSymbolTableRecord
100
AcDbBlockTableRecord
  2
*D17
340
0
  0
BLOCK_RECORD
  5
1021
330
1
100
AcDbSymbolTableRecord
100
AcDbBlockTableRecord
  2
*D18
340
0
  0
BLOCK_RECORD
  5
103E
330
1
100
AcDbSymbolTableRecord
100
AcDbBlockTableRecord
  2
*D19
340
0
  0
BLOCK_RECORD
  5
1055
330
1
100
AcDbSymbolTableRecord
100
AcDbBlockTableRecord
  2
*D20
340
0
  0
BLOCK_RECORD
  5
10E1
330
1
100
AcDbSymbolTableRecord
100
AcDbBlockTableRecord
  2
*D21
340
0
  0
BLOCK_RECORD
  5
10FC
330
1
100
AcDbSymbolTableRecord
100
AcDbBlockTableRecord
  2
*D22
340
0
  0
BLOCK_RECORD
  5
1113
330
1
100
AcDbSymbolTableRecord
100
AcDbBlockTableRecord
  2
*D23
340
0
  0
BLOCK_RECORD
  5
112A
330
1
100
AcDbSymbolTableRecord
100
AcDbBlockTableRecord
  2
*D24
340
0
  0
BLOCK_RECORD
  5
1141
330
1
100
AcDbSymbolTableRecord
100
AcDbBlockTableRecord
  2
*D25
340
0
  0
ENDTAB
  0
ENDSEC
  0
SECTION
  2
BLOCKS
  0
BLOCK
  5
38
330
17
100
AcDbEntity
  8
0
 62
     7
370
    -1
100
AcDbBlockBegin
  2
*MODEL_SPACE
 70
     0
 10
0.0
 20
0.0
 30
0.0
  3
*MODEL_SPACE
  1

  0
ENDBLK
  5
39
330
17
100
AcDbEntity
  8
0
 62
     7
370
    -1
100
AcDbBlockEnd
  0
BLOCK
  5
36
330
14
100
AcDbEntity
 67
     1
  8
0
 62
     7
370
    -1
100
AcDbBlockBegin
  2
*PAPER_SPACE
 70
     0
 10
0.0
 20
0.0
 30
0.0
  3
*PAPER_SPACE
  1

  0
ENDBLK
  5
37
330
14
100
AcDbEntity
 67
     1
  8
0
 62
     7
370
    -1
100
AcDbBlockEnd
  0
BLOCK
  5
3A
330
1C
100
AcDbEntity
  8
0
370
    -1
100
AcDbBlockBegin
  2
ARRI
 70
     0
 10
0.0
 20
0.0
 30
0.0
  3
ARRI
  1

  0
LINE
  5
3B
330
1C
100
AcDbEntity
  8
0
  6
ByBlock
 62
     0
370
    -1
100
AcDbLine
 10
-0.9999999999995168
 20
-0.2125565616699987
 30
0.0
 11
0.0000000000005826
 21
0.0000000000000142
 31
0.0
  0
LINE
  5
3C
330
1C
100
AcDbEntity
  8
0
  6
ByBlock
 62
     0
370
    -1
100
AcDbLine
 10
0.0000000000005826
 20
0.0000000000000142
 30
0.0
 11
-0.9999999999995168
 21
0.2125565616699276
 31
0.0
  0
LINE
  5
3D
330
1C
100
AcDbEntity
  8
0
  6
ByBlock
 62
     0
370
    -1
100
AcDbLine
 10
0.0000000000004832
 20
0.0
 30
0.0
 11
-0.9999999999995168
 21
0.0000000000000284
 31
0.0
  0
ENDBLK
  5
3E
330
1C
100
AcDbEntity
  8
0
370
    -1
100
AcDbBlockEnd
  0
BLOCK
  5
393
330
386
100
AcDbEntity
  8
0
 62
     7
100
AcDbBlockBegin
  2
N1_07
 70
     0
 10
0.0
 20
0.0
 30
0.0
  3
N1_07
  1

  0
ARC
  5
387
330
386
100
AcDbEntity
  8
0
  6
Continuous
 62
     7
100
AcDbCircle
 10
5.629165124598813
 20
3.17743042704981
 30
0.0
 40
3.32256957295019
100
AcDbArc
 50
89.99999999999919
 51
124.3842474680414
  0
ARC
  5
388
330
386
100
AcDbEntity
  8
0
  6
Continuous
 62
     7
100
AcDbCircle
 10
0.0
 20
-5.919443416398712
 30
0.0
 40
12.41944341639871
100
AcDbArc
 50
72.41204622600564
 51
107.5879537739944
  0
ARC
  5
389
330
386
100
AcDbEntity
  8
0
  6
Continuous
 62
     7
100
AcDbCircle
 10
-5.629165124598828
 20
3.177430427049817
 30
0.0
 40
3.322569572950184
100
AcDbArc
 50
55.61575253195858
 51
90.00000000000082
  0
LINE
  5
38A
330
386
100
AcDbEntity
  8
0
  6
CENS
 62
     1
100
AcDbLine
 10
0.0
 20
-2.166666666666668
 30
0.0
 11
0.0
 21
8.666666666666668
 31
0.0
  0
LINE
  5
38B
330
386
100
AcDbEntity
  8
0
  6
Continuous
 62
     7
100
AcDbLine
 10
-7.505553499465151
 20
5.919443416399222
 30
0.0
 11
-6.5
 21
6.5
 31
0.0
  0
LINE
  5
38C
330
386
100
AcDbEntity
  8
0
  6
Continuous
 62
     7
100
AcDbLine
 10
6.5
 20
6.5
 30
0.0
 11
7.505553499465137
 21
5.919443416399233
 31
0.0
  0
LINE
  5
38D
330
386
100
AcDbEntity
  8
0
  6
Continuous
 62
     7
100
AcDbLine
 10
-6.5
 20
6.5
 30
0.0
 11
6.5
 21
6.5
 31
0.0
  0
LINE
  5
38E
330
386
100
AcDbEntity
  8
0
  6
Continuous
 62
     7
100
AcDbLine
 10
-7.505553499465151
 20
0.0
 30
0.0
 11
7.505553499465137
 21
0.0
 31
0.0
  0
LINE
  5
38F
330
386
100
AcDbEntity
  8
0
  6
Continuous
 62
     7
100
AcDbLine
 10
7.505553499465137
 20
5.919443416399233
 30
0.0
 11
7.505553499465137
 21
0.0
 31
0.0
  0
LINE
  5
390
330
386
100
AcDbEntity
  8
0
  6
Continuous
 62
     7
100
AcDbLine
 10
-7.505553499465151
 20
0.0
 30
0.0
 11
-7.505553499465151
 21
5.919443416399222
 31
0.0
  0
LINE
  5
391
330
386
100
AcDbEntity
  8
0
  6
Continuous
 62
     7
100
AcDbLine
 10
-3.752776749732504
 20
0.0
 30
0.0
 11
-3.752776749732504
 21
5.919443416399226
 31
0.0
  0
LINE
  5
392
330
386
100
AcDbEntity
  8
0
  6
Continuous
 62
     7
100
AcDbLine
 10
3.752776749732504
 20
5.919443416399229
 30
0.0
 11
3.752776749732504
 21
0.0
 31
0.0
  0
ENDBLK
  5
394
330
386
100
AcDbEntity
  8
0
 62
     7
100
AcDbBlockEnd
  0
BLOCK
  5
3A6
330
39A
100
AcDbEntity
  8
0
 62
     7
100
AcDbBlockBegin
  2
N1_06
 70
     0
 10
0.0
 20
0.0
 30
0.0
  3
N1_06
  1

  0
CIRCLE
  5
39B
330
39A
100
AcDbEntity
  8
0
  6
Continuous
 62
     7
100
AcDbCircle
 10
0.0
 20
0.0
 30
0.0
 40
6.5
  0
CIRCLE
  5
39C
330
39A
100
AcDbEntity
  8
0
  6
Continuous
 62
     1
100
AcDbCircle
 10
0.0
 20
0.0
 30
0.0
 40
4.0
  0
CIRCLE
  5
39D
330
39A
100
AcDbEntity
  8
0
  6
Continuous
 62
     7
100
AcDbCircle
 10
0.0
 20
0.0
 30
0.0
 40
3.375
  0
LINE
  5
39E
330
39A
100
AcDbEntity
  8
0
  6
Continuous
 62
     7
100
AcDbLine
 10
-6.5
 20
3.752776749732568
 30
0.0
 11
0.0
 21
7.505553499465137
 31
0.0
  0
LINE
  5
39F
330
39A
100
AcDbEntity
  8
0
  6
Continuous
 62
     7
100
AcDbLine
 10
0.0
 20
7.505553499465137
 30
0.0
 11
6.5
 21
3.752776749732568
 31
0.0
  0
LINE
  5
3A0
330
39A
100
AcDbEntity
  8
0
  6
Continuous
 62
     7
100
AcDbLine
 10
6.5
 20
3.752776749732568
 30
0.0
 11
6.5
 21
-3.752776749732568
 31
0.0
  0
LINE
  5
3A1
330
39A
100
AcDbEntity
  8
0
  6
Continuous
 62
     7
100
AcDbLine
 10
6.5
 20
-3.752776749732568
 30
0.0
 11
0.0
 21
-7.505553499465137
 31
0.0
  0
LINE
  5
3A2
330
39A
100
AcDbEntity
  8
0
  6
Continuous
 62
     7
100
AcDbLine
 10
0.0
 20
-7.505553499465137
 30
0.0
 11
-6.5
 21
-3.752776749732568
 31
0.0
  0
LINE
  5
3A3
330
39A
100
AcDbEntity
  8
0
  6
Continuous
 62
     7
100
AcDbLine
 10
-6.5
 20
-3.752776749732568
 30
0.0
 11
-6.5
 21
3.752776749732568
 31
0.0
  0
LINE
  5
3A4
330
39A
100
AcDbEntity
  8
0
  6
CENS
 62
     1
100
AcDbLine
 10
-9.5
 20
0.0
 30
0.0
 11
9.5
 21
0.0
 31
0.0
  0
LINE
  5
3A5
330
39A
100
AcDbEntity
  8
0
  6
CENS
 62
     1
100
AcDbLine
 10
0.0
 20
-10.50555349946513
 30
0.0
 11
0.0
 21
10.50555349946513
 31
0.0
  0
ENDBLK
  5
3A7
330
39A
100
AcDbEntity
  8
0
 62
     7
100
AcDbBlockEnd
  0
BLOCK
  5
BCE
330
BC4
100
AcDbEntity
  8
0
 62
     7
100
AcDbBlockBegin
  2
*D3
 70
     1
 10
0.0
 20
0.0
 30
0.0
  3
*D3
  1

  0
LINE
  5
109F
330
BC4
100
AcDbEntity
  8
0
  6
DIMENSION
 62
     3
370
    -2
100
AcDbLine
 10
2739.486854911264
 20
4226.879510394784
 30
0.0
 11
4215.028256185146
 21
4226.879510394784
 31
0.0
  0
LINE
  5
10A0
330
BC4
100
AcDbEntity
  8
0
  6
DIMENSION
 62
     3
370
    -2
100
AcDbLine
 10
4030.326854911263
 20
3126.879510394784
 30
0.0
 11
4215.028256185146
 21
3126.879510394784
 31
0.0
  0
LINE
  5
10A1
330
BC4
100
AcDbEntity
  8
0
  6
DIMENSION
 62
     3
370
    -2
100
AcDbLine
 10
4195.028256185146
 20
4186.879510394784
 30
0.0
 11
4195.028256185146
 21
3166.879510394784
 31
0.0
  0
SOLID
  5
10A2
330
BC4
100
AcDbEntity
  8
0
  6
DIMENSION
 62
     3
100
AcDbTrace
 10
4188.361589518479
 20
4186.879510394784
 30
0.0
 11
4201.694922851813
 21
4186.879510394784
 31
0.0
 12
4195.028256185146
 22
4226.879510394784
 32
0.0
 13
4195.028256185146
 23
4226.879510394784
 33
0.0
  0
SOLID
  5
10A3
330
BC4
100
AcDbEntity
  8
0
  6
DIMENSION
 62
     3
100
AcDbTrace
 10
4188.361589518479
 20
3166.879510394784
 30
0.0
 11
4201.694922851813
 21
3166.879510394784
 31
0.0
 12
4195.028256185146
 22
3126.879510394784
 32
0.0
 13
4195.028256185146
 23
3126.879510394784
 33
0.0
  0
MTEXT
  5
10A4
330
BC4
100
AcDbEntity
  8
0
  6
DIMENSION
 62
     3
100
AcDbMText
 10
4173.228256185145
 20
3676.879510394785
 30
0.0
 40
40.0
 41
0.0
 71
     5
 72
     1
  1
\A1;1100
  7
STD
 11
6.123031769111886E-17
 21
1.0
 31
0.0
 73
     1
 44
1.0
  0
POINT
  5
10A5
330
BC4
100
AcDbEntity
  8
Defpoints
  6
DIMENSION
 62
     0
100
AcDbPoint
 10
2719.486854911264
 20
4226.879510394784
 30
0.0
  0
POINT
  5
10A6
330
BC4
100
AcDbEntity
  8
Defpoints
  6
DIMENSION
 62
     0
100
AcDbPoint
 10
4010.326854911263
 20
3126.879510394784
 30
0.0
  0
POINT
  5
10A7
330
BC4
100
AcDbEntity
  8
Defpoints
  6
DIMENSION
 62
     0
100
AcDbPoint
 10
4195.028256185146
 20
3126.879510394784
 30
0.0
  0
ENDBLK
  5
BCF
330
BC4
100
AcDbEntity
  8
0
 62
     7
100
AcDbBlockEnd
  0
BLOCK
  5
BE4
330
BDB
100
AcDbEntity
  8
0
 62
     7
100
AcDbBlockBegin
  2
*D4
 70
     1
 10
0.0
 20
0.0
 30
0.0
  3
*D4
  1

  0
LINE
  5
1097
330
BDB
100
AcDbEntity
  8
0
  6
DIMENSION
 62
     3
370
    -2
100
AcDbLine
 10
4050.326854911263
 20
3126.879510394784
 30
0.0
 11
4215.028256185147
 21
3126.879510394784
 31
0.0
  0
LINE
  5
1098
330
BDB
100
AcDbEntity
  8
0
  6
DIMENSION
 62
     3
370
    -2
100
AcDbLine
 10
4195.028256185147
 20
3086.879510394784
 30
0.0
 11
4195.028256185146
 21
1666.879510394815
 31
0.0
  0
SOLID
  5
1099
330
BDB
100
AcDbEntity
  8
0
  6
DIMENSION
 62
     3
100
AcDbTrace
 10
4188.36158951848
 20
3086.879510394784
 30
0.0
 11
4201.694922851814
 21
3086.879510394784
 31
0.0
 12
4195.028256185147
 22
3126.879510394784
 32
0.0
 13
4195.028256185147
 23
3126.879510394784
 33
0.0
  0
SOLID
  5
109A
330
BDB
100
AcDbEntity
  8
0
  6
DIMENSION
 62
     3
100
AcDbTrace
 10
4188.361589518479
 20
1666.879510394815
 30
0.0
 11
4201.694922851813
 21
1666.879510394815
 31
0.0
 12
4195.028256185146
 22
1626.879510394815
 32
0.0
 13
4195.028256185146
 23
1626.879510394815
 33
0.0
  0
MTEXT
  5
109B
330
BDB
100
AcDbEntity
  8
0
  6
DIMENSION
 62
     3
100
AcDbMText
 10
4173.228256185146
 20
2376.8795103948
 30
0.0
 40
40.0
 41
0.0
 71
     5
 72
     1
  1
\A1;1500
  7
STD
 11
6.123031769111886E-17
 21
1.0
 31
0.0
 73
     1
 44
1.0
  0
POINT
  5
109C
330
BDB
100
AcDbEntity
  8
Defpoints
  6
DIMENSION
 62
     0
100
AcDbPoint
 10
4030.326854911263
 20
3126.879510394784
 30
0.0
  0
POINT
  5
109D
330
BDB
100
AcDbEntity
  8
Defpoints
  6
DIMENSION
 62
     0
100
AcDbPoint
 10
4195.028256185147
 20
1626.879510394815
 30
0.0
  0
POINT
  5
109E
330
BDB
100
AcDbEntity
  8
Defpoints
  6
DIMENSION
 62
     0
100
AcDbPoint
 10
4195.028256185146
 20
1626.879510394815
 30
0.0
  0
ENDBLK
  5
BE5
330
BDB
100
AcDbEntity
  8
0
 62
     7
100
AcDbBlockEnd
  0
BLOCK
  5
BF9
330
BF0
100
AcDbEntity
  8
0
 62
     7
100
AcDbBlockBegin
  2
*D5
 70
     1
 10
0.0
 20
0.0
 30
0.0
  3
*D5
  1

  0
LINE
  5
108F
330
BF0
100
AcDbEntity
  8
0
  6
DIMENSION
 62
     3
370
    -2
100
AcDbLine
 10
4089.486854911263
 20
1126.879510394784
 30
0.0
 11
4215.028256185147
 21
1126.879510394784
 31
0.0
  0
LINE
  5
1090
330
BF0
100
AcDbEntity
  8
0
  6
DIMENSION
 62
     3
370
    -2
100
AcDbLine
 10
4195.028256185147
 20
1586.87951039482
 30
0.0
 11
4195.028256185147
 21
1166.879510394784
 31
0.0
  0
SOLID
  5
1091
330
BF0
100
AcDbEntity
  8
0
  6
DIMENSION
 62
     3
100
AcDbTrace
 10
4188.36158951848
 20
1586.87951039482
 30
0.0
 11
4201.694922851814
 21
1586.87951039482
 31
0.0
 12
4195.028256185147
 22
1626.87951039482
 32
0.0
 13
4195.028256185147
 23
1626.87951039482
 33
0.0
  0
SOLID
  5
1092
330
BF0
100
AcDbEntity
  8
0
  6
DIMENSION
 62
     3
100
AcDbTrace
 10
4188.36158951848
 20
1166.879510394784
 30
0.0
 11
4201.694922851814
 21
1166.879510394784
 31
0.0
 12
4195.028256185147
 22
1126.879510394784
 32
0.0
 13
4195.028256185147
 23
1126.879510394784
 33
0.0
  0
MTEXT
  5
1093
330
BF0
100
AcDbEntity
  8
0
  6
DIMENSION
 62
     3
100
AcDbMText
 10
4173.228256185147
 20
1376.879510394803
 30
0.0
 40
40.0
 41
0.0
 71
     5
 72
     1
  1
\A1;500
  7
STD
 11
6.123031769111886E-17
 21
1.0
 31
0.0
 73
     1
 44
1.0
  0
POINT
  5
1094
330
BF0
100
AcDbEntity
  8
Defpoints
  6
DIMENSION
 62
     0
100
AcDbPoint
 10
4195.028256185147
 20
1626.87951039482
 30
0.0
  0
POINT
  5
1095
330
BF0
100
AcDbEntity
  8
Defpoints
  6
DIMENSION
 62
     0
100
AcDbPoint
 10
4069.486854911263
 20
1126.879510394784
 30
0.0
  0
POINT
  5
1096
330
BF0
100
AcDbEntity
  8
Defpoints
  6
DIMENSION
 62
     0
100
AcDbPoint
 10
4195.028256185147
 20
1126.879510394784
 30
0.0
  0
ENDBLK
  5
BFA
330
BF0
100
AcDbEntity
  8
0
 62
     7
100
AcDbBlockEnd
  0
BLOCK
  5
C0F
330
C05
100
AcDbEntity
  8
0
 62
     7
100
AcDbBlockBegin
  2
*D6
 70
     1
 10
0.0
 20
0.0
 30
0.0
  3
*D6
  1

  0
LINE
  5
1086
330
C05
100
AcDbEntity
  8
0
  6
DIMENSION
 62
     3
370
    -2
100
AcDbLine
 10
4089.486854911263
 20
1126.879510394784
 30
0.0
 11
4215.028256185147
 21
1126.879510394784
 31
0.0
  0
LINE
  5
1087
330
C05
100
AcDbEntity
  8
0
  6
DIMENSION
 62
     3
370
    -2
100
AcDbLine
 10
4089.486854911263
 20
1026.879510394784
 30
0.0
 11
4215.028256185147
 21
1026.879510394784
 31
0.0
  0
LINE
  5
1088
330
C05
100
AcDbEntity
  8
0
  6
DIMENSION
 62
     3
370
    -2
100
AcDbLine
 10
4195.028256185147
 20
1086.879510394784
 30
0.0
 11
4195.028256185147
 21
1066.879510394784
 31
0.0
  0
SOLID
  5
1089
330
C05
100
AcDbEntity
  8
0
  6
DIMENSION
 62
     3
100
AcDbTrace
 10
4188.36158951848
 20
1086.879510394784
 30
0.0
 11
4201.694922851814
 21
1086.879510394784
 31
0.0
 12
4195.028256185147
 22
1126.879510394784
 32
0.0
 13
4195.028256185147
 23
1126.879510394784
 33
0.0
  0
SOLID
  5
108A
330
C05
100
AcDbEntity
  8
0
  6
DIMENSION
 62
     3
100
AcDbTrace
 10
4188.36158951848
 20
1066.879510394784
 30
0.0
 11
4201.694922851814
 21
1066.879510394784
 31
0.0
 12
4195.028256185147
 22
1026.879510394784
 32
0.0
 13
4195.028256185147
 23
1026.879510394784
 33
0.0
  0
MTEXT
  5
108B
330
C05
100
AcDbEntity
  8
0
  6
DIMENSION
 62
     3
100
AcDbMText
 10
4173.228256185147
 20
1076.879510394785
 30
0.0
 40
40.0
 41
0.0
 71
     5
 72
     1
  1
\A1;100
  7
STD
 11
6.123031769111886E-17
 21
1.0
 31
0.0
 73
     1
 44
1.0
  0
POINT
  5
108C
330
C05
100
AcDbEntity
  8
Defpoints
  6
DIMENSION
 62
     0
100
AcDbPoint
 10
4069.486854911263
 20
1126.879510394784
 30
0.0
  0
POINT
  5
108D
330
C05
100
AcDbEntity
  8
Defpoints
  6
DIMENSION
 62
     0
100
AcDbPoint
 10
4069.486854911263
 20
1026.879510394784
 30
0.0
  0
POINT
  5
108E
330
C05
100
AcDbEntity
  8
Defpoints
  6
DIMENSION
 62
     0
100
AcDbPoint
 10
4195.028256185147
 20
1026.879510394784
 30
0.0
  0
ENDBLK
  5
C10
330
C05
100
AcDbEntity
  8
0
 62
     7
100
AcDbBlockEnd
  0
BLOCK
  5
C26
330
C1C
100
AcDbEntity
  8
0
 62
     7
100
AcDbBlockBegin
  2
*D7
 70
     1
 10
0.0
 20
0.0
 30
0.0
  3
*D7
  1

  0
LINE
  5
107D
330
C1C
100
AcDbEntity
  8
0
  6
DIMENSION
 62
     3
370
    -2
100
AcDbLine
 10
4109.486854911262
 20
1126.879510394784
 30
0.0
 11
4334.445184741121
 21
1126.879510394784
 31
0.0
  0
LINE
  5
107E
330
C1C
100
AcDbEntity
  8
0
  6
DIMENSION
 62
     3
370
    -2
100
AcDbLine
 10
3839.486854911263
 20
4226.879510394783
 30
0.0
 11
4334.445184741122
 21
4226.879510394783
 31
0.0
  0
LINE
  5
107F
330
C1C
100
AcDbEntity
  8
0
  6
DIMENSION
 62
     3
370
    -2
100
AcDbLine
 10
4314.445184741121
 20
1166.879510394784
 30
0.0
 11
4314.445184741122
 21
4186.879510394783
 31
0.0
  0
SOLID
  5
1080
330
C1C
100
AcDbEntity
  8
0
  6
DIMENSION
 62
     3
100
AcDbTrace
 10
4307.778518074454
 20
1166.879510394784
 30
0.0
 11
4321.111851407788
 21
1166.879510394784
 31
0.0
 12
4314.445184741121
 22
1126.879510394784
 32
0.0
 13
4314.445184741121
 23
1126.879510394784
 33
0.0
  0
SOLID
  5
1081
330
C1C
100
AcDbEntity
  8
0
  6
DIMENSION
 62
     3
100
AcDbTrace
 10
4307.778518074455
 20
4186.879510394783
 30
0.0
 11
4321.111851407789
 21
4186.879510394783
 31
0.0
 12
4314.445184741122
 22
4226.879510394783
 32
0.0
 13
4314.445184741122
 23
4226.879510394783
 33
0.0
  0
MTEXT
  5
1082
330
C1C
100
AcDbEntity
  8
0
  6
DIMENSION
 62
     3
100
AcDbMText
 10
4292.645184741121
 20
2676.879510394784
 30
0.0
 40
40.0
 41
0.0
 71
     5
 72
     1
  1
\A1;3100
  7
STD
 11
6.123031769111886E-17
 21
1.0
 31
0.0
 73
     1
 44
1.0
  0
POINT
  5
1083
330
C1C
100
AcDbEntity
  8
Defpoints
  6
DIMENSION
 62
     0
100
AcDbPoint
 10
4089.486854911263
 20
1126.879510394784
 30
0.0
  0
POINT
  5
1084
330
C1C
100
AcDbEntity
  8
Defpoints
  6
DIMENSION
 62
     0
100
AcDbPoint
 10
3819.486854911263
 20
4226.879510394783
 30
0.0
  0
POINT
  5
1085
330
C1C
100
AcDbEntity
  8
Defpoints
  6
DIMENSION
 62
     0
100
AcDbPoint
 10
4314.445184741122
 20
4226.879510394783
 30
0.0
  0
ENDBLK
  5
C27
330
C1C
100
AcDbEntity
  8
0
 62
     7
100
AcDbBlockEnd
  0
BLOCK
  5
D08
330
CFE
100
AcDbEntity
  8
0
 62
     7
100
AcDbBlockBegin
  2
*D8
 70
     1
 10
0.0
 20
0.0
 30
0.0
  3
*D8
  1

  0
LINE
  5
10D5
330
CFE
100
AcDbEntity
  8
0
  6
DIMENSION
 62
     3
370
    -2
100
AcDbLine
 10
5701.82571335404
 20
4271.179510394783
 30
0.0
 11
5701.82571335404
 21
4603.776037637266
 31
0.0
  0
LINE
  5
10D6
330
CFE
100
AcDbEntity
  8
0
  6
DIMENSION
 62
     3
370
    -2
100
AcDbLine
 10
6301.82571335404
 20
4271.179510394783
 30
0.0
 11
6301.82571335404
 21
4603.776037637266
 31
0.0
  0
LINE
  5
10D7
330
CFE
100
AcDbEntity
  8
0
  6
DIMENSION
 62
     3
370
    -2
100
AcDbLine
 10
5741.82571335404
 20
4583.776037637266
 30
0.0
 11
6261.82571335404
 21
4583.776037637266
 31
0.0
  0
SOLID
  5
10D8
330
CFE
100
AcDbEntity
  8
0
  6
DIMENSION
 62
     3
100
AcDbTrace
 10
5741.82571335404
 20
4590.442704303933
 30
0.0
 11
5741.82571335404
 21
4577.109370970599
 31
0.0
 12
5701.82571335404
 22
4583.776037637266
 32
0.0
 13
5701.82571335404
 23
4583.776037637266
 33
0.0
  0
SOLID
  5
10D9
330
CFE
100
AcDbEntity
  8
0
  6
DIMENSION
 62
     3
100
AcDbTrace
 10
6261.82571335404
 20
4590.442704303933
 30
0.0
 11
6261.82571335404
 21
4577.109370970599
 31
0.0
 12
6301.82571335404
 22
4583.776037637266
 32
0.0
 13
6301.82571335404
 23
4583.776037637266
 33
0.0
  0
MTEXT
  5
10DA
330
CFE
100
AcDbEntity
  8
0
  6
DIMENSION
 62
     3
100
AcDbMText
 10
6001.82571335404
 20
4605.576037637266
 30
0.0
 40
40.0
 41
0.0
 71
     5
 72
     1
  1
\A1;600
  7
STD
 73
     1
 44
1.0
  0
POINT
  5
10DB
330
CFE
100
AcDbEntity
  8
Defpoints
  6
DIMENSION
 62
     0
100
AcDbPoint
 10
5701.82571335404
 20
4251.179510394783
 30
0.0
  0
POINT
  5
10DC
330
CFE
100
AcDbEntity
  8
Defpoints
  6
DIMENSION
 62
     0
100
AcDbPoint
 10
6301.82571335404
 20
4251.179510394783
 30
0.0
  0
POINT
  5
10DD
330
CFE
100
AcDbEntity
  8
Defpoints
  6
DIMENSION
 62
     0
100
AcDbPoint
 10
6301.82571335404
 20
4583.776037637266
 30
0.0
  0
ENDBLK
  5
D09
330
CFE
100
AcDbEntity
  8
0
 62
     7
100
AcDbBlockEnd
  0
BLOCK
  5
D1F
330
D15
100
AcDbEntity
  8
0
 62
     7
100
AcDbBlockBegin
  2
*D9
 70
     1
 10
0.0
 20
0.0
 30
0.0
  3
*D9
  1

  0
LINE
  5
10CC
330
D15
100
AcDbEntity
  8
0
  6
DIMENSION
 62
     3
370
    -2
100
AcDbLine
 10
5851.82571335404
 20
4260.479510394784
 30
0.0
 11
5851.82571335404
 21
4484.878984971097
 31
0.0
  0
LINE
  5
10CD
330
D15
100
AcDbEntity
  8
0
  6
DIMENSION
 62
     3
370
    -2
100
AcDbLine
 10
6151.82571335404
 20
4260.479510394784
 30
0.0
 11
6151.82571335404
 21
4484.878984971097
 31
0.0
  0
LINE
  5
10CE
330
D15
100
AcDbEntity
  8
0
  6
DIMENSION
 62
     3
370
    -2
100
AcDbLine
 10
5891.82571335404
 20
4464.878984971097
 30
0.0
 11
6111.82571335404
 21
4464.878984971097
 31
0.0
  0
SOLID
  5
10CF
330
D15
100
AcDbEntity
  8
0
  6
DIMENSION
 62
     3
100
AcDbTrace
 10
5891.82571335404
 20
4471.545651637764
 30
0.0
 11
5891.82571335404
 21
4458.21231830443
 31
0.0
 12
5851.82571335404
 22
4464.878984971097
 32
0.0
 13
5851.82571335404
 23
4464.878984971097
 33
0.0
  0
SOLID
  5
10D0
330
D15
100
AcDbEntity
  8
0
  6
DIMENSION
 62
     3
100
AcDbTrace
 10
6111.82571335404
 20
4471.545651637764
 30
0.0
 11
6111.82571335404
 21
4458.21231830443
 31
0.0
 12
6151.82571335404
 22
4464.878984971097
 32
0.0
 13
6151.82571335404
 23
4464.878984971097
 33
0.0
  0
MTEXT
  5
10D1
330
D15
100
AcDbEntity
  8
0
  6
DIMENSION
 62
     3
100
AcDbMText
 10
6001.82571335404
 20
4486.678984971098
 30
0.0
 40
40.0
 41
0.0
 71
     5
 72
     1
  1
\A1;300
  7
STD
 73
     1
 44
1.0
  0
POINT
  5
10D2
330
D15
100
AcDbEntity
  8
Defpoints
  6
DIMENSION
 62
     0
100
AcDbPoint
 10
5851.82571335404
 20
4240.479510394784
 30
0.0
  0
POINT
  5
10D3
330
D15
100
AcDbEntity
  8
Defpoints
  6
DIMENSION
 62
     0
100
AcDbPoint
 10
6151.82571335404
 20
4240.479510394784
 30
0.0
  0
POINT
  5
10D4
330
D15
100
AcDbEntity
  8
Defpoints
  6
DIMENSION
 62
     0
100
AcDbPoint
 10
6151.82571335404
 20
4464.878984971097
 30
0.0
  0
ENDBLK
  5
D20
330
D15
100
AcDbEntity
  8
0
 62
     7
100
AcDbBlockEnd
  0
BLOCK
  5
D36
330
D2C
100
AcDbEntity
  8
0
 62
     7
100
AcDbBlockBegin
  2
B1_06
 70
     0
 10
0.0
 20
0.0
 30
0.0
  3
B1_06
  1

  0
CIRCLE
  5
D2D
330
D2C
100
AcDbEntity
  8
0
  6
Continuous
 62
     7
100
AcDbCircle
 10
0.0
 20
0.0
 30
0.0
 40
6.5
  0
LINE
  5
D2E
330
D2C
100
AcDbEntity
  8
0
  6
CENS
 62
     1
100
AcDbLine
 10
-9.5
 20
0.0
 30
0.0
 11
9.5
 21
0.0
 31
0.0
  0
LINE
  5
D2F
330
D2C
100
AcDbEntity
  8
0
  6
CENS
 62
     1
100
AcDbLine
 10
0.0
 20
-10.50555349946512
 30
0.0
 11
0.0
 21
10.50555349946512
 31
0.0
  0
LINE
  5
D30
330
D2C
100
AcDbEntity
  8
0
  6
Continuous
 62
     7
100
AcDbLine
 10
-6.5
 20
3.752776749732561
 30
0.0
 11
0.0
 21
7.505553499465123
 31
0.0
  0
LINE
  5
D31
330
D2C
100
AcDbEntity
  8
0
  6
Continuous
 62
     7
100
AcDbLine
 10
0.0
 20
7.505553499465123
 30
0.0
 11
6.5
 21
3.752776749732561
 31
0.0
  0
LINE
  5
D32
330
D2C
100
AcDbEntity
  8
0
  6
Continuous
 62
     7
100
AcDbLine
 10
6.5
 20
3.752776749732561
 30
0.0
 11
6.5
 21
-3.752776749732561
 31
0.0
  0
LINE
  5
D33
330
D2C
100
AcDbEntity
  8
0
  6
Continuous
 62
     7
100
AcDbLine
 10
6.5
 20
-3.752776749732561
 30
0.0
 11
0.0
 21
-7.505553499465123
 31
0.0
  0
LINE
  5
D34
330
D2C
100
AcDbEntity
  8
0
  6
Continuous
 62
     7
100
AcDbLine
 10
0.0
 20
-7.505553499465123
 30
0.0
 11
-6.5
 21
-3.752776749732561
 31
0.0
  0
LINE
  5
D35
330
D2C
100
AcDbEntity
  8
0
  6
Continuous
 62
     7
100
AcDbLine
 10
-6.5
 20
-3.752776749732561
 30
0.0
 11
-6.5
 21
3.752776749732561
 31
0.0
  0
ENDBLK
  5
D37
330
D2C
100
AcDbEntity
  8
0
 62
     7
100
AcDbBlockEnd
  0
BLOCK
  5
D7D
330
D79
100
AcDbEntity
  8
0
 62
     7
100
AcDbBlockBegin
  2
A$C235E2914
 70
     0
 10
0.0
 20
0.0
 30
0.0
  3
A$C235E2914
  1

  0
XLINE
  5
D7A
330
D79
100
AcDbEntity
  8
0
  6
DRAFT
 62
   134
100
AcDbXline
 10
98.71709601479779
 20
450.0
 30
0.0
 11
1.0
 21
0.0
 31
0.0
  0
XLINE
  5
D7B
330
D79
100
AcDbEntity
  8
0
  6
DRAFT
 62
   134
100
AcDbXline
 10
87.45270116272832
 20
300.0
 30
0.0
 11
1.0
 21
0.0
 31
0.0
  0
XLINE
  5
D7C
330
D79
100
AcDbEntity
  8
0
  6
DRAFT
 62
   134
100
AcDbXline
 10
98.71709601479779
 20
150.0
 30
0.0
 11
1.0
 21
0.0
 31
0.0
  0
ENDBLK
  5
D7E
330
D79
100
AcDbEntity
  8
0
 62
     7
100
AcDbBlockEnd
  0
BLOCK
  5
DA4
330
D9A
100
AcDbEntity
  8
0
 62
     7
100
AcDbBlockBegin
  2
*D12
 70
     1
 10
0.0
 20
0.0
 30
0.0
  3
*D12
  1

  0
LINE
  5
10C3
330
D9A
100
AcDbEntity
  8
0
  6
DIMENSION
 62
     3
370
    -2
100
AcDbLine
 10
5531.82571335404
 20
1626.879510394784
 30
0.0
 11
5244.111001448658
 21
1626.879510394784
 31
0.0
  0
LINE
  5
10C4
330
D9A
100
AcDbEntity
  8
0
  6
DIMENSION
 62
     3
370
    -2
100
AcDbLine
 10
5657.52571335404
 20
4226.879510394783
 30
0.0
 11
5244.111001448658
 21
4226.879510394783
 31
0.0
  0
LINE
  5
10C5
330
D9A
100
AcDbEntity
  8
0
  6
DIMENSION
 62
     3
370
    -2
100
AcDbLine
 10
5264.111001448658
 20
1666.879510394784
 30
0.0
 11
5264.111001448658
 21
4186.879510394783
 31
0.0
  0
SOLID
  5
10C6
330
D9A
100
AcDbEntity
  8
0
  6
DIMENSION
 62
     3
100
AcDbTrace
 10
5257.444334781991
 20
1666.879510394784
 30
0.0
 11
5270.777668115325
 21
1666.879510394784
 31
0.0
 12
5264.111001448658
 22
1626.879510394784
 32
0.0
 13
5264.111001448658
 23
1626.879510394784
 33
0.0
  0
SOLID
  5
10C7
330
D9A
100
AcDbEntity
  8
0
  6
DIMENSION
 62
     3
100
AcDbTrace
 10
5257.444334781992
 20
4186.879510394783
 30
0.0
 11
5270.777668115325
 21
4186.879510394783
 31
0.0
 12
5264.111001448658
 22
4226.879510394783
 32
0.0
 13
5264.111001448658
 23
4226.879510394783
 33
0.0
  0
MTEXT
  5
10C8
330
D9A
100
AcDbEntity
  8
0
  6
DIMENSION
 62
     3
100
AcDbMText
 10
5242.311001448657
 20
2926.879510394784
 30
0.0
 40
40.0
 41
0.0
 71
     5
 72
     1
  1
\A1;2600
  7
STD
 11
6.123031769111886E-17
 21
1.0
 31
0.0
 73
     1
 44
1.0
  0
POINT
  5
10C9
330
D9A
100
AcDbEntity
  8
Defpoints
  6
DIMENSION
 62
     0
100
AcDbPoint
 10
5551.82571335404
 20
1626.879510394784
 30
0.0
  0
POINT
  5
10CA
330
D9A
100
AcDbEntity
  8
Defpoints
  6
DIMENSION
 62
     0
100
AcDbPoint
 10
5677.52571335404
 20
4226.879510394783
 30
0.0
  0
POINT
  5
10CB
330
D9A
100
AcDbEntity
  8
Defpoints
  6
DIMENSION
 62
     0
100
AcDbPoint
 10
5264.111001448658
 20
4226.879510394783
 30
0.0
  0
ENDBLK
  5
DA5
330
D9A
100
AcDbEntity
  8
0
 62
     7
100
AcDbBlockEnd
  0
BLOCK
  5
DD5
330
DCF
100
AcDbEntity
  8
0
 62
     7
100
AcDbBlockBegin
  2
signMARU
 70
     0
 10
0.0
 20
0.0
 30
0.0
  3
signMARU
  1

  0
HATCH
  5
DD0
330
DCF
100
AcDbEntity
  8
0
 62
     7
100
AcDbHatch
 10
0.0
 20
0.0
 30
0.0
210
0.0
220
0.0
230
1.0
  2
SOLID
 70
     1
 71
     1
 91
        4
 92
        7
 72
     1
 73
     1
 93
        2
 10
48.33998493898616
 20
197.2161203090304
 42
1.0
 10
326.506031692973
 20
197.2161203090304
 42
1.0
 97
        1
330
DD1
 92
       22
 72
     1
 73
     1
 93
        2
 10
320.5060316929721
 20
197.2161203090304
 42
-1.0
 10
54.33998493898616
 20
197.2161203090304
 42
-1.0
 97
        1
330
DD4
 92
      137
 93
        4
 72
     1
 10
114.4131200885658
 20
49.66154456743436
 11
265.5183832464609
 21
49.66154456743436
 72
     1
 10
265.5183832464609
 20
49.66154456743436
 11
265.5183832464609
 21
182.8425971990133
 72
     1
 10
265.5183832464609
 20
182.8425971990133
 11
114.4131200885658
 21
182.8425971990133
 72
     1
 10
114.4131200885658
 20
182.8425971990133
 11
114.4131200885658
 21
49.66154456743436
 97
        1
330
DD2
 92
      137
 93
        4
 72
     1
 10
22.51306550977188
 20
130.8600108425346
 11
276.0595918255613
 21
130.8600108425346
 72
     1
 10
276.0595918255613
 20
130.8600108425346
 11
276.0595918255613
 21
325.0389582109556
 72
     1
 10
276.0595918255613
 20
325.0389582109556
 11
22.51306550977188
 21
325.0389582109556
 72
     1
 10
22.51306550977188
 20
325.0389582109556
 11
22.51306550977188
 21
130.8600108425346
 97
        1
330
DD3
 75
     0
 76
     1
 47
0.5709725132640477
 98
        2
 10
240.5943540078924
 20
323.1505752699595
 10
240.5943540078924
 20
323.1505752699595
1001
ASKOBJSC
1000
1/60
1001
ASKDWGSC
1040
30.0
  0
CIRCLE
  5
DD1
102
{ACAD_REACTORS
330
DD0
102
}
330
DCF
100
AcDbEntity
  8
9図面文字
  6
Continuous
 62
     7
100
AcDbCircle
 10
187.4230083159791
 20
197.2161203090304
 30
0.0
 40
139.0830233769932
  0
TEXT
  5
DD2
102
{ACAD_REACTORS
330
DD0
102
}
330
DCF
100
AcDbEntity
  8
0
 62
     7
100
AcDbText
 10
136.6099621938292
 20
78.52786035690804
 30
0.0
 40
79.2
  1
智
  7
ｽﾀｲﾙ1
100
AcDbText
1001
ASKOBJSC
1000
1/60
1001
ASKDWGSC
1040
30.0
  0
TEXT
  5
DD3
102
{ACAD_REACTORS
330
DD0
102
}
330
DCF
100
AcDbEntity
  8
0
 62
     7
100
AcDbText
 10
54.87622340450889
 20
163.2231687372715
 30
0.0
 40
143.0
  1
丸山
 41
0.7
  7
ｽﾀｲﾙ1
100
AcDbText
1001
ASKOBJSC
1000
1/60
1001
ASKDWGSC
1040
30.0
  0
CIRCLE
  5
DD4
102
{ACAD_REACTORS
330
DD0
102
}
330
DCF
100
AcDbEntity
  8
9図面文字
  6
Continuous
 62
     7
100
AcDbCircle
 10
187.4230083159791
 20
197.2161203090304
 30
0.0
 40
133.0830233769932
  0
ENDBLK
  5
DD6
330
DCF
100
AcDbEntity
  8
0
 62
     7
100
AcDbBlockEnd
  0
BLOCK
  5
DDB
330
DD9
100
AcDbEntity
  8
0
 62
     7
100
AcDbBlockBegin
  2
A$C55431ECD
 70
     0
 10
0.0
 20
0.0
 30
0.0
  3
A$C55431ECD
  1

  0
CIRCLE
  5
DDA
330
DD9
100
AcDbEntity
  8
0
 62
     3
100
AcDbCircle
 10
0.0
 20
0.0
 30
0.0
 40
1.2
1001
ASKOBJSC
1000
1/50
1001
ASKDWGSC
1040
20.0
  0
ENDBLK
  5
DDC
330
DD9
100
AcDbEntity
  8
0
 62
     7
100
AcDbBlockEnd
  0
BLOCK
  5
DE3
330
DDE
100
AcDbEntity
  8
0
 62
     7
100
AcDbBlockBegin
  2
sugnkINAMI
 70
     0
 10
0.0
 20
0.0
 30
0.0
  3
sugnkINAMI
  1

  0
CIRCLE
  5
DDF
330
DDE
100
AcDbEntity
  8
9図面文字
  6
Continuous
 62
     7
100
AcDbCircle
 10
179.7684808571266
 20
197.2161203090304
 30
0.0
 40
133.0830233769932
  0
TEXT
  5
DE0
330
DDE
100
AcDbEntity
  8
0
 62
     7
100
AcDbText
 10
39.55619712508633
 20
133.7572230417155
 30
0.0
 40
143.0
  1
木浪
 41
0.7
  7
ｽﾀｲﾙ1
100
AcDbText
1001
ASKOBJSC
1000
1/60
1001
ASKDWGSC
1040
30.0
  0
CIRCLE
  5
DE1
330
DDE
100
AcDbEntity
  8
9図面文字
  6
Continuous
 62
     7
100
AcDbCircle
 10
179.7684808571266
 20
197.2161203090304
 30
0.0
 40
139.0830233769932
  0
HATCH
  5
DE2
330
DDE
100
AcDbEntity
  8
0
 62
     7
100
AcDbHatch
 10
0.0
 20
0.0
 30
0.0
210
0.0
220
0.0
230
1.0
  2
SOLID
 70
     1
 71
     0
 91
        4
 92
        7
 72
     1
 73
     1
 93
        2
 10
40.68545748013366
 20
197.2161203090304
 42
1.0
 10
318.8515042341205
 20
197.2161203090304
 42
1.0
 97
        0
 92
       22
 72
     1
 73
     1
 93
        2
 10
312.8515042341196
 20
197.2161203090304
 42
-1.0
 10
46.68545748013366
 20
197.2161203090304
 42
-1.0
 97
        0
 92
      137
 93
        4
 72
     1
 10
106.7585926297133
 20
49.66154456743436
 11
257.8638557876084
 21
49.66154456743436
 72
     1
 10
257.8638557876084
 20
49.66154456743436
 11
257.8638557876084
 21
182.8425971990133
 72
     1
 10
257.8638557876084
 20
182.8425971990133
 11
106.7585926297133
 21
182.8425971990133
 72
     1
 10
106.7585926297133
 20
182.8425971990133
 11
106.7585926297133
 21
49.66154456743436
 97
        0
 92
      137
 93
        4
 72
     1
 10
5.638801208814584
 20
105.0823792635872
 11
277.6248012088136
 21
105.0823792635872
 72
     1
 10
277.6248012088136
 20
105.0823792635872
 11
277.6248012088136
 21
354.57974768464
 72
     1
 10
277.6248012088136
 20
354.57974768464
 11
5.638801208814584
 21
354.57974768464
 72
     1
 10
5.638801208814584
 20
354.57974768464
 11
5.638801208814584
 21
105.0823792635872
 97
        0
 75
     0
 76
     1
 47
0.5709725132640477
 98
        2
 10
232.9398265490399
 20
323.1505752699595
 10
232.9398265490399
 20
323.1505752699595
1001
ASKOBJSC
1000
1/60
1001
ASKDWGSC
1040
30.0
  0
ENDBLK
  5
DE4
330
DDE
100
AcDbEntity
  8
0
 62
     7
100
AcDbBlockEnd
  0
BLOCK
  5
E8F
330
E8E
100
AcDbEntity
  8
0
 62
     7
100
AcDbBlockBegin
  2
*U16
 70
     1
 10
0.0
 20
0.0
 30
0.0
  3
*U16
  1

  0
ENDBLK
  5
E90
330
E8E
100
AcDbEntity
  8
0
 62
     7
100
AcDbBlockEnd
  0
BLOCK
  5
1014
330
100A
100
AcDbEntity
  8
0
 62
     7
100
AcDbBlockBegin
  2
*D17
 70
     1
 10
0.0
 20
0.0
 30
0.0
  3
*D17
  1

  0
LINE
  5
11C9
330
100A
100
AcDbEntity
  8
0
  6
DIMENSION
 62
     3
370
    -2
100
AcDbLine
 10
6451.82571335404
 20
1006.879510394784
 30
0.0
 11
6451.82571335404
 21
898.5523989860576
 31
0.0
  0
LINE
  5
11CA
330
100A
100
AcDbEntity
  8
0
  6
DIMENSION
 62
     3
370
    -2
100
AcDbLine
 10
5551.82571335404
 20
1006.879510394784
 30
0.0
 11
5551.82571335404
 21
898.5523989860576
 31
0.0
  0
LINE
  5
11CB
330
100A
100
AcDbEntity
  8
0
  6
DIMENSION
 62
     3
370
    -2
100
AcDbLine
 10
6411.82571335404
 20
918.5523989860576
 30
0.0
 11
5591.82571335404
 21
918.5523989860576
 31
0.0
  0
SOLID
  5
11CC
330
100A
100
AcDbEntity
  8
0
  6
DIMENSION
 62
     3
100
AcDbTrace
 10
6411.82571335404
 20
925.2190656527242
 30
0.0
 11
6411.82571335404
 21
911.885732319391
 31
0.0
 12
6451.82571335404
 22
918.5523989860576
 32
0.0
 13
6451.82571335404
 23
918.5523989860576
 33
0.0
  0
SOLID
  5
11CD
330
100A
100
AcDbEntity
  8
0
  6
DIMENSION
 62
     3
100
AcDbTrace
 10
5591.82571335404
 20
925.2190656527242
 30
0.0
 11
5591.82571335404
 21
911.885732319391
 31
0.0
 12
5551.82571335404
 22
918.5523989860576
 32
0.0
 13
5551.82571335404
 23
918.5523989860576
 33
0.0
  0
MTEXT
  5
11CE
330
100A
100
AcDbEntity
  8
0
  6
DIMENSION
 62
     3
100
AcDbMText
 10
6001.82571335404
 20
940.3523989860576
 30
0.0
 40
40.0
 41
0.0
 71
     5
 72
     1
  1
\A1;900
  7
STD
 73
     1
 44
1.0
  0
POINT
  5
11CF
330
100A
100
AcDbEntity
  8
Defpoints
  6
DIMENSION
 62
     0
100
AcDbPoint
 10
6451.82571335404
 20
1026.879510394784
 30
0.0
  0
POINT
  5
11D0
330
100A
100
AcDbEntity
  8
Defpoints
  6
DIMENSION
 62
     0
100
AcDbPoint
 10
5551.82571335404
 20
1026.879510394784
 30
0.0
  0
POINT
  5
11D1
330
100A
100
AcDbEntity
  8
Defpoints
  6
DIMENSION
 62
     0
100
AcDbPoint
 10
5551.82571335404
 20
918.5523989860576
 30
0.0
  0
ENDBLK
  5
1015
330
100A
100
AcDbEntity
  8
0
 62
     7
100
AcDbBlockEnd
  0
BLOCK
  5
102B
330
1021
100
AcDbEntity
  8
0
 62
     7
100
AcDbBlockBegin
  2
*D18
 70
     1
 10
0.0
 20
0.0
 30
0.0
  3
*D18
  1

  0
LINE
  5
11B7
330
1021
100
AcDbEntity
  8
0
  6
DIMENSION
 62
     3
370
    -2
100
AcDbLine
 10
5501.82571335404
 20
1006.879510394784
 30
0.0
 11
5501.82571335404
 21
833.7393114174683
 31
0.0
  0
LINE
  5
11B8
330
1021
100
AcDbEntity
  8
0
  6
DIMENSION
 62
     3
370
    -2
100
AcDbLine
 10
6501.82571335404
 20
1006.879510394784
 30
0.0
 11
6501.82571335404
 21
833.7393114174683
 31
0.0
  0
LINE
  5
11B9
330
1021
100
AcDbEntity
  8
0
  6
DIMENSION
 62
     3
370
    -2
100
AcDbLine
 10
5541.82571335404
 20
853.7393114174683
 30
0.0
 11
6461.82571335404
 21
853.7393114174683
 31
0.0
  0
SOLID
  5
11BA
330
1021
100
AcDbEntity
  8
0
  6
DIMENSION
 62
     3
100
AcDbTrace
 10
5541.82571335404
 20
860.405978084135
 30
0.0
 11
5541.82571335404
 21
847.0726447508017
 31
0.0
 12
5501.82571335404
 22
853.7393114174683
 32
0.0
 13
5501.82571335404
 23
853.7393114174683
 33
0.0
  0
SOLID
  5
11BB
330
1021
100
AcDbEntity
  8
0
  6
DIMENSION
 62
     3
100
AcDbTrace
 10
6461.82571335404
 20
860.405978084135
 30
0.0
 11
6461.82571335404
 21
847.0726447508017
 31
0.0
 12
6501.82571335404
 22
853.7393114174683
 32
0.0
 13
6501.82571335404
 23
853.7393114174683
 33
0.0
  0
MTEXT
  5
11BC
330
1021
100
AcDbEntity
  8
0
  6
DIMENSION
 62
     3
100
AcDbMText
 10
6001.82571335404
 20
875.5393114174683
 30
0.0
 40
40.0
 41
0.0
 71
     5
 72
     1
  1
\A1;1000
  7
STD
 73
     1
 44
1.0
  0
POINT
  5
11BD
330
1021
100
AcDbEntity
  8
Defpoints
  6
DIMENSION
 62
     0
100
AcDbPoint
 10
5501.82571335404
 20
1026.879510394784
 30
0.0
  0
POINT
  5
11BE
330
1021
100
AcDbEntity
  8
Defpoints
  6
DIMENSION
 62
     0
100
AcDbPoint
 10
6501.82571335404
 20
1026.879510394784
 30
0.0
  0
POINT
  5
11BF
330
1021
100
AcDbEntity
  8
Defpoints
  6
DIMENSION
 62
     0
100
AcDbPoint
 10
6501.82571335404
 20
853.7393114174683
 30
0.0
  0
ENDBLK
  5
102C
330
1021
100
AcDbEntity
  8
0
 62
     7
100
AcDbBlockEnd
  0
BLOCK
  5
1048
330
103E
100
AcDbEntity
  8
0
 62
     7
100
AcDbBlockBegin
  2
*D19
 70
     1
 10
0.0
 20
0.0
 30
0.0
  3
*D19
  1

  0
LINE
  5
11A0
330
103E
100
AcDbEntity
  8
0
  6
DIMENSION
 62
     3
370
    -2
100
AcDbLine
 10
3619.486854911263
 20
1006.879510394784
 30
0.0
 11
3619.486854911263
 21
898.5523989860576
 31
0.0
  0
LINE
  5
11A1
330
103E
100
AcDbEntity
  8
0
  6
DIMENSION
 62
     3
370
    -2
100
AcDbLine
 10
4019.486854911263
 20
1006.879510394784
 30
0.0
 11
4019.486854911263
 21
898.5523989860576
 31
0.0
  0
LINE
  5
11A2
330
103E
100
AcDbEntity
  8
0
  6
DIMENSION
 62
     3
370
    -2
100
AcDbLine
 10
3659.486854911263
 20
918.5523989860576
 30
0.0
 11
3979.486854911263
 21
918.5523989860576
 31
0.0
  0
SOLID
  5
11A3
330
103E
100
AcDbEntity
  8
0
  6
DIMENSION
 62
     3
100
AcDbTrace
 10
3659.486854911263
 20
925.2190656527242
 30
0.0
 11
3659.486854911263
 21
911.885732319391
 31
0.0
 12
3619.486854911263
 22
918.5523989860576
 32
0.0
 13
3619.486854911263
 23
918.5523989860576
 33
0.0
  0
SOLID
  5
11A4
330
103E
100
AcDbEntity
  8
0
  6
DIMENSION
 62
     3
100
AcDbTrace
 10
3979.486854911263
 20
925.2190656527242
 30
0.0
 11
3979.486854911263
 21
911.885732319391
 31
0.0
 12
4019.486854911263
 22
918.5523989860576
 32
0.0
 13
4019.486854911263
 23
918.5523989860576
 33
0.0
  0
MTEXT
  5
11A5
330
103E
100
AcDbEntity
  8
0
  6
DIMENSION
 62
     3
100
AcDbMText
 10
3823.956737992143
 20
940.3523989860576
 30
0.0
 40
40.0
 41
0.0
 71
     5
 72
     1
  1
\A1;400
  7
STD
 73
     1
 44
1.0
  0
POINT
  5
11A6
330
103E
100
AcDbEntity
  8
Defpoints
  6
DIMENSION
 62
     0
100
AcDbPoint
 10
3619.486854911263
 20
1026.879510394784
 30
0.0
  0
POINT
  5
11A7
330
103E
100
AcDbEntity
  8
Defpoints
  6
DIMENSION
 62
     0
100
AcDbPoint
 10
4019.486854911263
 20
1026.879510394784
 30
0.0
  0
POINT
  5
11A8
330
103E
100
AcDbEntity
  8
Defpoints
  6
DIMENSION
 62
     0
100
AcDbPoint
 10
4019.486854911263
 20
918.5523989860576
 30
0.0
  0
ENDBLK
  5
1049
330
103E
100
AcDbEntity
  8
0
 62
     7
100
AcDbBlockEnd
  0
BLOCK
  5
105F
330
1055
100
AcDbEntity
  8
0
 62
     7
100
AcDbBlockBegin
  2
*D20
 70
     1
 10
0.0
 20
0.0
 30
0.0
  3
*D20
  1

  0
LINE
  5
118E
330
1055
100
AcDbEntity
  8
0
  6
DIMENSION
 62
     3
370
    -2
100
AcDbLine
 10
3569.486854911263
 20
1006.879510394784
 30
0.0
 11
3569.486854911263
 21
833.7393114174683
 31
0.0
  0
LINE
  5
118F
330
1055
100
AcDbEntity
  8
0
  6
DIMENSION
 62
     3
370
    -2
100
AcDbLine
 10
4069.486854911263
 20
1006.879510394784
 30
0.0
 11
4069.486854911263
 21
833.7393114174683
 31
0.0
  0
LINE
  5
1190
330
1055
100
AcDbEntity
  8
0
  6
DIMENSION
 62
     3
370
    -2
100
AcDbLine
 10
3609.486854911263
 20
853.7393114174683
 30
0.0
 11
4029.486854911263
 21
853.7393114174683
 31
0.0
  0
SOLID
  5
1191
330
1055
100
AcDbEntity
  8
0
  6
DIMENSION
 62
     3
100
AcDbTrace
 10
3609.486854911263
 20
860.405978084135
 30
0.0
 11
3609.486854911263
 21
847.0726447508017
 31
0.0
 12
3569.486854911263
 22
853.7393114174683
 32
0.0
 13
3569.486854911263
 23
853.7393114174683
 33
0.0
  0
SOLID
  5
1192
330
1055
100
AcDbEntity
  8
0
  6
DIMENSION
 62
     3
100
AcDbTrace
 10
4029.486854911263
 20
860.405978084135
 30
0.0
 11
4029.486854911263
 21
847.0726447508017
 31
0.0
 12
4069.486854911263
 22
853.7393114174683
 32
0.0
 13
4069.486854911263
 23
853.7393114174683
 33
0.0
  0
MTEXT
  5
1193
330
1055
100
AcDbEntity
  8
0
  6
DIMENSION
 62
     3
100
AcDbMText
 10
3823.956737992143
 20
875.5393114174683
 30
0.0
 40
40.0
 41
0.0
 71
     5
 72
     1
  1
\A1;500
  7
STD
 73
     1
 44
1.0
  0
POINT
  5
1194
330
1055
100
AcDbEntity
  8
Defpoints
  6
DIMENSION
 62
     0
100
AcDbPoint
 10
3569.486854911263
 20
1026.879510394784
 30
0.0
  0
POINT
  5
1195
330
1055
100
AcDbEntity
  8
Defpoints
  6
DIMENSION
 62
     0
100
AcDbPoint
 10
4069.486854911263
 20
1026.879510394784
 30
0.0
  0
POINT
  5
1196
330
1055
100
AcDbEntity
  8
Defpoints
  6
DIMENSION
 62
     0
100
AcDbPoint
 10
4069.486854911263
 20
853.7393114174683
 30
0.0
  0
ENDBLK
  5
1060
330
1055
100
AcDbEntity
  8
0
 62
     7
100
AcDbBlockEnd
  0
BLOCK
  5
10EB
330
10E1
100
AcDbEntity
  8
0
 62
     7
100
AcDbBlockBegin
  2
*D21
 70
     1
 10
0.0
 20
0.0
 30
0.0
  3
*D21
  1

  0
LINE
  5
10ED
330
10E1
100
AcDbEntity
  8
0
  6
DIMENSION
 62
     3
370
    -2
100
AcDbLine
 10
1619.486854911263
 20
3146.879510394784
 30
0.0
 11
1619.486854911263
 21
4457.942577908421
 31
0.0
  0
LINE
  5
10EE
330
10E1
100
AcDbEntity
  8
0
  6
DIMENSION
 62
     3
370
    -2
100
AcDbLine
 10
3819.486854911263
 20
3146.879510394784
 30
0.0
 11
3819.486854911263
 21
4457.942577908421
 31
0.0
  0
LINE
  5
10EF
330
10E1
100
AcDbEntity
  8
0
  6
DIMENSION
 62
     3
370
    -2
100
AcDbLine
 10
1659.486854911263
 20
4437.942577908421
 30
0.0
 11
3779.486854911263
 21
4437.942577908421
 31
0.0
  0
SOLID
  5
10F0
330
10E1
100
AcDbEntity
  8
0
  6
DIMENSION
 62
     3
100
AcDbTrace
 10
1659.486854911263
 20
4444.609244575088
 30
0.0
 11
1659.486854911263
 21
4431.275911241754
 31
0.0
 12
1619.486854911263
 22
4437.942577908421
 32
0.0
 13
1619.486854911263
 23
4437.942577908421
 33
0.0
  0
SOLID
  5
10F1
330
10E1
100
AcDbEntity
  8
0
  6
DIMENSION
 62
     3
100
AcDbTrace
 10
3779.486854911263
 20
4444.609244575088
 30
0.0
 11
3779.486854911263
 21
4431.275911241754
 31
0.0
 12
3819.486854911263
 22
4437.942577908421
 32
0.0
 13
3819.486854911263
 23
4437.942577908421
 33
0.0
  0
MTEXT
  5
10F2
330
10E1
100
AcDbEntity
  8
0
  6
DIMENSION
 62
     3
100
AcDbMText
 10
2719.486854911263
 20
4459.742577908421
 30
0.0
 40
40.0
 41
0.0
 71
     5
 72
     1
  1
\A1;2200
  7
STD
 73
     1
 44
1.0
  0
POINT
  5
10F3
330
10E1
100
AcDbEntity
  8
Defpoints
  6
DIMENSION
 62
     0
100
AcDbPoint
 10
1619.486854911263
 20
3126.879510394784
 30
0.0
  0
POINT
  5
10F4
330
10E1
100
AcDbEntity
  8
Defpoints
  6
DIMENSION
 62
     0
100
AcDbPoint
 10
3819.486854911263
 20
3126.879510394784
 30
0.0
  0
POINT
  5
10F5
330
10E1
100
AcDbEntity
  8
Defpoints
  6
DIMENSION
 62
     0
100
AcDbPoint
 10
3819.486854911263
 20
4437.942577908421
 30
0.0
  0
ENDBLK
  5
10EC
330
10E1
100
AcDbEntity
  8
0
 62
     7
100
AcDbBlockEnd
  0
BLOCK
  5
1106
330
10FC
100
AcDbEntity
  8
0
 62
     7
100
AcDbBlockBegin
  2
*D22
 70
     1
 10
0.0
 20
0.0
 30
0.0
  3
*D22
  1

  0
LINE
  5
1108
330
10FC
100
AcDbEntity
  8
0
  6
DIMENSION
 62
     3
370
    -2
100
AcDbLine
 10
1399.486854911263
 20
5585.086956917314
 30
0.0
 11
1214.348393258671
 21
5585.086956917314
 31
0.0
  0
LINE
  5
1109
330
10FC
100
AcDbEntity
  8
0
  6
DIMENSION
 62
     3
370
    -2
100
AcDbLine
 10
1399.486854911263
 20
4685.086956917314
 30
0.0
 11
1214.348393258671
 21
4685.086956917314
 31
0.0
  0
LINE
  5
110A
330
10FC
100
AcDbEntity
  8
0
  6
DIMENSION
 62
     3
370
    -2
100
AcDbLine
 10
1234.348393258671
 20
5545.086956917314
 30
0.0
 11
1234.348393258671
 21
4725.086956917314
 31
0.0
  0
SOLID
  5
110B
330
10FC
100
AcDbEntity
  8
0
  6
DIMENSION
 62
     3
100
AcDbTrace
 10
1227.681726592005
 20
5545.086956917314
 30
0.0
 11
1241.015059925338
 21
5545.086956917314
 31
0.0
 12
1234.348393258671
 22
5585.086956917314
 32
0.0
 13
1234.348393258671
 23
5585.086956917314
 33
0.0
  0
SOLID
  5
110C
330
10FC
100
AcDbEntity
  8
0
  6
DIMENSION
 62
     3
100
AcDbTrace
 10
1227.681726592005
 20
4725.086956917314
 30
0.0
 11
1241.015059925338
 21
4725.086956917314
 31
0.0
 12
1234.348393258671
 22
4685.086956917314
 32
0.0
 13
1234.348393258671
 23
4685.086956917314
 33
0.0
  0
MTEXT
  5
110D
330
10FC
100
AcDbEntity
  8
0
  6
DIMENSION
 62
     3
100
AcDbMText
 10
1212.548393258671
 20
5135.086956917314
 30
0.0
 40
40.0
 41
0.0
 71
     5
 72
     1
  1
\A1;900
  7
STD
 11
6.123031769111886E-17
 21
1.0
 31
0.0
 73
     1
 44
1.0
  0
POINT
  5
110E
330
10FC
100
AcDbEntity
  8
Defpoints
  6
DIMENSION
 62
     0
100
AcDbPoint
 10
1419.486854911263
 20
5585.086956917314
 30
0.0
  0
POINT
  5
110F
330
10FC
100
AcDbEntity
  8
Defpoints
  6
DIMENSION
 62
     0
100
AcDbPoint
 10
1419.486854911263
 20
4685.086956917314
 30
0.0
  0
POINT
  5
1110
330
10FC
100
AcDbEntity
  8
Defpoints
  6
DIMENSION
 62
     0
100
AcDbPoint
 10
1234.348393258671
 20
4685.086956917314
 30
0.0
  0
ENDBLK
  5
1107
330
10FC
100
AcDbEntity
  8
0
 62
     7
100
AcDbBlockEnd
  0
BLOCK
  5
111D
330
1113
100
AcDbEntity
  8
0
 62
     7
100
AcDbBlockBegin
  2
*D23
 70
     1
 10
0.0
 20
0.0
 30
0.0
  3
*D23
  1

  0
LINE
  5
111F
330
1113
100
AcDbEntity
  8
0
  6
DIMENSION
 62
     3
370
    -2
100
AcDbLine
 10
1599.486854911263
 20
5435.086956917314
 30
0.0
 11
1308.625601783267
 21
5435.086956917314
 31
0.0
  0
LINE
  5
1120
330
1113
100
AcDbEntity
  8
0
  6
DIMENSION
 62
     3
370
    -2
100
AcDbLine
 10
1599.486854911263
 20
4835.086956917314
 30
0.0
 11
1308.625601783267
 21
4835.086956917314
 31
0.0
  0
LINE
  5
1121
330
1113
100
AcDbEntity
  8
0
  6
DIMENSION
 62
     3
370
    -2
100
AcDbLine
 10
1328.625601783267
 20
5395.086956917314
 30
0.0
 11
1328.625601783267
 21
4875.086956917314
 31
0.0
  0
SOLID
  5
1122
330
1113
100
AcDbEntity
  8
0
  6
DIMENSION
 62
     3
100
AcDbTrace
 10
1321.958935116601
 20
5395.086956917314
 30
0.0
 11
1335.292268449934
 21
5395.086956917314
 31
0.0
 12
1328.625601783267
 22
5435.086956917314
 32
0.0
 13
1328.625601783267
 23
5435.086956917314
 33
0.0
  0
SOLID
  5
1123
330
1113
100
AcDbEntity
  8
0
  6
DIMENSION
 62
     3
100
AcDbTrace
 10
1321.958935116601
 20
4875.086956917314
 30
0.0
 11
1335.292268449934
 21
4875.086956917314
 31
0.0
 12
1328.625601783267
 22
4835.086956917314
 32
0.0
 13
1328.625601783267
 23
4835.086956917314
 33
0.0
  0
MTEXT
  5
1124
330
1113
100
AcDbEntity
  8
0
  6
DIMENSION
 62
     3
100
AcDbMText
 10
1306.825601783267
 20
5135.086956917314
 30
0.0
 40
40.0
 41
0.0
 71
     5
 72
     1
  1
\A1;600
  7
STD
 11
6.123031769111886E-17
 21
1.0
 31
0.0
 73
     1
 44
1.0
  0
POINT
  5
1125
330
1113
100
AcDbEntity
  8
Defpoints
  6
DIMENSION
 62
     0
100
AcDbPoint
 10
1619.486854911263
 20
5435.086956917314
 30
0.0
  0
POINT
  5
1126
330
1113
100
AcDbEntity
  8
Defpoints
  6
DIMENSION
 62
     0
100
AcDbPoint
 10
1619.486854911263
 20
4835.086956917314
 30
0.0
  0
POINT
  5
1127
330
1113
100
AcDbEntity
  8
Defpoints
  6
DIMENSION
 62
     0
100
AcDbPoint
 10
1328.625601783267
 20
4835.086956917314
 30
0.0
  0
ENDBLK
  5
111E
330
1113
100
AcDbEntity
  8
0
 62
     7
100
AcDbBlockEnd
  0
BLOCK
  5
1134
330
112A
100
AcDbEntity
  8
0
 62
     7
100
AcDbBlockBegin
  2
*D24
 70
     1
 10
0.0
 20
0.0
 30
0.0
  3
*D24
  1

  0
LINE
  5
1136
330
112A
100
AcDbEntity
  8
0
  6
DIMENSION
 62
     3
370
    -2
100
AcDbLine
 10
1619.486854911263
 20
5455.086956917314
 30
0.0
 11
1619.486854911263
 21
5684.577211653033
 31
0.0
  0
LINE
  5
1137
330
112A
100
AcDbEntity
  8
0
  6
DIMENSION
 62
     3
370
    -2
100
AcDbLine
 10
3819.486854911263
 20
5455.086956917314
 30
0.0
 11
3819.486854911263
 21
5684.577211653033
 31
0.0
  0
LINE
  5
1138
330
112A
100
AcDbEntity
  8
0
  6
DIMENSION
 62
     3
370
    -2
100
AcDbLine
 10
1659.486854911263
 20
5664.577211653033
 30
0.0
 11
3779.486854911263
 21
5664.577211653033
 31
0.0
  0
SOLID
  5
1139
330
112A
100
AcDbEntity
  8
0
  6
DIMENSION
 62
     3
100
AcDbTrace
 10
1659.486854911263
 20
5671.2438783197
 30
0.0
 11
1659.486854911263
 21
5657.910544986366
 31
0.0
 12
1619.486854911263
 22
5664.577211653033
 32
0.0
 13
1619.486854911263
 23
5664.577211653033
 33
0.0
  0
SOLID
  5
113A
330
112A
100
AcDbEntity
  8
0
  6
DIMENSION
 62
     3
100
AcDbTrace
 10
3779.486854911263
 20
5671.2438783197
 30
0.0
 11
3779.486854911263
 21
5657.910544986366
 31
0.0
 12
3819.486854911263
 22
5664.577211653033
 32
0.0
 13
3819.486854911263
 23
5664.577211653033
 33
0.0
  0
MTEXT
  5
113B
330
112A
100
AcDbEntity
  8
0
  6
DIMENSION
 62
     3
100
AcDbMText
 10
2719.486854911263
 20
5686.377211653034
 30
0.0
 40
40.0
 41
0.0
 71
     5
 72
     1
  1
\A1;2200
  7
STD
 73
     1
 44
1.0
  0
POINT
  5
113C
330
112A
100
AcDbEntity
  8
Defpoints
  6
DIMENSION
 62
     0
100
AcDbPoint
 10
1619.486854911263
 20
5435.086956917314
 30
0.0
  0
POINT
  5
113D
330
112A
100
AcDbEntity
  8
Defpoints
  6
DIMENSION
 62
     0
100
AcDbPoint
 10
3819.486854911263
 20
5435.086956917314
 30
0.0
  0
POINT
  5
113E
330
112A
100
AcDbEntity
  8
Defpoints
  6
DIMENSION
 62
     0
100
AcDbPoint
 10
3819.486854911263
 20
5664.577211653033
 30
0.0
  0
ENDBLK
  5
1135
330
112A
100
AcDbEntity
  8
0
 62
     7
100
AcDbBlockEnd
  0
BLOCK
  5
114B
330
1141
100
AcDbEntity
  8
0
 62
     7
100
AcDbBlockBegin
  2
*D25
 70
     1
 10
0.0
 20
0.0
 30
0.0
  3
*D25
  1

  0
LINE
  5
114D
330
1141
100
AcDbEntity
  8
0
  6
DIMENSION
 62
     3
370
    -2
100
AcDbLine
 10
1419.486854911263
 20
4665.086956917314
 30
0.0
 11
1419.486854911263
 21
4575.504336388442
 31
0.0
  0
LINE
  5
114E
330
1141
100
AcDbEntity
  8
0
  6
DIMENSION
 62
     3
370
    -2
100
AcDbLine
 10
1819.486854911263
 20
4665.086956917314
 30
0.0
 11
1819.486854911263
 21
4575.504336388442
 31
0.0
  0
LINE
  5
114F
330
1141
100
AcDbEntity
  8
0
  6
DIMENSION
 62
     3
370
    -2
100
AcDbLine
 10
1459.486854911263
 20
4595.504336388442
 30
0.0
 11
1779.486854911263
 21
4595.504336388442
 31
0.0
  0
SOLID
  5
1150
330
1141
100
AcDbEntity
  8
0
  6
DIMENSION
 62
     3
100
AcDbTrace
 10
1459.486854911263
 20
4602.171003055108
 30
0.0
 11
1459.486854911263
 21
4588.837669721775
 31
0.0
 12
1419.486854911263
 22
4595.504336388442
 32
0.0
 13
1419.486854911263
 23
4595.504336388442
 33
0.0
  0
SOLID
  5
1151
330
1141
100
AcDbEntity
  8
0
  6
DIMENSION
 62
     3
100
AcDbTrace
 10
1779.486854911263
 20
4602.171003055108
 30
0.0
 11
1779.486854911263
 21
4588.837669721775
 31
0.0
 12
1819.486854911263
 22
4595.504336388442
 32
0.0
 13
1819.486854911263
 23
4595.504336388442
 33
0.0
  0
MTEXT
  5
1152
330
1141
100
AcDbEntity
  8
0
  6
DIMENSION
 62
     3
100
AcDbMText
 10
1619.486854911263
 20
4617.304336388442
 30
0.0
 40
40.0
 41
0.0
 71
     5
 72
     1
  1
\A1;400
  7
STD
 73
     1
 44
1.0
  0
POINT
  5
1153
330
1141
100
AcDbEntity
  8
Defpoints
  6
DIMENSION
 62
     0
100
AcDbPoint
 10
1419.486854911263
 20
4685.086956917314
 30
0.0
  0
POINT
  5
1154
330
1141
100
AcDbEntity
  8
Defpoints
  6
DIMENSION
 62
     0
100
AcDbPoint
 10
1819.486854911263
 20
4685.086956917314
 30
0.0
  0
POINT
  5
1155
330
1141
100
AcDbEntity
  8
Defpoints
  6
DIMENSION
 62
     0
100
AcDbPoint
 10
1819.486854911263
 20
4595.504336388442
 30
0.0
  0
ENDBLK
  5
114C
330
1141
100
AcDbEntity
  8
0
 62
     7
100
AcDbBlockEnd
  0
ENDSEC
  0
SECTION
  2
ENTITIES
  0
TEXT
  5
21D
330
17
100
AcDbEntity
  8
3
370
    -1
100
AcDbText
 10
9748.446385837235
 20
741.2510137525596
 30
0.0
 40
59.99999999999999
  1
　
100
AcDbText
  0
LINE
  5
222
330
17
100
AcDbEntity
  8
0
  6
CENS
 62
     1
100
AcDbLine
 10
1619.486854911263
 20
1656.879510394784
 30
0.0
 11
1619.486854911263
 21
3126.879510394784
 31
0.0
  0
LINE
  5
223
330
17
100
AcDbEntity
  8
0
  6
CENS
 62
     1
100
AcDbLine
 10
3819.486854911263
 20
1126.879510394784
 30
0.0
 11
3819.486854911263
 21
3126.879510394784
 31
0.0
  0
ARC
  5
224
330
17
100
AcDbEntity
  8
0
  6
CENS
 62
     1
100
AcDbCircle
 10
2719.486854911263
 20
3126.879510394784
 30
0.0
 40
1100.0
100
AcDbArc
 50
0.0
 51
180.0
  0
ARC
  5
225
330
17
100
AcDbEntity
  8
0
  6
Continuous
 62
     7
100
AcDbCircle
 10
2719.486854911263
 20
3126.879510394784
 30
0.0
 40
1124.3
100
AcDbArc
 50
0.0
 51
180.0
  0
ARC
  5
226
330
17
100
AcDbEntity
  8
0
  6
Continuous
 62
     7
100
AcDbCircle
 10
2719.486854911263
 20
3126.879510394784
 30
0.0
 40
1075.7
100
AcDbArc
 50
0.0
 51
180.0
  0
LINE
  5
227
330
17
100
AcDbEntity
  8
0
  6
Continuous
 62
     7
100
AcDbLine
 10
3843.786854911264
 20
1126.879510394784
 30
0.0
 11
3843.786854911264
 21
3126.879510394784
 31
0.0
  0
LINE
  5
228
330
17
100
AcDbEntity
  8
0
  6
Continuous
 62
     7
100
AcDbLine
 10
3795.186854911263
 20
1126.879510394784
 30
0.0
 11
3795.186854911263
 21
3126.879510394784
 31
0.0
  0
LINE
  5
229
330
17
100
AcDbEntity
  8
0
  6
Continuous
 62
     7
100
AcDbLine
 10
1595.186854911263
 20
1656.879510394784
 30
0.0
 11
1595.186854911263
 21
3126.879510394784
 31
0.0
  0
LINE
  5
22A
330
17
100
AcDbEntity
  8
0
  6
Continuous
 62
     7
100
AcDbLine
 10
1643.786854911262
 20
1656.879510394784
 30
0.0
 11
1643.786854911264
 21
3126.879510394784
 31
0.0
  0
LINE
  5
22B
330
17
100
AcDbEntity
  8
0
  6
Continuous
 62
     7
100
AcDbLine
 10
3569.486854911263
 20
1126.879510394784
 30
0.0
 11
3569.486854911263
 21
1026.879510394784
 31
0.0
  0
LINE
  5
22C
330
17
100
AcDbEntity
  8
0
  6
Continuous
 62
     7
100
AcDbLine
 10
3569.486854911263
 20
1026.879510394784
 30
0.0
 11
4069.486854911263
 21
1026.879510394784
 31
0.0
  0
LINE
  5
22D
330
17
100
AcDbEntity
  8
0
  6
Continuous
 62
     7
100
AcDbLine
 10
4069.486854911263
 20
1026.879510394784
 30
0.0
 11
4069.486854911263
 21
1126.879510394784
 31
0.0
  0
LINE
  5
22E
330
17
100
AcDbEntity
  8
0
  6
Continuous
 62
     7
100
AcDbLine
 10
4069.486854911263
 20
1126.879510394784
 30
0.0
 11
3569.486854911263
 21
1126.879510394784
 31
0.0
  0
LINE
  5
22F
330
17
100
AcDbEntity
  8
0
  6
Continuous
 62
     7
100
AcDbLine
 10
3619.486854911263
 20
1626.879510394784
 30
0.0
 11
3619.486854911263
 21
1126.879510394784
 31
0.0
  0
LINE
  5
230
330
17
100
AcDbEntity
  8
0
  6
Continuous
 62
     7
100
AcDbLine
 10
3619.486854911263
 20
1126.879510394784
 30
0.0
 11
4019.486854911263
 21
1126.879510394784
 31
0.0
  0
LINE
  5
231
330
17
100
AcDbEntity
  8
0
  6
Continuous
 62
     7
100
AcDbLine
 10
4019.486854911263
 20
1126.879510394784
 30
0.0
 11
4019.486854911263
 21
1626.879510394784
 31
0.0
  0
LINE
  5
232
330
17
100
AcDbEntity
  8
0
  6
Continuous
 62
     7
100
AcDbLine
 10
3619.486854911263
 20
1626.879510394784
 30
0.0
 11
3795.186854911263
 21
1656.879510394784
 31
0.0
  0
LINE
  5
233
330
17
100
AcDbEntity
  8
0
  6
Continuous
 62
     7
100
AcDbLine
 10
3843.786854911262
 20
1656.879510394784
 30
0.0
 11
4019.486854911263
 21
1626.879510394784
 31
0.0
  0
LINE
  5
234
330
17
100
AcDbEntity
  8
0
  6
Continuous
 62
     7
100
AcDbLine
 10
1643.786854911262
 20
1656.879510394784
 30
0.0
 11
1819.486854911263
 21
1626.879510394784
 31
0.0
  0
LINE
  5
235
330
17
100
AcDbEntity
  8
0
  6
Continuous
 62
     7
100
AcDbLine
 10
1419.486854911263
 20
1626.879510394784
 30
0.0
 11
1595.186854911261
 21
1656.879510394784
 31
0.0
  0
LINE
  5
236
330
17
100
AcDbEntity
  8
0
  6
Continuous
 62
     7
100
AcDbLine
 10
1595.186854911261
 20
1656.879510394784
 30
0.0
 11
1643.786854911262
 21
1656.879510394783
 31
0.0
  0
LINE
  5
237
330
17
100
AcDbEntity
  8
0
  6
Continuous
 62
     7
100
AcDbLine
 10
3619.486854911264
 20
1626.879510394784
 30
0.0
 11
1195.186854911263
 21
1626.879510394784
 31
0.0
  0
LINE
  5
238
330
17
100
AcDbEntity
  8
0
  6
Continuous
 62
     7
100
AcDbLine
 10
4019.486854911263
 20
1626.879510394784
 30
0.0
 11
4243.786854911264
 21
1626.879510394784
 31
0.0
  0
LINE
  5
239
330
17
100
AcDbEntity
  8
0
  6
Continuous
 62
     2
100
AcDbLine
 10
5726.125713354039
 20
1854.379510394784
 30
0.0
 11
6277.525713354041
 21
1854.379510394783
 31
0.0
  0
LINE
  5
23A
330
17
100
AcDbEntity
  8
0
  6
Continuous
 62
     2
100
AcDbLine
 10
5726.125713354039
 20
2454.379510394784
 30
0.0
 11
6277.525713354041
 21
2454.379510394783
 31
0.0
  0
LINE
  5
23B
330
17
100
AcDbEntity
  8
0
  6
Continuous
 62
     2
100
AcDbLine
 10
5726.125713354039
 20
3054.379510394784
 30
0.0
 11
6277.525713354041
 21
3054.379510394784
 31
0.0
  0
CIRCLE
  5
23C
330
17
100
AcDbEntity
  8
0
  6
Continuous
 62
     7
100
AcDbCircle
 10
1619.486854911263
 20
1854.379510394784
 30
0.0
 40
13.6
  0
CIRCLE
  5
23D
330
17
100
AcDbEntity
  8
0
  6
Continuous
 62
     7
100
AcDbCircle
 10
1619.486854911263
 20
2454.379510394784
 30
0.0
 40
13.6
  0
CIRCLE
  5
23E
330
17
100
AcDbEntity
  8
0
  6
Continuous
 62
     7
100
AcDbCircle
 10
1619.486854911263
 20
3054.379510394784
 30
0.0
 40
13.6
  0
CIRCLE
  5
240
330
17
100
AcDbEntity
  8
0
  6
Continuous
 62
     7
100
AcDbCircle
 10
2148.836270934688
 20
4067.282568135026
 30
0.0
 40
13.6
  0
CIRCLE
  5
241
330
17
100
AcDbEntity
  8
0
  6
Continuous
 62
     7
100
AcDbCircle
 10
1743.77493841522
 20
3634.802984953321
 30
0.0
 40
13.6
  0
CIRCLE
  5
242
330
17
100
AcDbEntity
  8
0
  6
Continuous
 62
     7
100
AcDbCircle
 10
3290.137438887837
 20
4067.282568135026
 30
0.0
 40
13.6
  0
CIRCLE
  5
243
330
17
100
AcDbEntity
  8
0
  6
Continuous
 62
     7
100
AcDbCircle
 10
3695.198771407307
 20
3634.802984953321
 30
0.0
 40
13.6
  0
CIRCLE
  5
244
330
17
100
AcDbEntity
  8
0
  6
Continuous
 62
     7
100
AcDbCircle
 10
3819.486854911263
 20
3054.379510394784
 30
0.0
 40
13.6
  0
CIRCLE
  5
245
330
17
100
AcDbEntity
  8
0
  6
Continuous
 62
     7
100
AcDbCircle
 10
3819.486854911263
 20
2454.379510394784
 30
0.0
 40
13.6
  0
CIRCLE
  5
246
330
17
100
AcDbEntity
  8
0
  6
Continuous
 62
     7
100
AcDbCircle
 10
3819.486854911263
 20
1854.379510394784
 30
0.0
 40
13.6
  0
LINE
  5
247
330
17
100
AcDbEntity
  8
0
  6
HIDS
 62
     5
100
AcDbLine
 10
1600.186854911263
 20
1656.879510394784
 30
0.0
 11
1600.186854911263
 21
3126.879510394784
 31
0.0
  0
ARC
  5
248
330
17
100
AcDbEntity
  8
0
  6
HIDS
 62
     5
100
AcDbCircle
 10
2719.486854911263
 20
3126.879510394784
 30
0.0
 40
1119.3
100
AcDbArc
 50
0.0
 51
180.0
  0
LINE
  5
249
330
17
100
AcDbEntity
  8
0
  6
HIDS
 62
     5
100
AcDbLine
 10
3838.786854911264
 20
1126.879510394784
 30
0.0
 11
3838.786854911264
 21
3126.879510394784
 31
0.0
  0
LINE
  5
24A
330
17
100
AcDbEntity
  8
0
  6
CENS
 62
     1
100
AcDbLine
 10
6001.82571335404
 20
1854.379510394784
 30
0.0
 11
6001.82571335404
 21
4326.879510394784
 31
0.0
  0
LINE
  5
24B
330
17
100
AcDbEntity
  8
0
  6
CENS
 62
     1
100
AcDbLine
 10
5701.82571335404
 20
1126.879510394784
 30
0.0
 11
5701.82571335404
 21
4251.179510394672
 31
0.0
  0
LINE
  5
24C
330
17
100
AcDbEntity
  8
0
  6
CENS
 62
     1
100
AcDbLine
 10
6301.82571335404
 20
1126.879510394784
 30
0.0
 11
6301.82571335404
 21
4251.17951039475
 31
0.0
  0
ARC
  5
24D
330
17
100
AcDbEntity
  8
0
  6
Continuous
 62
     7
100
AcDbCircle
 10
5701.82571335404
 20
4226.879510394783
 30
0.0
 40
24.3
100
AcDbArc
 50
0.0
 51
180.0
  0
ARC
  5
24E
330
17
100
AcDbEntity
  8
0
  6
Continuous
 62
     7
100
AcDbCircle
 10
6301.82571335404
 20
4226.879510394783
 30
0.0
 40
24.3
100
AcDbArc
 50
0.0
 51
180.0
  0
LINE
  5
24F
330
17
100
AcDbEntity
  8
0
  6
Continuous
 62
     7
100
AcDbLine
 10
5677.525713354041
 20
4226.879510394783
 30
0.0
 11
5677.525713354041
 21
1220.379510394784
 31
0.0
  0
LINE
  5
250
330
17
100
AcDbEntity
  8
0
  6
Continuous
 62
     7
100
AcDbLine
 10
5677.525713354041
 20
1126.879510394784
 30
0.0
 11
5726.125713354039
 21
1126.879510394784
 31
0.0
  0
LINE
  5
251
330
17
100
AcDbEntity
  8
0
  6
Continuous
 62
     7
100
AcDbLine
 10
5726.125713354039
 20
1126.879510394784
 30
0.0
 11
5726.125713354039
 21
1220.379510394784
 31
0.0
  0
LINE
  5
252
330
17
100
AcDbEntity
  8
0
  6
Continuous
 62
     7
100
AcDbLine
 10
6277.525713354041
 20
4226.879510394783
 30
0.0
 11
6277.525713354041
 21
1126.879510394784
 31
0.0
  0
LINE
  5
253
330
17
100
AcDbEntity
  8
0
  6
Continuous
 62
     7
100
AcDbLine
 10
6277.525713354041
 20
1126.879510394784
 30
0.0
 11
6326.125713354039
 21
1126.879510394784
 31
0.0
  0
LINE
  5
254
330
17
100
AcDbEntity
  8
0
  6
Continuous
 62
     7
100
AcDbLine
 10
6326.125713354039
 20
1126.879510394784
 30
0.0
 11
6326.125713354039
 21
4226.879510394783
 31
0.0
  0
LINE
  5
255
330
17
100
AcDbEntity
  8
0
  6
Continuous
 62
     7
100
AcDbLine
 10
5501.82571335404
 20
1126.879510394784
 30
0.0
 11
5501.82571335404
 21
1026.879510394784
 31
0.0
  0
LINE
  5
256
330
17
100
AcDbEntity
  8
0
  6
Continuous
 62
     7
100
AcDbLine
 10
5501.82571335404
 20
1026.879510394784
 30
0.0
 11
6501.82571335404
 21
1026.879510394784
 31
0.0
  0
LINE
  5
257
330
17
100
AcDbEntity
  8
0
  6
Continuous
 62
     7
100
AcDbLine
 10
6501.82571335404
 20
1026.879510394784
 30
0.0
 11
6501.82571335404
 21
1126.879510394784
 31
0.0
  0
LINE
  5
258
330
17
100
AcDbEntity
  8
0
  6
Continuous
 62
     7
100
AcDbLine
 10
6501.82571335404
 20
1126.879510394784
 30
0.0
 11
5501.82571335404
 21
1126.879510394784
 31
0.0
  0
LINE
  5
259
330
17
100
AcDbEntity
  8
0
  6
Continuous
 62
     7
100
AcDbLine
 10
5551.82571335404
 20
1626.879510394784
 30
0.0
 11
5551.82571335404
 21
1126.879510394784
 31
0.0
  0
LINE
  5
25A
330
17
100
AcDbEntity
  8
0
  6
Continuous
 62
     7
100
AcDbLine
 10
5551.82571335404
 20
1126.879510394784
 30
0.0
 11
6277.525713354041
 21
1126.879510394784
 31
0.0
  0
LINE
  5
25B
330
17
100
AcDbEntity
  8
0
  6
Continuous
 62
     7
100
AcDbLine
 10
6451.82571335404
 20
1126.879510394784
 30
0.0
 11
6451.82571335404
 21
1626.879510394784
 31
0.0
  0
LINE
  5
25C
330
17
100
AcDbEntity
  8
0
  6
Continuous
 62
     7
100
AcDbLine
 10
5551.82571335404
 20
1626.879510394784
 30
0.0
 11
5677.525713354041
 21
1656.879510394784
 31
0.0
  0
LINE
  5
25D
330
17
100
AcDbEntity
  8
0
  6
Continuous
 62
     7
100
AcDbLine
 10
5726.125713354039
 20
1656.879510394784
 30
0.0
 11
6277.525713354041
 21
1656.879510394784
 31
0.0
  0
LINE
  5
25E
330
17
100
AcDbEntity
  8
0
  6
Continuous
 62
     7
100
AcDbLine
 10
6326.125713354039
 20
1656.879510394784
 30
0.0
 11
6451.82571335404
 21
1626.879510394784
 31
0.0
  0
LINE
  5
25F
330
17
100
AcDbEntity
  8
0
  6
Continuous
 62
     7
100
AcDbLine
 10
5551.82571335404
 20
1626.879510394784
 30
0.0
 11
5001.82571335404
 21
1626.879510394784
 31
0.0
  0
LINE
  5
260
330
17
100
AcDbEntity
  8
0
  6
Continuous
 62
     7
100
AcDbLine
 10
6451.82571335404
 20
1626.879510394784
 30
0.0
 11
7001.82571335404
 21
1626.879510394784
 31
0.0
  0
LINE
  5
261
330
17
100
AcDbEntity
  8
0
  6
Continuous
 62
     7
100
AcDbLine
 10
5721.963488802031
 20
4240.479510394784
 30
0.0
 11
6281.687937905955
 21
4240.479510394784
 31
0.0
  0
LINE
  5
262
330
17
100
AcDbEntity
  8
0
  6
Continuous
 62
     7
100
AcDbLine
 10
5726.125713354039
 20
4213.279510394783
 30
0.0
 11
6277.525713354041
 21
4213.279510394783
 31
0.0
  0
LINE
  5
263
330
17
100
AcDbEntity
  8
0
  6
Continuous
 62
     2
100
AcDbLine
 10
5726.125713354039
 20
4067.282568135026
 30
0.0
 11
6277.525713354041
 21
4067.282568135026
 31
0.0
  0
LINE
  5
264
330
17
100
AcDbEntity
  8
0
  6
Continuous
 62
     2
100
AcDbLine
 10
5726.125713354039
 20
3634.802984953321
 30
0.0
 11
6277.525713354041
 21
3634.802984953321
 31
0.0
  0
LINE
  5
265
330
17
100
AcDbEntity
  8
0
  6
Continuous
 62
     7
100
AcDbLine
 10
5726.125713354039
 20
3648.402984953322
 30
0.0
 11
6277.525713354041
 21
3648.402984953322
 31
0.0
  0
LINE
  5
266
330
17
100
AcDbEntity
  8
0
  6
Continuous
 62
     7
100
AcDbLine
 10
5726.125713354039
 20
3621.202984953321
 30
0.0
 11
6277.525713354041
 21
3621.202984953321
 31
0.0
  0
LINE
  5
267
330
17
100
AcDbEntity
  8
0
  6
Continuous
 62
     7
100
AcDbLine
 10
5726.125713354039
 20
3040.779510394784
 30
0.0
 11
6277.525713354041
 21
3040.779510394784
 31
0.0
  0
LINE
  5
268
330
17
100
AcDbEntity
  8
0
  6
Continuous
 62
     7
100
AcDbLine
 10
5726.125713354039
 20
3067.979510394784
 30
0.0
 11
6277.525713354041
 21
3067.979510394784
 31
0.0
  0
LINE
  5
269
330
17
100
AcDbEntity
  8
0
  6
Continuous
 62
     7
100
AcDbLine
 10
5726.125713354039
 20
2440.779510394784
 30
0.0
 11
6277.525713354041
 21
2440.779510394784
 31
0.0
  0
LINE
  5
26A
330
17
100
AcDbEntity
  8
0
  6
Continuous
 62
     7
100
AcDbLine
 10
5726.125713354039
 20
2467.979510394784
 30
0.0
 11
6277.525713354041
 21
2467.979510394784
 31
0.0
  0
LINE
  5
26B
330
17
100
AcDbEntity
  8
0
  6
Continuous
 62
     7
100
AcDbLine
 10
5726.125713354039
 20
1840.779510394784
 30
0.0
 11
6277.525713354041
 21
1840.779510394784
 31
0.0
  0
LINE
  5
26C
330
17
100
AcDbEntity
  8
0
  6
Continuous
 62
     7
100
AcDbLine
 10
5726.125713354039
 20
1867.979510394784
 30
0.0
 11
6277.525713354041
 21
1867.979510394784
 31
0.0
  0
LINE
  5
26D
330
17
100
AcDbEntity
  8
0
  6
Continuous
 62
     2
100
AcDbLine
 10
5926.82571335404
 20
1854.379510394784
 30
0.0
 11
5926.82571335404
 21
4246.179510394784
 31
0.0
  0
LINE
  5
26E
330
17
100
AcDbEntity
  8
0
  6
Continuous
 62
     2
100
AcDbLine
 10
6076.82571335404
 20
1854.379510394784
 30
0.0
 11
6076.82571335404
 21
4246.179510394784
 31
0.0
  0
LINE
  5
26F
330
17
100
AcDbEntity
  8
0
  6
Continuous
 62
     2
100
AcDbLine
 10
5776.82571335404
 20
1854.379510394784
 30
0.0
 11
5776.82571335404
 21
4246.179510394784
 31
0.0
  0
LINE
  5
270
330
17
100
AcDbEntity
  8
0
  6
Continuous
 62
     2
100
AcDbLine
 10
6226.82571335404
 20
1854.379510394784
 30
0.0
 11
6226.82571335404
 21
4246.179510394784
 31
0.0
  0
LINE
  5
271
330
17
100
AcDbEntity
  8
0
  6
Continuous
 62
     2
100
AcDbLine
 10
5726.125713354039
 20
2004.379510394784
 30
0.0
 11
6277.525713354041
 21
2004.379510394784
 31
0.0
  0
LINE
  5
272
330
17
100
AcDbEntity
  8
0
  6
Continuous
 62
     2
100
AcDbLine
 10
5726.125713354039
 20
2154.379510394784
 30
0.0
 11
6277.525713354041
 21
2154.379510394784
 31
0.0
  0
LINE
  5
273
330
17
100
AcDbEntity
  8
0
  6
Continuous
 62
     2
100
AcDbLine
 10
5726.125713354039
 20
2304.379510394784
 30
0.0
 11
6277.525713354041
 21
2304.379510394784
 31
0.0
  0
LINE
  5
274
330
17
100
AcDbEntity
  8
0
  6
Continuous
 62
     2
100
AcDbLine
 10
5726.125713354039
 20
2604.379510394784
 30
0.0
 11
6277.525713354041
 21
2604.379510394784
 31
0.0
  0
LINE
  5
275
330
17
100
AcDbEntity
  8
0
  6
Continuous
 62
     2
100
AcDbLine
 10
5726.125713354039
 20
2754.379510394784
 30
0.0
 11
6277.525713354041
 21
2754.379510394784
 31
0.0
  0
LINE
  5
276
330
17
100
AcDbEntity
  8
0
  6
Continuous
 62
     2
100
AcDbLine
 10
5726.125713354039
 20
2904.379510394784
 30
0.0
 11
6277.525713354041
 21
2904.379510394783
 31
0.0
  0
LINE
  5
277
330
17
100
AcDbEntity
  8
0
  6
Continuous
 62
     2
100
AcDbLine
 10
5726.125713354039
 20
3204.379510394784
 30
0.0
 11
6277.525713354041
 21
3204.379510394784
 31
0.0
  0
LINE
  5
278
330
17
100
AcDbEntity
  8
0
  6
Continuous
 62
     2
100
AcDbLine
 10
5726.125713354039
 20
3352.766515918805
 30
0.0
 11
6277.525713354041
 21
3352.766515918805
 31
0.0
  0
LINE
  5
279
330
17
100
AcDbEntity
  8
0
  6
Continuous
 62
     2
100
AcDbLine
 10
5726.125713354039
 20
3496.962928307672
 30
0.0
 11
6277.525713354041
 21
3496.962928307672
 31
0.0
  0
LINE
  5
27A
330
17
100
AcDbEntity
  8
0
  6
Continuous
 62
     2
100
AcDbLine
 10
5726.125713354039
 20
3762.210976418049
 30
0.0
 11
6277.525713354041
 21
3762.210976418049
 31
0.0
  0
LINE
  5
27B
330
17
100
AcDbEntity
  8
0
  6
Continuous
 62
     2
100
AcDbLine
 10
5726.125713354039
 20
3878.341803848995
 30
0.0
 11
6277.525713354041
 21
3878.341803848995
 31
0.0
  0
LINE
  5
27C
330
17
100
AcDbEntity
  8
0
  6
Continuous
 62
     7
100
AcDbLine
 10
5726.125713354039
 20
4053.682568135026
 30
0.0
 11
6277.525713354041
 21
4053.682568135026
 31
0.0
  0
LINE
  5
27D
330
17
100
AcDbEntity
  8
0
  6
Continuous
 62
     7
100
AcDbLine
 10
5726.125713354039
 20
4080.882568135026
 30
0.0
 11
6277.525713354041
 21
4080.882568135026
 31
0.0
  0
LINE
  5
27E
330
17
100
AcDbEntity
  8
0
  6
Continuous
 62
     2
100
AcDbLine
 10
5726.125713354039
 20
3980.531711035612
 30
0.0
 11
6277.525713354041
 21
3980.531711035612
 31
0.0
  0
LINE
  5
27F
330
17
100
AcDbEntity
  8
0
  6
Continuous
 62
     2
100
AcDbLine
 10
5726.125713354039
 20
4135.799367731432
 30
0.0
 11
6277.525713354041
 21
4135.799367731432
 31
0.0
  0
LINE
  5
280
330
17
100
AcDbEntity
  8
0
  6
Continuous
 62
     2
100
AcDbLine
 10
5726.125713354039
 20
4185.996634696969
 30
0.0
 11
6277.525713354041
 21
4185.996634696969
 31
0.0
  0
LINE
  5
281
330
17
100
AcDbEntity
  8
0
  6
Continuous
 62
     2
100
AcDbLine
 10
5726.125713354039
 20
4216.545454244822
 30
0.0
 11
6277.525713354041
 21
4216.545454244822
 31
0.0
  0
LINE
  5
2A7
330
17
100
AcDbEntity
  8
0
  6
Continuous
 62
     7
100
AcDbLine
 10
6326.125713354039
 20
1126.879510394784
 30
0.0
 11
6451.82571335404
 21
1126.879510394784
 31
0.0
  0
LINE
  5
2C6
330
17
100
AcDbEntity
  8
0
  6
CENS
 62
     1
100
AcDbLine
 10
1428.646854911262
 20
3126.879510394784
 30
0.0
 11
4010.326854911263
 21
3126.879510394784
 31
0.0
  0
LINE
  5
2C7
330
17
100
AcDbEntity
  8
0
  6
CENS
 62
     1
100
AcDbLine
 10
2719.486854911263
 20
1626.879510394784
 30
0.0
 11
2719.486854911263
 21
4326.879510394783
 31
0.0
  0
LINE
  5
2EA
330
17
100
AcDbEntity
  8
0
  6
Continuous
 62
     7
100
AcDbLine
 10
5601.82571335404
 20
1233.379510394784
 30
0.0
 11
5677.525713354041
 21
1233.379510394784
 31
0.0
  0
LINE
  5
2EB
330
17
100
AcDbEntity
  8
0
  6
Continuous
 62
     7
100
AcDbLine
 10
5601.82571335404
 20
1220.379510394784
 30
0.0
 11
5677.525713354041
 21
1220.379510394784
 31
0.0
  0
LINE
  5
2EC
330
17
100
AcDbEntity
  8
0
  6
Continuous
 62
     7
100
AcDbLine
 10
5601.82571335404
 20
1220.379510394784
 30
0.0
 11
5601.82571335404
 21
1233.379510394784
 31
0.0
  0
LINE
  5
2ED
330
17
100
AcDbEntity
  8
0
  6
Continuous
 62
     7
100
AcDbLine
 10
6401.82571335404
 20
1220.379510394784
 30
0.0
 11
6401.82571335404
 21
1233.379510394784
 31
0.0
  0
LINE
  5
2EF
330
17
100
AcDbEntity
  8
0
  6
Continuous
 62
     7
100
AcDbLine
 10
6326.125713354039
 20
1233.379510394784
 30
0.0
 11
6401.82571335404
 21
1233.379510394784
 31
0.0
  0
LINE
  5
2F0
330
17
100
AcDbEntity
  8
0
  6
Continuous
 62
     7
100
AcDbLine
 10
6326.125713354039
 20
1220.379510394784
 30
0.0
 11
6401.82571335404
 21
1220.379510394784
 31
0.0
  0
LINE
  5
2F1
330
17
100
AcDbEntity
  8
0
  6
Continuous
 62
     7
100
AcDbLine
 10
5677.525713354041
 20
1220.379510394784
 30
0.0
 11
5677.525713354041
 21
1126.879510394784
 31
0.0
  0
LINE
  5
2F2
330
17
100
AcDbEntity
  8
0
  6
Continuous
 62
     7
100
AcDbLine
 10
5726.125713354039
 20
1220.379510394784
 30
0.0
 11
5726.125713354039
 21
4226.879510394783
 31
0.0
  0
LINE
  5
2FC
330
17
100
AcDbEntity
  8
0
  6
Continuous
 62
     7
100
AcDbLine
 10
5726.125713354039
 20
1233.379510394784
 30
0.0
 11
6277.525713354041
 21
1233.379510394784
 31
0.0
  0
LINE
  5
2FD
330
17
100
AcDbEntity
  8
0
  6
Continuous
 62
     7
100
AcDbLine
 10
5726.125713354039
 20
1220.379510394784
 30
0.0
 11
6277.525713354041
 21
1220.379510394784
 31
0.0
  0
CIRCLE
  5
2FE
330
17
100
AcDbEntity
  8
0
  6
Continuous
 62
     7
100
AcDbCircle
 10
3819.486854911263
 20
1226.879510394784
 30
0.0
 40
6.5
  0
TEXT
  5
303
330
17
100
AcDbEntity
  8
TEXT_0
  6
Continuous
 62
     7
100
AcDbText
 10
2382.697955804949
 20
921.9620703872206
 30
0.0
 40
64.0
  1
立面図　Ｓ＝１：２０
  7
STYLE1
100
AcDbText
  0
TEXT
  5
304
330
17
100
AcDbEntity
  8
TEXT_0
  6
Continuous
 62
     7
100
AcDbText
 10
5624.140325107231
 20
740.9666658772267
 30
0.0
 40
64.0
  1
側面図　Ｓ＝１：２０
  7
STYLE1
100
AcDbText
  0
TEXT
  5
307
330
17
100
AcDbEntity
  8
9図面文字
  6
Continuous
 62
     7
100
AcDbText
 10
392.1348161591795
 20
473.7359613205062
 30
0.0
 40
60.0
  1
・鋼材の接合は指示無き場合、全て溶接止めとする。
  7
STYLE1
100
AcDbText
  0
TEXT
  5
308
330
17
100
AcDbEntity
  8
TEXT_0
  6
Continuous
 62
     3
370
    -1
100
AcDbText
 10
1882.643312101911
 20
375.6496815286624
 30
0.0
 40
60.0
  1

  7
STD
100
AcDbText
  0
TEXT
  5
309
330
17
100
AcDbEntity
  8
TEXT_0
  6
Continuous
 62
     3
370
    -1
100
AcDbText
 10
1882.643312101911
 20
303.6496815286624
 30
0.0
 40
60.0
  1

  7
STD
100
AcDbText
  0
TEXT
  5
30A
330
17
100
AcDbEntity
  8
TEXT_0
  6
Continuous
 62
     3
370
    -1
100
AcDbText
 10
1882.643312101911
 20
231.6496815286624
 30
0.0
 40
60.0
  1

  7
STD
100
AcDbText
  0
TEXT
  5
30B
330
17
100
AcDbEntity
  8
TEXT_0
  6
Continuous
 62
     3
370
    -1
100
AcDbText
 10
1882.643312101911
 20
159.6496815286624
 30
0.0
 40
60.0
  1

  7
STD
100
AcDbText
  0
LINE
  5
30C
330
17
100
AcDbEntity
  8
0
  6
Continuous
 62
     7
100
AcDbLine
 10
2373.239357078834
 20
893.5862742088766
 30
0.0
 11
3152.199578783817
 21
893.5862742088766
 31
0.0
  0
LINE
  5
30D
330
17
100
AcDbEntity
  8
0
  6
Continuous
 62
     7
100
AcDbLine
 10
5576.11321200175
 20
718.3806786160803
 30
0.0
 11
6401.394455461261
 21
718.3806786160803
 31
0.0
  0
TEXT
  5
315
330
17
100
AcDbEntity
  8
1
370
    -1
100
AcDbText
 10
141.5097716105132
 20
92.83361344538211
 30
0.0
 40
100.0
  1
　
100
AcDbText
  0
TEXT
  5
334
330
17
100
AcDbEntity
  8
9図面文字
100
AcDbText
 10
6421.95355979176
 20
493.6977991505248
 30
0.0
 40
90.0
  1
TR-A3　アーチトレリス
  7
STYLE1
100
AcDbText
  0
LWPOLYLINE
  5
33B
330
17
100
AcDbEntity
  8
ASKPAPERSIZE
  6
Continuous
 62
     4
100
AcDbPolyline
 90
        4
 70
     1
 43
0.0
 10
0.0
 20
0.0
 10
0.0
 20
5940.0
 10
8400.0
 20
5940.0
 10
8400.0
 20
0.0
1001
AUTO_SEKKEIYA
1002
{
1000
NONE
1002
}
  0
CIRCLE
  5
372
330
17
100
AcDbEntity
  8
0
  6
Continuous
 62
     7
100
AcDbCircle
 10
2705.886854911264
 20
4226.879510394783
 30
0.0
 40
13.6
  0
CIRCLE
  5
373
330
17
100
AcDbEntity
  8
0
  6
Continuous
 62
     7
100
AcDbCircle
 10
2733.086854911263
 20
4226.879510394784
 30
0.0
 40
13.6
  0
INSERT
  5
395
330
17
100
AcDbEntity
  8
0
  6
Continuous
 62
     7
100
AcDbBlockReference
  2
N1_07
 10
2692.286854911264
 20
4226.879510394783
 30
0.0
 50
90.0
  0
INSERT
  5
396
330
17
100
AcDbEntity
  8
0
  6
Continuous
 62
     7
100
AcDbBlockReference
  2
N1_07
 10
2746.686854911263
 20
4226.879510394783
 30
0.0
 50
270.0
  0
INSERT
  5
3A8
330
17
100
AcDbEntity
  8
0
  6
Continuous
 62
     7
100
AcDbBlockReference
  2
N1_06
 10
5851.82571335404
 20
4226.879510394783
 30
0.0
 50
270.0
  0
INSERT
  5
3A9
330
17
100
AcDbEntity
  8
0
  6
Continuous
 62
     7
100
AcDbBlockReference
  2
N1_06
 10
6151.82571335404
 20
4226.879510394783
 30
0.0
 50
270.0
  0
LINE
  5
3DE
330
17
100
AcDbEntity
  8
0
  6
Continuous
 62
     7
100
AcDbLine
 10
2719.486854911263
 20
4251.179510394784
 30
0.0
 11
2719.486854911263
 21
4202.579510394784
 31
0.0
  0
TEXT
  5
98C
330
17
100
AcDbEntity
  8
9図面文字
 62
     2
100
AcDbText
 10
6876.095277979045
 20
203.5220275599653
 30
0.0
 40
56.70000000000003
  1
会社
  7
STYLE1
 72
     1
 11
6958.568005251773
 21
231.8720275599653
 31
0.0
100
AcDbText
 73
     2
  0
TEXT
  5
98D
330
17
100
AcDbEntity
  8
9図面文字
 62
     2
100
AcDbText
 10
6876.095277979045
 20
283.1517856698905
 30
0.0
 40
56.70000000000003
  1
株式
  7
STYLE1
 72
     1
 11
6958.568005251773
 21
311.5017856698905
 31
0.0
100
AcDbText
 73
     2
  0
HATCH
  5
98E
330
17
100
AcDbEntity
  8
9図面文字
  6
Continuous
 62
     3
100
AcDbHatch
 10
0.0
 20
0.0
 30
0.0
210
0.0
220
0.0
230
1.0
  2
SOLID
 70
     1
 71
     0
 91
        2
 92
        7
 72
     1
 73
     1
 93
        2
 10
6659.041816465849
 20
279.9774135393538
 42
1.0
 10
6857.545847635174
 20
279.9774135393538
 42
1.0
 97
        0
 92
        7
 72
     1
 73
     1
 93
       11
 10
6757.685946586496
 20
368.6973466134253
 42
0.0
 10
6758.293832050511
 20
371.1294291240131
 42
0.0
 10
6758.901717514527
 20
368.6973466134253
 42
-0.412208187950293
 10
6847.015847635175
 20
279.9774135393538
 42
-0.0773445374705047
 10
6842.820189381069
 20
253.0164980164766
 42
0.0
 10
6844.235959788582
 20
249.6024135393538
 42
0.0
 10
6841.654226869665
 20
249.6024135393538
 42
-0.6999368910289298
 10
6674.933437231357
 20
249.6024135393538
 42
0.0
 10
6672.351704312441
 20
249.6024135393538
 42
0.0
 10
6673.767474719953
 20
253.0164980164784
 42
-0.0773445374704989
 10
6669.57181646585
 20
279.9774135393538
 42
-0.4122081879502925
 97
        0
 75
     0
 76
     1
 47
0.6951189523479065
 98
        2
 10
6755.270098761506
 20
369.7010616131795
 10
6755.270098761506
 20
369.7010616131795
  0
HATCH
  5
98F
330
17
100
AcDbEntity
  8
9図面文字
  6
Continuous
 62
     3
100
AcDbHatch
 10
0.0
 20
0.0
 30
0.0
210
0.0
220
0.0
230
1.0
  2
SOLID
 70
     1
 71
     0
 91
        3
 92
        7
 72
     1
 73
     1
 93
        4
 10
6727.918832050509
 20
249.6024135393538
 42
0.0
 10
6788.668832050511
 20
249.6024135393538
 42
0.0
 10
6758.901717514525
 20
368.6973466134253
 42
0.0034258272556783
 10
6757.685946586495
 20
368.6973466134253
 42
0.0
 97
        0
 92
        7
 72
     1
 73
     1
 93
        4
 10
6727.918832050509
 20
249.6024135393538
 42
0.0
 10
6697.543832050509
 20
310.3524135393538
 42
0.0
 10
6673.767474719953
 20
253.0164980164748
 42
0.0101667687972818
 10
6674.933437231357
 20
249.6024135393538
 42
0.0
 97
        0
 92
        7
 72
     1
 73
     1
 93
        4
 10
6788.668832050511
 20
249.6024135393538
 42
0.0
 10
6841.654226869663
 20
249.6024135393538
 42
0.0101667687972915
 10
6842.820189381069
 20
253.0164980164775
 42
0.0
 10
6819.043832050509
 20
310.3524135393538
 42
0.0
 97
        0
 75
     0
 76
     1
 47
0.6951189523479065
 98
        3
 10
6753.580160302252
 20
328.0356110461128
 10
6700.62856053766
 20
266.1005133126594
 10
6807.095061433189
 20
272.8570698363976
  0
CIRCLE
  5
990
330
17
100
AcDbEntity
  8
9図面文字
  6
Continuous
 62
     7
100
AcDbCircle
 10
6758.293832050509
 20
279.9774135393536
 30
0.0
 40
88.72201558466215
  0
CIRCLE
  5
991
330
17
100
AcDbEntity
  8
9図面文字
  6
Continuous
 62
     7
100
AcDbCircle
 10
6758.293832050509
 20
279.9774135393536
 30
0.0
 40
99.25201558466215
  0
LINE
  5
992
330
17
100
AcDbEntity
  8
9図面文字
  6
Continuous
 62
     7
100
AcDbLine
 10
6819.043832050511
 20
310.3524135393536
 30
0.0
 11
6844.235959788579
 21
249.6024135393536
 31
0.0
  0
LINE
  5
993
330
17
100
AcDbEntity
  8
9図面文字
  6
Continuous
 62
     7
100
AcDbLine
 10
6788.668832050511
 20
249.6024135393536
 30
0.0
 11
6819.043832050511
 21
310.3524135393536
 31
0.0
  0
LINE
  5
994
330
17
100
AcDbEntity
  8
9図面文字
  6
Continuous
 62
     7
100
AcDbLine
 10
6758.293832050511
 20
371.1294291240165
 30
0.0
 11
6788.668832050511
 21
249.6024135393536
 31
0.0
  0
LINE
  5
995
330
17
100
AcDbEntity
  8
9図面文字
  6
Continuous
 62
     7
100
AcDbLine
 10
6727.918832050509
 20
249.6024135393536
 30
0.0
 11
6758.293832050511
 21
371.1294291240165
 31
0.0
  0
LINE
  5
996
330
17
100
AcDbEntity
  8
9図面文字
  6
Continuous
 62
     7
100
AcDbLine
 10
6697.543832050509
 20
310.3524135393536
 30
0.0
 11
6727.918832050509
 21
249.6024135393536
 31
0.0
  0
LINE
  5
997
330
17
100
AcDbEntity
  8
9図面文字
  6
Continuous
 62
     7
100
AcDbLine
 10
6672.351704312441
 20
249.6024135393536
 30
0.0
 11
6697.543832050509
 21
310.3524135393536
 31
0.0
  0
LINE
  5
998
330
17
100
AcDbEntity
  8
9図面文字
  6
Continuous
 62
     7
100
AcDbLine
 10
6672.351704312441
 20
249.6024135393536
 30
0.0
 11
6844.235959788579
 21
249.6024135393536
 31
0.0
  0
TEXT
  5
999
330
17
100
AcDbEntity
  8
9図面文字
100
AcDbText
 10
3856.237192815403
 20
203.5506956331051
 30
0.0
 40
60.0
  1
当
  7
STYLE1
 72
     1
 11
3899.873556451766
 21
233.5506956331051
 31
0.0
100
AcDbText
 73
     2
  0
TEXT
  5
99A
330
17
100
AcDbEntity
  8
9図面文字
100
AcDbText
 10
3856.237192815403
 20
305.8147676345021
 30
0.0
 40
60.0
  1
担
  7
STYLE1
 72
     1
 11
3899.873556451766
 21
335.8147676345021
 31
0.0
100
AcDbText
 73
     2
  0
TEXT
  5
99B
330
17
100
AcDbEntity
  8
9図面文字
100
AcDbText
 10
4221.740637325771
 20
203.5506956331055
 30
0.0
 40
60.0
  1
認
  7
STYLE1
 72
     1
 11
4265.377000962135
 21
233.5506956331055
 31
0.0
100
AcDbText
 73
     2
  0
TEXT
  5
99C
330
17
100
AcDbEntity
  8
9図面文字
100
AcDbText
 10
4221.740637325771
 20
305.8147676345021
 30
0.0
 40
60.0
  1
承
  7
STYLE1
 72
     1
 11
4265.377000962135
 21
335.8147676345021
 31
0.0
100
AcDbText
 73
     2
  0
LINE
  5
9A0
330
17
100
AcDbEntity
  8
9図面枠
  6
Continuous
 62
     4
100
AcDbLine
 10
210.0
 20
668.5000000000001
 30
0.0
 11
8190.0
 21
668.5000000000001
 31
0.0
  0
LINE
  5
9A1
330
17
100
AcDbEntity
  8
9図面枠
  6
Continuous
 62
     4
100
AcDbLine
 10
372.0
 20
148.5
 30
0.0
 11
372.0
 21
668.5000000000001
 31
0.0
  0
TEXT
  5
9A2
330
17
100
AcDbEntity
  8
9図面文字
100
AcDbText
 10
249.1265137593749
 20
234.413564295694
 30
0.0
 40
60.0
  1
様
  7
STYLE1
 72
     1
 11
292.7628773957385
 21
264.413564295694
 31
0.0
100
AcDbText
 73
     2
  0
TEXT
  5
9A3
330
17
100
AcDbEntity
  8
9図面文字
100
AcDbText
 10
247.9719236647655
 20
433.4010246633488
 30
0.0
 40
60.0
  1
記
  7
STYLE1
 72
     1
 11
291.6082873011292
 21
463.4010246633488
 31
0.0
100
AcDbText
 73
     2
  0
TEXT
  5
9A4
330
17
100
AcDbEntity
  8
9図面文字
100
AcDbText
 10
249.1265137593749
 20
335.7701524161976
 30
0.0
 40
60.0
  1
仕
  7
STYLE1
 72
     1
 11
292.7628773957385
 21
365.7701524161976
 31
0.0
100
AcDbText
 73
     2
  0
TEXT
  5
9A5
330
17
100
AcDbEntity
  8
9図面文字
100
AcDbText
 10
247.3636363636364
 20
534.9591298071991
 30
0.0
 40
60.0
  1
特
  7
STYLE1
 72
     1
 11
291.0
 21
564.9591298071991
 31
0.0
100
AcDbText
 73
     2
  0
LINE
  5
9A6
330
17
100
AcDbEntity
  8
9図面枠
  6
Continuous
 62
     4
100
AcDbLine
 10
3832.004522627447
 20
408.5
 30
0.0
 11
8190.0
 21
408.5
 31
0.0
  0
TEXT
  5
9A7
330
17
100
AcDbEntity
  8
9図面文字
 62
     2
100
AcDbText
 10
7049.489099946379
 20
221.8037506221033
 30
0.0
 40
113.4000000000001
  1
丸山製作所
 41
1.3
  7
STYLE3
 72
     1
 11
7585.561827219106
 21
278.5037506221033
 31
0.0
100
AcDbText
 73
     2
  0
LINE
  5
9A8
330
17
100
AcDbEntity
  8
9図面枠
  6
Continuous
 62
     4
100
AcDbLine
 10
3832.004522627447
 20
148.5
 30
0.0
 11
3832.004522627447
 21
668.5000000000001
 31
0.0
  0
LINE
  5
9A9
330
17
100
AcDbEntity
  8
9図面枠
  6
Continuous
 62
     4
100
AcDbLine
 10
3832.004522627447
 20
148.5
 30
0.0
 11
3832.004522627447
 21
472.5
 31
0.0
  0
TEXT
  5
9AA
330
17
100
AcDbEntity
  8
9図面文字
100
AcDbText
 10
5826.857948894907
 20
589.5394506042221
 30
0.0
 40
60.0
  1
図
  7
STYLE1
 72
     1
 11
5870.494312531271
 21
619.5394506042221
 31
0.0
100
AcDbText
 73
     2
  0
TEXT
  5
9AB
330
17
100
AcDbEntity
  8
9図面文字
100
AcDbText
 10
5824.261804763119
 20
429.1513859207744
 30
0.0
 40
60.0
  1
名
  7
STYLE1
 72
     1
 11
5867.898168399483
 21
459.1513859207744
 31
0.0
100
AcDbText
 73
     2
  0
TEXT
  5
9AC
330
17
100
AcDbEntity
  8
9図面文字
100
AcDbText
 10
5826.857948894907
 20
507.8475397420657
 30
0.0
 40
60.0
  1
面
  7
STYLE1
 72
     1
 11
5870.494312531271
 21
537.8475397420657
 31
0.0
100
AcDbText
 73
     2
  0
TEXT
  5
9AD
330
17
100
AcDbEntity
  8
9図面文字
100
AcDbText
 10
5826.857948894907
 20
203.5506956331051
 30
0.0
 40
60.0
  1
尺
  7
STYLE1
 72
     1
 11
5870.494312531271
 21
233.5506956331051
 31
0.0
100
AcDbText
 73
     2
  0
TEXT
  5
9AE
330
17
100
AcDbEntity
  8
9図面文字
100
AcDbText
 10
5826.857948894907
 20
305.8147676345021
 30
0.0
 40
60.0
  1
縮
  7
STYLE1
 72
     1
 11
5870.494312531271
 21
335.8147676345021
 31
0.0
100
AcDbText
 73
     2
  0
LINE
  5
9AF
330
17
100
AcDbEntity
  8
9図面枠
  6
Continuous
 62
     4
100
AcDbLine
 10
5789.494312531275
 20
148.5
 30
0.0
 11
5789.494312531275
 21
668.5000000000001
 31
0.0
  0
LINE
  5
9B0
330
17
100
AcDbEntity
  8
9図面枠
  6
Continuous
 62
     4
100
AcDbLine
 10
4589.494312531275
 20
148.5
 30
0.0
 11
4589.494312531275
 21
408.5
 31
0.0
  0
LINE
  5
9B1
330
17
100
AcDbEntity
  8
9図面枠
  6
Continuous
 62
     4
100
AcDbLine
 10
4329.494312531273
 20
148.5
 30
0.0
 11
4329.494312531273
 21
408.5
 31
0.0
  0
LINE
  5
9B2
330
17
100
AcDbEntity
  8
9図面枠
  6
Continuous
 62
     4
100
AcDbLine
 10
4199.494312531273
 20
148.5
 30
0.0
 11
4199.494312531273
 21
408.5
 31
0.0
  0
LINE
  5
9B3
330
17
100
AcDbEntity
  8
9図面枠
  6
Continuous
 62
     4
100
AcDbLine
 10
3962.004522627447
 20
148.5
 30
0.0
 11
3962.004522627447
 21
408.5
 31
0.0
  0
LINE
  5
9B4
330
17
100
AcDbEntity
  8
9図面枠
  6
Continuous
 62
     4
100
AcDbLine
 10
5951.494312531271
 20
148.5
 30
0.0
 11
5951.494312531271
 21
472.5
 31
0.0
  0
LINE
  5
9B5
330
17
100
AcDbEntity
  8
9図面枠
  6
Continuous
 62
     4
100
AcDbLine
 10
6534.694312531272
 20
148.5
 30
0.0
 11
6534.694312531272
 21
408.5
 31
0.0
  0
TEXT
  5
9B6
330
17
100
AcDbEntity
  8
9図面文字
100
AcDbText
 10
6088.094312531273
 20
230.1510744775833
 30
0.0
 40
80.0
  1
図　示
  7
STYLE1
 72
     1
 11
6243.094312531273
 21
270.1510744775833
 31
0.0
100
AcDbText
 73
     2
  0
LINE
  5
9B7
330
17
100
AcDbEntity
  8
9図面枠
  6
Continuous
 62
     4
100
AcDbLine
 10
5951.494312531271
 20
472.5
 30
0.0
 11
5951.494312531271
 21
668.5000000000001
 31
0.0
  0
TEXT
  5
9B8
330
17
100
AcDbEntity
  8
9図面文字
 62
     7
100
AcDbText
 10
5086.527265317822
 20
343.8533710081424
 30
0.0
 40
50.0
  1
file name：
  7
STYLE1
 11
5086.527265317822
 21
368.8533710081424
 31
0.0
100
AcDbText
 73
     2
  0
LINE
  5
9BB
330
17
100
AcDbEntity
  8
非表示破線
  6
HIDS
 62
     5
100
AcDbLine
 10
372.0
 20
564.5
 30
0.0
 11
3832.004522627447
 21
564.4999999999999
 31
0.0
  0
TEXT
  5
9BC
330
17
100
AcDbEntity
  8
9図面文字
 62
     7
100
AcDbText
 10
5057.134755804179
 20
207.2702884942124
 30
0.0
 40
70.0
  1
TR-A3
  7
STYLE1
 72
     4
 11
5202.10634671327
 21
242.0714248578488
 31
0.0
100
AcDbText
  0
LINE
  5
9BD
330
17
100
AcDbEntity
  8
9図面枠
  6
Continuous
 62
     4
100
AcDbLine
 10
210.0
 20
5791.5
 30
0.0
 11
8190.0
 21
5791.5
 31
0.0
  0
LINE
  5
9BE
330
17
100
AcDbEntity
  8
9図面枠
  6
Continuous
 62
     4
100
AcDbLine
 10
8190.0
 20
5791.5
 30
0.0
 11
8190.0
 21
148.5
 31
0.0
  0
LINE
  5
9BF
330
17
100
AcDbEntity
  8
9図面枠
  6
Continuous
 62
     4
100
AcDbLine
 10
8190.0
 20
148.5
 30
0.0
 11
210.0
 21
148.5
 31
0.0
  0
LINE
  5
9C0
330
17
100
AcDbEntity
  8
9図面枠
  6
Continuous
 62
     4
100
AcDbLine
 10
210.0
 20
5791.5
 30
0.0
 11
210.0
 21
148.5
 31
0.0
  0
LINE
  5
9C1
330
17
100
AcDbEntity
  8
9図面枠
  6
Continuous
 62
     4
100
AcDbLine
 10
4589.494312531273
 20
328.5
 30
0.0
 11
5789.494312531273
 21
328.5
 31
0.0
  0
TEXT
  5
9C2
330
17
100
AcDbEntity
  8
9図面文字
  6
Continuous
 62
     7
100
AcDbText
 10
2963.701866758649
 20
-374.878138005608
 30
0.0
 40
54.67500000000008
  1
    /  /  
  7
STYLE1
100
AcDbText
  0
LINE
  5
9C3
330
17
100
AcDbEntity
  8
9図面枠
  6
Continuous
 62
     7
100
AcDbLine
 10
3320.593866856354
 20
-280.9237860362527
 30
0.0
 11
3320.593866856354
 21
-800.9237860362526
 31
0.0
  0
LINE
  5
9C4
330
17
100
AcDbEntity
  8
非表示破線
  6
HIDS
 62
     5
100
AcDbLine
 10
2863.803167401158
 20
-280.9237860362527
 30
0.0
 11
2863.803167401158
 21
-800.9237860362526
 31
0.0
  0
LINE
  5
9C5
330
17
100
AcDbEntity
  8
9図面枠
  6
Continuous
 62
     7
100
AcDbLine
 10
377.3845663115499
 20
-280.9237860362527
 30
0.0
 11
377.3845663115499
 21
-800.9237860362527
 31
0.0
  0
TEXT
  5
9C6
330
17
100
AcDbEntity
  8
9図面文字
100
AcDbText
 10
414.5503462142663
 20
-388.9742960379995
 30
0.0
 40
60.00000000000007
  1
変
  7
STYLE1
 72
     1
 11
458.18670985063
 21
-358.9742960379995
 31
0.0
100
AcDbText
 73
     2
  0
TEXT
  5
9C7
330
17
100
AcDbEntity
  8
9図面文字
100
AcDbText
 10
414.5503462142663
 20
-630.1382938146003
 30
0.0
 40
60.00000000000007
  1
履
  7
STYLE1
 72
     1
 11
458.18670985063
 21
-600.1382938146003
 31
0.0
100
AcDbText
 73
     2
  0
TEXT
  5
9C8
330
17
100
AcDbEntity
  8
9図面文字
100
AcDbText
 10
414.5503462142663
 20
-508.3305372698965
 30
0.0
 40
60.00000000000007
  1
更
  7
STYLE1
 72
     1
 11
458.18670985063
 21
-478.3305372698965
 31
0.0
100
AcDbText
 73
     2
  0
TEXT
  5
9C9
330
17
100
AcDbEntity
  8
9図面文字
100
AcDbText
 10
414.5503462142663
 20
-754.3975339082904
 30
0.0
 40
60.00000000000007
  1
歴
  7
STYLE1
 72
     1
 11
458.18670985063
 21
-724.3975339082904
 31
0.0
100
AcDbText
 73
     2
  0
TEXT
  5
9CA
330
17
100
AcDbEntity
  8
9図面文字
  6
Continuous
 62
     7
100
AcDbText
 10
558.8034820362773
 20
-374.4290453158369
 30
0.0
 40
54.67500000000008
  1
１：
  7
STYLE1
100
AcDbText
  0
TEXT
  5
9CB
330
17
100
AcDbEntity
  8
9図面文字
  6
Continuous
 62
     7
100
AcDbText
 10
558.8034820362773
 20
-503.11228866985
 30
0.0
 40
54.67500000000008
  1
２：
  7
STYLE1
100
AcDbText
  0
TEXT
  5
9CC
330
17
100
AcDbEntity
  8
9図面文字
  6
Continuous
 62
     7
100
AcDbText
 10
558.8034820362773
 20
-637.3016464101529
 30
0.0
 40
54.67500000000008
  1
３：
  7
STYLE1
100
AcDbText
  0
TEXT
  5
9CD
330
17
100
AcDbEntity
  8
9図面文字
  6
Continuous
 62
     7
100
AcDbText
 10
558.8034820362773
 20
-765.4199832300014
 30
0.0
 40
54.67500000000008
  1
４：
  7
STYLE1
100
AcDbText
  0
LINE
  5
9CE
330
17
100
AcDbEntity
  8
非表示破線
  6
HIDS
 62
     5
 48
2.0
100
AcDbLine
 10
539.3845663115499
 20
-540.9237860362527
 30
0.0
 11
3320.593866856354
 21
-540.9237860362527
 31
0.0
  0
LINE
  5
9CF
330
17
100
AcDbEntity
  8
9図面枠
  6
Continuous
 62
     7
100
AcDbLine
 10
377.3845663115499
 20
-280.9237860362527
 30
0.0
 11
3320.593866856354
 21
-280.9237860362528
 31
0.0
  0
LINE
  5
9D0
330
17
100
AcDbEntity
  8
非表示破線
  6
HIDS
 62
     5
 48
2.0
100
AcDbLine
 10
539.3845663115499
 20
-410.9237860362527
 30
0.0
 11
3320.593866856354
 21
-410.9237860362527
 31
0.0
  0
LINE
  5
9D1
330
17
100
AcDbEntity
  8
非表示破線
  6
HIDS
 62
     5
 48
2.0
100
AcDbLine
 10
539.3845663115499
 20
-670.9237860362527
 30
0.0
 11
3320.593866856354
 21
-670.9237860362527
 31
0.0
  0
LINE
  5
9D3
330
17
100
AcDbEntity
  8
非表示破線
  6
HIDS
 62
     5
100
AcDbLine
 10
372.0
 20
460.5
 30
0.0
 11
3832.004522627447
 21
460.5
 31
0.0
  0
LINE
  5
9D4
330
17
100
AcDbEntity
  8
非表示破線
  6
HIDS
 62
     5
100
AcDbLine
 10
372.0
 20
356.5
 30
0.0
 11
3832.004522627447
 21
356.5
 31
0.0
  0
LINE
  5
9D5
330
17
100
AcDbEntity
  8
非表示破線
  6
HIDS
 62
     5
100
AcDbLine
 10
372.0
 20
252.5
 30
0.0
 11
3832.004522627447
 21
252.5
 31
0.0
  0
LINE
  5
9D6
330
17
100
AcDbEntity
  8
9図面枠
  6
Continuous
 62
     7
100
AcDbLine
 10
3320.593866856354
 20
-800.9237860362526
 30
0.0
 11
377.3845663115499
 21
-800.9237860362527
 31
0.0
  0
TEXT
  5
9D7
330
17
100
AcDbEntity
  8
9図面文字
  6
Continuous
 62
     7
100
AcDbText
 10
2963.701866758649
 20
-504.878138005608
 30
0.0
 40
54.67500000000008
  1
    /  /  
  7
STYLE1
100
AcDbText
  0
TEXT
  5
9D8
330
17
100
AcDbEntity
  8
9図面文字
  6
Continuous
 62
     7
100
AcDbText
 10
2963.701866758649
 20
-634.878138005608
 30
0.0
 40
54.67500000000008
  1
    /  /  
  7
STYLE1
100
AcDbText
  0
TEXT
  5
9D9
330
17
100
AcDbEntity
  8
9図面文字
  6
Continuous
 62
     7
100
AcDbText
 10
2963.701866758649
 20
-764.8781380056079
 30
0.0
 40
54.67500000000008
  1
    /  /  
  7
STYLE1
100
AcDbText
  0
LINE
  5
9DA
330
17
100
AcDbEntity
  8
9図面枠
  6
Continuous
 62
     7
100
AcDbLine
 10
539.3845663115499
 20
-800.9237860362527
 30
0.0
 11
539.3845663115499
 21
-280.9237860362527
 31
0.0
  0
LINE
  5
A61
330
17
100
AcDbEntity
  8
9図面枠
  6
Continuous
 62
     4
100
AcDbLine
 10
3962.004522627449
 20
408.4999999999999
 30
0.0
 11
3962.004522627449
 21
668.4999999999999
 31
0.0
  0
TEXT
  5
A62
330
17
100
AcDbEntity
  8
9図面文字
100
AcDbText
 10
4815.473031594757
 20
460.7295352690052
 30
0.0
 40
59.99999999999999
  1
種
  7
STYLE1
 72
     1
 11
4859.109395231121
 21
490.7295352690052
 31
0.0
100
AcDbText
 73
     2
  0
TEXT
  5
A63
330
17
100
AcDbEntity
  8
9図面文字
100
AcDbText
 10
4815.473031594757
 20
566.0309265352139
 30
0.0
 40
59.99999999999999
  1
図
  7
STYLE1
 72
     1
 11
4859.109395231121
 21
596.0309265352139
 31
0.0
100
AcDbText
 73
     2
  0
LINE
  5
A64
330
17
100
AcDbEntity
  8
9図面枠
  6
Continuous
 62
     4
100
AcDbLine
 10
4791.240361406803
 20
408.4999999999999
 30
0.0
 11
4791.240361406803
 21
668.4999999999999
 31
0.0
  0
LINE
  5
A65
330
17
100
AcDbEntity
  8
9図面枠
  6
Continuous
 62
     4
100
AcDbLine
 10
4921.240361406803
 20
408.4999999999999
 30
0.0
 11
4921.240361406803
 21
668.4999999999999
 31
0.0
  0
LINE
  5
A66
330
17
100
AcDbEntity
  8
9図面枠
  6
Continuous
 62
     4
100
AcDbLine
 10
3962.004522627449
 20
408.4999999999999
 30
0.0
 11
3962.004522627449
 21
668.4999999999999
 31
0.0
  0
TEXT
  5
A67
330
17
100
AcDbEntity
  8
9図面文字
100
AcDbText
 10
3856.237192815403
 20
566.0309265352139
 30
0.0
 40
59.99999999999999
  1
類
  7
STYLE1
 72
     1
 11
3899.873556451766
 21
596.0309265352139
 31
0.0
100
AcDbText
 73
     2
  0
TEXT
  5
A68
330
17
100
AcDbEntity
  8
9図面文字
100
AcDbText
 10
3856.237192815403
 20
460.7295352690052
 30
0.0
 40
59.99999999999999
  1
別
  7
STYLE1
 72
     1
 11
3899.873556451766
 21
490.7295352690052
 31
0.0
100
AcDbText
 73
     2
  0
TEXT
  5
A69
330
17
100
AcDbEntity
  8
9図面文字
 62
     7
100
AcDbText
 10
4244.058677264438
 20
507.9212193321258
 30
0.0
 40
70.0
  1
標準品
  7
STYLE1
 72
     4
 11
4396.785949991711
 21
543.915537513944
 31
0.0
100
AcDbText
  0
TEXT
  5
A6A
330
17
100
AcDbEntity
  8
9図面文字
 62
     7
100
AcDbText
 10
5136.851556780803
 20
508.1200829684894
 30
0.0
 40
70.0
  1
承諾願図
  7
STYLE1
 72
     4
 11
5340.487920417167
 21
543.915537513944
 31
0.0
100
AcDbText
  0
DIMENSION
  5
BC3
330
17
100
AcDbEntity
  8
0
  6
DIMENSION
 62
     7
100
AcDbDimension
  2
*D3
 10
4195.028256185146
 20
3126.879510394784
 30
0.0
 11
4173.228256185145
 21
3676.879510394785
 31
0.0
 70
    32
  1
<>
 71
     5
 42
1100.0
  3
ASKSTANDARD
100
AcDbAlignedDimension
 13
2719.486854911264
 23
4226.879510394784
 33
0.0
 14
4010.326854911263
 24
3126.879510394784
 34
0.0
 50
90.0
100
AcDbRotatedDimension
1001
ACAD
1000
DSTYLE
1002
{
1070
     3
1000
<>
1070
    41
1040
2.0
1070
    77
1070
     3
1070
    78
1070
     8
1070
   173
1070
     0
1070
   279
1070
     2
1070
   289
1070
     3
1070
   341
1005
0
1070
   342
1005
0
1070
   343
1005
0
1002
}
  0
DIMENSION
  5
BDA
330
17
100
AcDbEntity
  8
0
  6
DIMENSION
 62
     7
100
AcDbDimension
  2
*D4
 10
4195.028256185146
 20
1626.879510394815
 30
0.0
 11
4173.228256185146
 21
2376.8795103948
 31
0.0
 70
    32
  1
<>
 71
     5
 42
1499.999999999969
  3
ASKSTANDARD
100
AcDbAlignedDimension
 13
4030.326854911263
 23
3126.879510394784
 33
0.0
 14
4195.028256185147
 24
1626.879510394815
 34
0.0
 50
90.0
100
AcDbRotatedDimension
1001
ACAD
1000
DSTYLE
1002
{
1070
     3
1000
<>
1070
    41
1040
2.0
1070
    77
1070
     3
1070
    78
1070
     8
1070
   173
1070
     0
1070
   279
1070
     2
1070
   289
1070
     3
1070
   341
1005
0
1070
   342
1005
0
1070
   343
1005
0
1002
}
  0
DIMENSION
  5
BEF
330
17
100
AcDbEntity
  8
0
  6
DIMENSION
 62
     7
100
AcDbDimension
  2
*D5
 10
4195.028256185147
 20
1126.879510394784
 30
0.0
 11
4173.228256185147
 21
1376.879510394803
 31
0.0
 70
    32
  1
<>
 71
     5
 42
500.0000000000364
  3
ASKSTANDARD
100
AcDbAlignedDimension
 13
4195.028256185147
 23
1626.87951039482
 33
0.0
 14
4069.486854911263
 24
1126.879510394784
 34
0.0
 50
90.0
100
AcDbRotatedDimension
1001
ACAD
1000
DSTYLE
1002
{
1070
     3
1000
<>
1070
    41
1040
2.0
1070
    77
1070
     3
1070
    78
1070
     8
1070
   173
1070
     0
1070
   279
1070
     2
1070
   289
1070
     3
1070
   341
1005
0
1070
   342
1005
0
1070
   343
1005
0
1002
}
  0
DIMENSION
  5
C04
330
17
100
AcDbEntity
  8
0
  6
DIMENSION
 62
     7
100
AcDbDimension
  2
*D6
 10
4195.028256185147
 20
1026.879510394784
 30
0.0
 11
4173.228256185147
 21
1076.879510394785
 31
0.0
 70
    32
  1
<>
 71
     5
 42
100.0
  3
ASKSTANDARD
100
AcDbAlignedDimension
 13
4069.486854911263
 23
1126.879510394784
 33
0.0
 14
4069.486854911263
 24
1026.879510394784
 34
0.0
 50
90.0
100
AcDbRotatedDimension
1001
ACAD
1000
DSTYLE
1002
{
1070
     3
1000
<>
1070
    41
1040
2.0
1070
    77
1070
     3
1070
    78
1070
     8
1070
   173
1070
     0
1070
   279
1070
     2
1070
   289
1070
     3
1070
   341
1005
0
1070
   342
1005
0
1070
   343
1005
0
1002
}
  0
DIMENSION
  5
C1B
330
17
100
AcDbEntity
  8
0
  6
DIMENSION
 62
     7
100
AcDbDimension
  2
*D7
 10
4314.445184741122
 20
4226.879510394783
 30
0.0
 11
4292.645184741121
 21
2676.879510394784
 31
0.0
 70
    32
  1
<>
 71
     5
 42
3099.999999999999
  3
ASKSTANDARD
100
AcDbAlignedDimension
 13
4089.486854911263
 23
1126.879510394784
 33
0.0
 14
3819.486854911263
 24
4226.879510394783
 34
0.0
 50
90.0
100
AcDbRotatedDimension
1001
ACAD
1000
DSTYLE
1002
{
1070
     3
1000
<>
1070
    41
1040
2.0
1070
    77
1070
     3
1070
    78
1070
     8
1070
   173
1070
     0
1070
   279
1070
     2
1070
   289
1070
     3
1070
   341
1005
0
1070
   342
1005
0
1070
   343
1005
0
1002
}
  0
LEADER
  5
C6A
330
17
100
AcDbEntity
  8
0
  6
DIMENSION
 62
     7
100
AcDbLeader
  3
ASKSTANDARD
 76
     3
 10
1619.486854911263
 20
2454.379510394784
 30
0.0
 10
1787.070972407189
 20
2621.753755924454
 30
0.0
 10
2184.404305740523
 20
2621.753755924454
 30
0.0
1001
ACAD
1000
DSTYLE
1002
{
1070
    41
1040
2.0
1070
    40
1040
20.0
1070
   176
1070
     3
1070
   341
1005
0
1002
}
  0
MTEXT
  5
C6B
330
17
100
AcDbEntity
  8
0
  6
DIMENSION
 62
     3
100
AcDbMText
 10
1830.481678303015
 20
2630.904067878094
 30
0.0
 40
40.0
 41
0.0
 71
     7
 72
     5
  1
20A　SGP
  7
STD
 73
     1
 44
1.0
  0
LEADER
  5
C6F
330
17
100
AcDbEntity
  8
0
  6
DIMENSION
 62
     7
100
AcDbLeader
  3
ASKSTANDARD
 76
     3
 10
1644.531850907038
 20
2745.419179261678
 30
0.0
 10
1803.207476727963
 20
2928.228929357445
 30
0.0
 10
2200.540810061296
 20
2928.228929357445
 30
0.0
1001
ACAD
1000
DSTYLE
1002
{
1070
    41
1040
2.0
1070
    40
1040
20.0
1070
   176
1070
     3
1070
   341
1005
0
1002
}
  0
MTEXT
  5
C70
330
17
100
AcDbEntity
  8
0
  6
DIMENSION
 62
     3
100
AcDbMText
 10
1846.618182623788
 20
2937.379241311085
 30
0.0
 40
40.0
 41
0.0
 71
     7
 72
     5
  1
40A　SGP
  7
STD
 73
     1
 44
1.0
  0
LINE
  5
C85
330
17
100
AcDbEntity
  8
0
  6
DIMENSION
 62
     3
100
AcDbLine
 10
2719.486854911258
 20
3126.879510394784
 30
0.0
 11
1955.492017498221
 21
3861.666478438054
 31
0.0
  0
SOLID
  5
C86
330
17
100
AcDbEntity
  8
0
  6
DIMENSION
 62
     3
100
AcDbTrace
 10
1960.113319184028
 20
3866.471477415495
 30
0.0
 11
1950.870715812413
 21
3856.861479460613
 31
0.0
 12
1926.662023633578
 22
3889.394288552894
 32
0.0
 13
1926.662023633578
 23
3889.394288552894
 33
0.0
  0
MTEXT
  5
C87
330
17
100
AcDbEntity
  8
0
  6
DIMENSION
 62
     3
100
AcDbMText
 10
2365.21724631958
 20
3523.102988281062
 30
0.0
 40
40.0
 41
0.0
 71
     5
 72
     1
  1
\A1;R1100
  7
STD
 11
0.7207498466160753
 21
-0.6931952528710104
 31
0.0
 73
     1
 44
1.0
  0
LEADER
  5
C91
330
17
100
AcDbEntity
  8
0
  6
DIMENSION
 62
     7
100
AcDbLeader
  3
ASKSTANDARD
 76
     3
 10
2350.307837605458
 20
4184.93105751039
 30
0.0
 10
2212.142222814084
 20
4350.66573088223
 30
0.0
 10
1821.475556147417
 20
4350.66573088223
 30
0.0
1001
ACAD
1000
DSTYLE
1002
{
1070
    41
1040
2.0
1070
    40
1040
20.0
1070
   176
1070
     3
1070
   341
1005
0
1002
}
  0
MTEXT
  5
C92
330
17
100
AcDbEntity
  8
0
  6
DIMENSION
 62
     3
100
AcDbMText
 10
1835.475556147417
 20
4352.465730882231
 30
0.0
 40
40.0
 41
0.0
 71
     7
 72
     5
  1
溶接金網
  7
STD
 73
     1
 44
1.0
  0
MTEXT
  5
C93
330
17
100
AcDbEntity
  8
0
  6
DIMENSION
 62
     3
100
AcDbMText
 10
1835.475556147417
 20
4296.66573088223
 30
0.0
 40
40.0
 41
0.0
 71
     7
 72
     5
  1
φ4　150×150
  7
STD
 73
     1
 44
1.0
  0
LEADER
  5
C99
330
17
100
AcDbEntity
  8
0
  6
DIMENSION
 62
     7
100
AcDbLeader
  3
ASKSTANDARD
 76
     3
 10
3646.947309924435
 20
1349.383939096633
 30
0.0
 10
3530.864532368705
 20
1481.042386682293
 30
0.0
 10
3238.864532368705
 20
1481.042386682293
 30
0.0
1001
ACAD
1000
DSTYLE
1002
{
1070
    41
1040
2.0
1070
    40
1040
20.0
1070
   176
1070
     3
1070
   341
1005
0
1002
}
  0
MTEXT
  5
C9A
330
17
100
AcDbEntity
  8
0
  6
DIMENSION
 62
     3
100
AcDbMText
 10
3252.864532368705
 20
1482.842386682293
 30
0.0
 40
40.0
 41
0.0
 71
     7
 72
     5
  1
コンクリート
  7
STD
 73
     1
 44
1.0
  0
LEADER
  5
C9E
330
17
100
AcDbEntity
  8
0
  6
DIMENSION
 62
     7
100
AcDbLeader
  3
ASKSTANDARD
 76
     3
 10
3593.370643360249
 20
1081.604041977616
 30
0.0
 10
3488.449660088663
 20
1202.105000389942
 30
0.0
 10
2996.449660088663
 20
1202.105000389942
 30
0.0
1001
ACAD
1000
DSTYLE
1002
{
1070
    41
1040
2.0
1070
    40
1040
20.0
1070
   176
1070
     3
1070
   341
1005
0
1002
}
  0
MTEXT
  5
C9F
330
17
100
AcDbEntity
  8
0
  6
DIMENSION
 62
     3
100
AcDbMText
 10
3010.449660088663
 20
1203.905000389942
 30
0.0
 40
40.0
 41
0.0
 71
     7
 72
     5
  1
クラッシャーラン基礎
  7
STD
 73
     1
 44
1.0
  0
LEADER
  5
CE7
330
17
100
AcDbEntity
  8
0
  6
DIMENSION
 62
     7
100
AcDbLeader
  3
ASKSTANDARD
 76
     3
 10
5636.169438412478
 20
1230.369256297587
 30
0.0
 10
5484.804890560736
 20
1404.953212033979
 30
0.0
 10
4880.804890560736
 20
1404.953212033979
 30
0.0
1001
ACAD
1000
DSTYLE
1002
{
1070
    41
1040
2.0
1070
    40
1040
20.0
1070
   176
1070
     3
1070
   341
1005
0
1002
}
  0
MTEXT
  5
CE8
330
17
100
AcDbEntity
  8
0
  6
DIMENSION
 62
     3
100
AcDbMText
 10
4894.804890560736
 20
1406.753212033979
 30
0.0
 40
40.0
 41
0.0
 71
     7
 72
     5
  1
根ガラミ　φ13　L=800
  7
STD
 73
     1
 44
1.0
  0
DIMENSION
  5
CFD
330
17
100
AcDbEntity
  8
0
  6
DIMENSION
 62
     7
100
AcDbDimension
  2
*D8
 10
6301.82571335404
 20
4583.776037637266
 30
0.0
 11
6001.82571335404
 21
4605.576037637266
 31
0.0
 70
    32
  1
<>
 71
     5
 42
600.0
  3
ASKSTANDARD
100
AcDbAlignedDimension
 13
5701.82571335404
 23
4251.179510394783
 33
0.0
 14
6301.82571335404
 24
4251.179510394783
 34
0.0
100
AcDbRotatedDimension
1001
ACAD
1000
DSTYLE
1002
{
1070
     3
1000
<>
1070
    41
1040
2.0
1070
    77
1070
     3
1070
    78
1070
     8
1070
   173
1070
     0
1070
   279
1070
     2
1070
   289
1070
     3
1070
   341
1005
0
1070
   342
1005
0
1070
   343
1005
0
1002
}
  0
DIMENSION
  5
D14
330
17
100
AcDbEntity
  8
0
  6
DIMENSION
 62
     7
100
AcDbDimension
  2
*D9
 10
6151.82571335404
 20
4464.878984971097
 30
0.0
 11
6001.82571335404
 21
4486.678984971098
 31
0.0
 70
    32
  1
<>
 71
     5
 42
300.0
  3
ASKSTANDARD
100
AcDbAlignedDimension
 13
5851.82571335404
 23
4240.479510394784
 33
0.0
 14
6151.82571335404
 24
4240.479510394784
 34
0.0
100
AcDbRotatedDimension
1001
ACAD
1000
DSTYLE
1002
{
1070
     3
1000
<>
1070
    41
1040
2.0
1070
    77
1070
     3
1070
    78
1070
     8
1070
   173
1070
     0
1070
   279
1070
     2
1070
   289
1070
     3
1070
   341
1005
0
1070
   342
1005
0
1070
   343
1005
0
1002
}
  0
LEADER
  5
D3C
330
17
100
AcDbEntity
  8
0
  6
DIMENSION
 62
     7
100
AcDbLeader
  3
ASKSTANDARD
 76
     3
 10
6151.82571335404
 20
4233.379510394783
 30
0.0
 10
6361.323544875061
 20
4451.999852142821
 30
0.0
 10
6834.656878208394
 20
4451.999852142821
 30
0.0
1001
ACAD
1000
DSTYLE
1002
{
1070
    41
1040
2.0
1070
    40
1040
20.0
1070
   176
1070
     3
1070
   341
1005
0
1002
}
  0
MTEXT
  5
D3D
330
17
100
AcDbEntity
  8
0
  6
DIMENSION
 62
     3
100
AcDbMText
 10
6375.323544875061
 20
4453.799852142821
 30
0.0
 40
40.0
 41
0.0
 71
     7
 72
     5
  1
M8ジョイントボルト
  7
STD
 73
     1
 44
1.0
  0
LINE
  5
D5A
330
17
100
AcDbEntity
  8
0
  6
Continuous
 62
     2
100
AcDbLine
 10
6287.060890293808
 20
4246.179510394784
 30
0.0
 11
5716.590536414272
 21
4246.179510394784
 31
0.0
  0
LEADER
  5
D86
330
17
100
AcDbEntity
  8
0
  6
DIMENSION
 62
     7
100
AcDbLeader
  3
ASKSTANDARD
 76
     3
 10
6291.478298259025
 20
3952.290877184751
 30
0.0
 10
6440.887337786396
 20
4108.927645227966
 30
0.0
 10
6838.220671119729
 20
4108.927645227966
 30
0.0
1001
ACAD
1000
DSTYLE
1002
{
1070
    41
1040
2.0
1070
    40
1040
20.0
1070
   176
1070
     3
1070
   341
1005
0
1002
}
  0
MTEXT
  5
D87
330
17
100
AcDbEntity
  8
0
  6
DIMENSION
 62
     3
100
AcDbMText
 10
6491.012962628304
 20
4115.886800190106
 30
0.0
 40
40.0
 41
0.0
 71
     7
 72
     5
  1
40A　SGP
  7
STD
 73
     1
 44
1.0
  0
LEADER
  5
D8B
330
17
100
AcDbEntity
  8
0
  6
DIMENSION
 62
     7
100
AcDbLeader
  3
ASKSTANDARD
 76
     3
 10
6225.378602375823
 20
3395.234472827571
 30
0.0
 10
6422.161249131437
 20
3610.154694920318
 30
0.0
 10
6812.827915798104
 20
3610.154694920318
 30
0.0
1001
ACAD
1000
DSTYLE
1002
{
1070
    41
1040
2.0
1070
    40
1040
20.0
1070
   176
1070
     3
1070
   341
1005
0
1002
}
  0
MTEXT
  5
D8C
330
17
100
AcDbEntity
  8
0
  6
DIMENSION
 62
     3
100
AcDbMText
 10
6436.161249131437
 20
3611.954694920319
 30
0.0
 40
40.0
 41
0.0
 71
     7
 72
     5
  1
溶接金網
  7
STD
 73
     1
 44
1.0
  0
MTEXT
  5
D8D
330
17
100
AcDbEntity
  8
0
  6
DIMENSION
 62
     3
100
AcDbMText
 10
6436.161249131437
 20
3556.154694920318
 30
0.0
 40
40.0
 41
0.0
 71
     7
 72
     5
  1
φ4　150×150
  7
STD
 73
     1
 44
1.0
  0
LEADER
  5
D91
330
17
100
AcDbEntity
  8
0
  6
DIMENSION
 62
     7
100
AcDbLeader
  3
ASKSTANDARD
 76
     3
 10
6246.514454369601
 20
3066.865300626157
 30
0.0
 10
6431.234266853526
 20
3274.59480979823
 30
0.0
 10
6828.567600186859
 20
3274.59480979823
 30
0.0
1001
ACAD
1000
DSTYLE
1002
{
1070
    41
1040
2.0
1070
    40
1040
20.0
1070
   176
1070
     3
1070
   341
1005
0
1002
}
  0
MTEXT
  5
D92
330
17
100
AcDbEntity
  8
0
  6
DIMENSION
 62
     3
100
AcDbMText
 10
6481.359891695434
 20
3281.55396476037
 30
0.0
 40
40.0
 41
0.0
 71
     7
 72
     5
  1
20A　SGP
  7
STD
 73
     1
 44
1.0
  0
DIMENSION
  5
D99
330
17
100
AcDbEntity
  8
0
  6
DIMENSION
 62
     7
100
AcDbDimension
  2
*D12
 10
5264.111001448658
 20
4226.879510394783
 30
0.0
 11
5242.311001448657
 21
2926.879510394784
 31
0.0
 70
    32
  1
<>
 71
     5
 42
2599.999999999999
  3
ASKSTANDARD
100
AcDbAlignedDimension
 13
5551.82571335404
 23
1626.879510394784
 33
0.0
 14
5677.52571335404
 24
4226.879510394783
 34
0.0
 50
90.0
100
AcDbRotatedDimension
1001
ACAD
1000
DSTYLE
1002
{
1070
     3
1000
<>
1070
    41
1040
2.0
1070
    77
1070
     3
1070
    78
1070
     8
1070
   173
1070
     0
1070
   279
1070
     2
1070
   289
1070
     3
1070
   341
1005
0
1070
   342
1005
0
1070
   343
1005
0
1002
}
  0
INSERT
  5
DD8
330
17
100
AcDbEntity
  8
0
  6
Continuous
 62
     7
100
AcDbBlockReference
  2
signMARU
 10
4329.494312531273
 20
148.5
 30
0.0
 41
0.666
 42
0.666
 43
0.666
  0
INSERT
  5
DE5
330
17
100
AcDbEntity
  8
0
  6
Continuous
 62
     7
100
AcDbBlockReference
  2
sugnkINAMI
 10
3962.004522627447
 20
148.5
 30
0.0
 41
0.666
 42
0.666
 43
0.666
  0
ARC
  5
F36
330
17
100
AcDbEntity
  8
0
  6
Continuous
 62
     7
100
AcDbCircle
 10
1619.486854911263
 20
5435.086956917314
 30
0.0
 40
24.3
100
AcDbArc
 50
90.0
 51
270.0
  0
ARC
  5
F37
330
17
100
AcDbEntity
  8
0
  6
Continuous
 62
     7
100
AcDbCircle
 10
1619.486854911263
 20
4835.086956917314
 30
0.0
 40
24.3
100
AcDbArc
 50
90.0
 51
270.0
  0
LINE
  5
F38
330
17
100
AcDbEntity
  8
0
  6
Continuous
 62
     7
100
AcDbLine
 10
1619.486854911263
 20
5459.386956917314
 30
0.0
 11
2719.486854911263
 21
5459.386956917314
 31
0.0
  0
LINE
  5
F39
330
17
100
AcDbEntity
  8
0
  6
Continuous
 62
     7
100
AcDbLine
 10
1619.486854911263
 20
5410.786956917314
 30
0.0
 11
2719.486854911263
 21
5410.786956917314
 31
0.0
  0
LINE
  5
F3A
330
17
100
AcDbEntity
  8
0
  6
Continuous
 62
     7
100
AcDbLine
 10
1619.486854911263
 20
4859.386956917314
 30
0.0
 11
2719.486854911263
 21
4859.386956917314
 31
0.0
  0
LINE
  5
F3B
330
17
100
AcDbEntity
  8
0
  6
Continuous
 62
     7
100
AcDbLine
 10
1619.486854911263
 20
4810.786956917314
 30
0.0
 11
2719.486854911263
 21
4810.786956917314
 31
0.0
  0
LINE
  5
F41
330
17
100
AcDbEntity
  8
0
  6
Continuous
 62
     7
100
AcDbLine
 10
1605.886854911263
 20
5414.949181469166
 30
0.0
 11
1605.886854911263
 21
4855.224732365461
 31
0.0
  0
LINE
  5
F42
330
17
100
AcDbEntity
  8
0
  6
Continuous
 62
     7
100
AcDbLine
 10
1633.086854911262
 20
4859.386956917314
 30
0.0
 11
1633.086854911262
 21
5410.786956917314
 31
0.0
  0
LINE
  5
F45
330
17
100
AcDbEntity
  8
0
  6
Continuous
 62
     7
100
AcDbLine
 10
2692.286854911263
 20
5410.786956917314
 30
0.0
 11
2692.286854911263
 21
4859.386956917314
 31
0.0
  0
LINE
  5
F4C
330
17
100
AcDbEntity
  8
0
  6
Continuous
 62
     7
100
AcDbLine
 10
1730.17493841522
 20
5410.786956917314
 30
0.0
 11
1730.17493841522
 21
4859.386956917314
 31
0.0
  0
LINE
  5
F4D
330
17
100
AcDbEntity
  8
0
  6
Continuous
 62
     7
100
AcDbLine
 10
1757.37493841522
 20
4859.386956917314
 30
0.0
 11
1757.37493841522
 21
5410.786956917314
 31
0.0
  0
LINE
  5
F4E
330
17
100
AcDbEntity
  8
0
  6
Continuous
 62
     7
100
AcDbLine
 10
2135.236270934688
 20
5410.786956917314
 30
0.0
 11
2135.236270934688
 21
4859.386956917314
 31
0.0
  0
LINE
  5
F4F
330
17
100
AcDbEntity
  8
0
  6
Continuous
 62
     7
100
AcDbLine
 10
2162.436270934688
 20
4859.386956917314
 30
0.0
 11
2162.436270934688
 21
5410.786956917314
 31
0.0
  0
LINE
  5
F5B
330
17
100
AcDbEntity
  8
0
  6
Continuous
 62
     7
100
AcDbLine
 10
1419.486854911263
 20
5585.086956917314
 30
0.0
 11
1419.486854911263
 21
4685.086956917314
 31
0.0
  0
LINE
  5
F5C
330
17
100
AcDbEntity
  8
0
  6
Continuous
 62
     7
100
AcDbLine
 10
1419.486854911263
 20
4685.086956917314
 30
0.0
 11
1819.486854911263
 21
4685.086956917314
 31
0.0
  0
LINE
  5
F5D
330
17
100
AcDbEntity
  8
0
  6
Continuous
 62
     7
100
AcDbLine
 10
1819.486854911263
 20
4685.086956917314
 30
0.0
 11
1819.486854911263
 21
4810.786956917314
 31
0.0
  0
LINE
  5
F5E
330
17
100
AcDbEntity
  8
0
  6
Continuous
 62
     7
100
AcDbLine
 10
1819.486854911263
 20
5585.086956917314
 30
0.0
 11
1419.486854911263
 21
5585.086956917314
 31
0.0
  0
LINE
  5
F68
330
17
100
AcDbEntity
  8
0
  6
Continuous
 62
     7
100
AcDbLine
 10
1589.486854911263
 20
4805.086956917314
 30
0.0
 11
1419.486854911263
 21
4685.086956917314
 31
0.0
  0
LINE
  5
F69
330
17
100
AcDbEntity
  8
0
  6
Continuous
 62
     7
100
AcDbLine
 10
1649.486854911263
 20
4805.086956917314
 30
0.0
 11
1819.486854911263
 21
4685.086956917314
 31
0.0
  0
LINE
  5
F6A
330
17
100
AcDbEntity
  8
0
  6
Continuous
 62
     7
100
AcDbLine
 10
1589.486854911263
 20
4805.086956917314
 30
0.0
 11
1649.486854911263
 21
4805.086956917314
 31
0.0
  0
LINE
  5
F6B
330
17
100
AcDbEntity
  8
0
  6
Continuous
 62
     7
100
AcDbLine
 10
1589.486854911263
 20
4805.086956917314
 30
0.0
 11
1589.486854911263
 21
5465.086956917314
 31
0.0
  0
LINE
  5
F6C
330
17
100
AcDbEntity
  8
0
  6
Continuous
 62
     7
100
AcDbLine
 10
1419.486854911263
 20
5585.086956917314
 30
0.0
 11
1589.486854911263
 21
5465.086956917314
 31
0.0
  0
LINE
  5
F6D
330
17
100
AcDbEntity
  8
0
  6
Continuous
 62
     7
100
AcDbLine
 10
1589.486854911263
 20
5465.086956917314
 30
0.0
 11
1649.486854911263
 21
5465.086956917314
 31
0.0
  0
LINE
  5
F6E
330
17
100
AcDbEntity
  8
0
  6
Continuous
 62
     7
100
AcDbLine
 10
1649.486854911263
 20
5465.086956917314
 30
0.0
 11
1819.486854911263
 21
5585.086956917314
 31
0.0
  0
LINE
  5
F72
330
17
100
AcDbEntity
  8
0
  6
Continuous
 62
     2
100
AcDbLine
 10
1600.186854911261
 20
5420.322133857082
 30
0.0
 11
1600.186854911261
 21
4849.851779977545
 31
0.0
  0
LINE
  5
F73
330
17
100
AcDbEntity
  8
0
  6
Continuous
 62
     2
100
AcDbLine
 10
1629.820911061223
 20
4859.386956917313
 30
0.0
 11
1629.820911061223
 21
5410.786956917314
 31
0.0
  0
LINE
  5
F74
330
17
100
AcDbEntity
  8
0
  6
Continuous
 62
     2
100
AcDbLine
 10
1660.369730609077
 20
4859.386956917313
 30
0.0
 11
1660.369730609077
 21
5410.786956917314
 31
0.0
  0
LINE
  5
F75
330
17
100
AcDbEntity
  8
0
  6
Continuous
 62
     2
100
AcDbLine
 10
1710.566997574614
 20
4859.386956917313
 30
0.0
 11
1710.566997574614
 21
5410.786956917314
 31
0.0
  0
LINE
  5
F76
330
17
100
AcDbEntity
  8
0
  6
Continuous
 62
     2
100
AcDbLine
 10
1779.08379717102
 20
4859.386956917313
 30
0.0
 11
1779.08379717102
 21
5410.786956917314
 31
0.0
  0
LINE
  5
F77
330
17
100
AcDbEntity
  8
0
  6
Continuous
 62
     2
100
AcDbLine
 10
1865.834654270434
 20
4859.386956917313
 30
0.0
 11
1865.834654270434
 21
5410.786956917314
 31
0.0
  0
LINE
  5
F78
330
17
100
AcDbEntity
  8
0
  6
Continuous
 62
     2
100
AcDbLine
 10
1968.02456145705
 20
4859.386956917312
 30
0.0
 11
1968.02456145705
 21
5410.786956917314
 31
0.0
  0
LINE
  5
F79
330
17
100
AcDbEntity
  8
0
  6
Continuous
 62
     2
100
AcDbLine
 10
2084.155388887997
 20
4859.386956917312
 30
0.0
 11
2084.155388887997
 21
5410.786956917314
 31
0.0
  0
LINE
  5
F7A
330
17
100
AcDbEntity
  8
0
  6
Continuous
 62
     2
100
AcDbLine
 10
2211.563380352724
 20
4859.386956917312
 30
0.0
 11
2211.563380352724
 21
5410.786956917314
 31
0.0
  0
LINE
  5
F7B
330
17
100
AcDbEntity
  8
0
  6
Continuous
 62
     2
100
AcDbLine
 10
2349.403436998374
 20
4859.386956917312
 30
0.0
 11
2349.403436998374
 21
5410.786956917314
 31
0.0
  0
LINE
  5
F7C
330
17
100
AcDbEntity
  8
0
  6
Continuous
 62
     2
100
AcDbLine
 10
2493.59984938724
 20
4859.386956917312
 30
0.0
 11
2493.59984938724
 21
5410.786956917314
 31
0.0
  0
LINE
  5
F7D
330
17
100
AcDbEntity
  8
0
  6
Continuous
 62
     2
100
AcDbLine
 10
2641.986854911262
 20
4859.386956917312
 30
0.0
 11
2641.986854911262
 21
5410.786956917314
 31
0.0
  0
LINE
  5
F7E
330
17
100
AcDbEntity
  8
0
  6
Continuous
 62
     2
100
AcDbLine
 10
2719.486854911263
 20
5360.086956917314
 30
0.0
 11
1600.186854911261
 21
5360.086956917314
 31
0.0
  0
LINE
  5
F7F
330
17
100
AcDbEntity
  8
0
  6
Continuous
 62
     2
100
AcDbLine
 10
2719.486854911263
 20
5210.086956917314
 30
0.0
 11
1600.186854911261
 21
5210.086956917314
 31
0.0
  0
LINE
  5
F80
330
17
100
AcDbEntity
  8
0
  6
Continuous
 62
     2
100
AcDbLine
 10
2719.486854911263
 20
5060.086956917314
 30
0.0
 11
1600.186854911261
 21
5060.086956917314
 31
0.0
  0
LINE
  5
F81
330
17
100
AcDbEntity
  8
0
  6
Continuous
 62
     2
100
AcDbLine
 10
2719.486854911263
 20
4910.086956917314
 30
0.0
 11
1600.186854911261
 21
4910.086956917314
 31
0.0
  0
LINE
  5
F87
330
17
100
AcDbEntity
  8
0
  6
Continuous
 62
     7
100
AcDbLine
 10
1819.486854911263
 20
5459.386956917314
 30
0.0
 11
1819.486854911263
 21
5585.086956917314
 31
0.0
  0
LINE
  5
F89
330
17
100
AcDbEntity
  8
0
  6
HIDS
 62
     5
100
AcDbLine
 10
1819.486854911263
 20
5459.386956917314
 30
0.0
 11
1819.486854911263
 21
4810.786956917314
 31
0.0
  0
LINE
  5
F8E
330
17
100
AcDbEntity
  8
0
  6
Continuous
 62
     7
100
AcDbLine
 10
2719.486854911263
 20
5459.386956917314
 30
0.0
 11
2719.486854911263
 21
4810.786956917314
 31
0.0
  0
INSERT
  5
F94
330
17
100
AcDbEntity
  8
0
  6
Continuous
 62
     7
100
AcDbBlockReference
  2
N1_07
 10
2692.286854911263
 20
5285.086956917314
 30
0.0
 50
90.0
  0
INSERT
  5
F95
330
17
100
AcDbEntity
  8
0
  6
Continuous
 62
     7
100
AcDbBlockReference
  2
N1_07
 10
2692.286854911263
 20
4985.086956917314
 30
0.0
 50
90.0
  0
INSERT
  5
F98
330
17
100
AcDbEntity
  8
0
  6
Continuous
 62
     7
100
AcDbBlockReference
  2
N1_07
 10
2746.686854911262
 20
4985.086956917314
 30
0.0
 41
-1.0
 50
270.0
  0
INSERT
  5
F99
330
17
100
AcDbEntity
  8
0
  6
Continuous
 62
     7
100
AcDbBlockReference
  2
N1_07
 10
2746.686854911262
 20
5285.086956917314
 30
0.0
 41
-1.0
 50
270.0
  0
LINE
  5
F9A
330
17
100
AcDbEntity
  8
0
  6
Continuous
 62
     7
100
AcDbLine
 10
2719.486854911263
 20
5459.386956917314
 30
0.0
 11
2719.486854911263
 21
4810.786956917314
 31
0.0
  0
LINE
  5
F9B
330
17
100
AcDbEntity
  8
0
  6
HIDS
 62
     5
100
AcDbLine
 10
3619.486854911263
 20
5459.386956917314
 30
0.0
 11
3619.486854911263
 21
4810.786956917314
 31
0.0
  0
LINE
  5
F9C
330
17
100
AcDbEntity
  8
0
  6
Continuous
 62
     7
100
AcDbLine
 10
3619.486854911263
 20
5459.386956917314
 30
0.0
 11
3619.486854911263
 21
5585.086956917314
 31
0.0
  0
LINE
  5
F9D
330
17
100
AcDbEntity
  8
0
  6
Continuous
 62
     2
100
AcDbLine
 10
2719.486854911263
 20
4910.086956917314
 30
0.0
 11
3838.786854911264
 21
4910.086956917314
 31
0.0
  0
LINE
  5
F9E
330
17
100
AcDbEntity
  8
0
  6
Continuous
 62
     2
100
AcDbLine
 10
2719.486854911263
 20
5060.086956917314
 30
0.0
 11
3838.786854911264
 21
5060.086956917314
 31
0.0
  0
LINE
  5
F9F
330
17
100
AcDbEntity
  8
0
  6
Continuous
 62
     2
100
AcDbLine
 10
2719.486854911263
 20
5210.086956917314
 30
0.0
 11
3838.786854911264
 21
5210.086956917314
 31
0.0
  0
LINE
  5
FA0
330
17
100
AcDbEntity
  8
0
  6
Continuous
 62
     2
100
AcDbLine
 10
2719.486854911263
 20
5360.086956917314
 30
0.0
 11
3838.786854911264
 21
5360.086956917314
 31
0.0
  0
LINE
  5
FA1
330
17
100
AcDbEntity
  8
0
  6
Continuous
 62
     2
100
AcDbLine
 10
2796.986854911263
 20
4859.386956917312
 30
0.0
 11
2796.986854911263
 21
5410.786956917314
 31
0.0
  0
LINE
  5
FA2
330
17
100
AcDbEntity
  8
0
  6
Continuous
 62
     2
100
AcDbLine
 10
2945.373860435285
 20
4859.386956917312
 30
0.0
 11
2945.373860435285
 21
5410.786956917314
 31
0.0
  0
LINE
  5
FA3
330
17
100
AcDbEntity
  8
0
  6
Continuous
 62
     2
100
AcDbLine
 10
3089.570272824151
 20
4859.386956917312
 30
0.0
 11
3089.570272824151
 21
5410.786956917314
 31
0.0
  0
LINE
  5
FA4
330
17
100
AcDbEntity
  8
0
  6
Continuous
 62
     2
100
AcDbLine
 10
3227.410329469801
 20
4859.386956917312
 30
0.0
 11
3227.410329469801
 21
5410.786956917314
 31
0.0
  0
LINE
  5
FA5
330
17
100
AcDbEntity
  8
0
  6
Continuous
 62
     2
100
AcDbLine
 10
3354.818320934528
 20
4859.386956917312
 30
0.0
 11
3354.818320934528
 21
5410.786956917314
 31
0.0
  0
LINE
  5
FA6
330
17
100
AcDbEntity
  8
0
  6
Continuous
 62
     2
100
AcDbLine
 10
3470.949148365475
 20
4859.386956917312
 30
0.0
 11
3470.949148365475
 21
5410.786956917314
 31
0.0
  0
LINE
  5
FA7
330
17
100
AcDbEntity
  8
0
  6
Continuous
 62
     2
100
AcDbLine
 10
3573.139055552091
 20
4859.386956917313
 30
0.0
 11
3573.139055552091
 21
5410.786956917314
 31
0.0
  0
LINE
  5
FA8
330
17
100
AcDbEntity
  8
0
  6
Continuous
 62
     2
100
AcDbLine
 10
3659.889912651505
 20
4859.386956917313
 30
0.0
 11
3659.889912651505
 21
5410.786956917314
 31
0.0
  0
LINE
  5
FA9
330
17
100
AcDbEntity
  8
0
  6
Continuous
 62
     2
100
AcDbLine
 10
3728.406712247911
 20
4859.386956917313
 30
0.0
 11
3728.406712247911
 21
5410.786956917314
 31
0.0
  0
LINE
  5
FAA
330
17
100
AcDbEntity
  8
0
  6
Continuous
 62
     2
100
AcDbLine
 10
3778.603979213448
 20
4859.386956917313
 30
0.0
 11
3778.603979213448
 21
5410.786956917314
 31
0.0
  0
LINE
  5
FAB
330
17
100
AcDbEntity
  8
0
  6
Continuous
 62
     2
100
AcDbLine
 10
3809.152798761302
 20
4859.386956917313
 30
0.0
 11
3809.152798761302
 21
5410.786956917314
 31
0.0
  0
LINE
  5
FAC
330
17
100
AcDbEntity
  8
0
  6
Continuous
 62
     2
100
AcDbLine
 10
3838.786854911264
 20
5420.322133857082
 30
0.0
 11
3838.786854911264
 21
4849.851779977545
 31
0.0
  0
LINE
  5
FAD
330
17
100
AcDbEntity
  8
0
  6
Continuous
 62
     7
100
AcDbLine
 10
3789.486854911263
 20
5465.086956917314
 30
0.0
 11
3619.486854911263
 21
5585.086956917314
 31
0.0
  0
LINE
  5
FAE
330
17
100
AcDbEntity
  8
0
  6
Continuous
 62
     7
100
AcDbLine
 10
3849.486854911263
 20
5465.086956917314
 30
0.0
 11
3789.486854911263
 21
5465.086956917314
 31
0.0
  0
LINE
  5
FAF
330
17
100
AcDbEntity
  8
0
  6
Continuous
 62
     7
100
AcDbLine
 10
4019.486854911263
 20
5585.086956917314
 30
0.0
 11
3849.486854911263
 21
5465.086956917314
 31
0.0
  0
LINE
  5
FB0
330
17
100
AcDbEntity
  8
0
  6
Continuous
 62
     7
100
AcDbLine
 10
3849.486854911263
 20
4805.086956917314
 30
0.0
 11
3849.486854911263
 21
5465.086956917314
 31
0.0
  0
LINE
  5
FB1
330
17
100
AcDbEntity
  8
0
  6
Continuous
 62
     7
100
AcDbLine
 10
3849.486854911263
 20
4805.086956917314
 30
0.0
 11
3789.486854911263
 21
4805.086956917314
 31
0.0
  0
LINE
  5
FB2
330
17
100
AcDbEntity
  8
0
  6
Continuous
 62
     7
100
AcDbLine
 10
3789.486854911263
 20
4805.086956917314
 30
0.0
 11
3619.486854911263
 21
4685.086956917314
 31
0.0
  0
LINE
  5
FB3
330
17
100
AcDbEntity
  8
0
  6
Continuous
 62
     7
100
AcDbLine
 10
3849.486854911263
 20
4805.086956917314
 30
0.0
 11
4019.486854911263
 21
4685.086956917314
 31
0.0
  0
LINE
  5
FB4
330
17
100
AcDbEntity
  8
0
  6
Continuous
 62
     7
100
AcDbLine
 10
3619.486854911263
 20
5585.086956917314
 30
0.0
 11
4019.486854911263
 21
5585.086956917314
 31
0.0
  0
LINE
  5
FB5
330
17
100
AcDbEntity
  8
0
  6
Continuous
 62
     7
100
AcDbLine
 10
3619.486854911263
 20
4685.086956917314
 30
0.0
 11
3619.486854911263
 21
4810.786956917314
 31
0.0
  0
LINE
  5
FB6
330
17
100
AcDbEntity
  8
0
  6
Continuous
 62
     7
100
AcDbLine
 10
4019.486854911263
 20
4685.086956917314
 30
0.0
 11
3619.486854911263
 21
4685.086956917314
 31
0.0
  0
LINE
  5
FB7
330
17
100
AcDbEntity
  8
0
  6
Continuous
 62
     7
100
AcDbLine
 10
4019.486854911263
 20
5585.086956917314
 30
0.0
 11
4019.486854911263
 21
4685.086956917314
 31
0.0
  0
LINE
  5
FB8
330
17
100
AcDbEntity
  8
0
  6
Continuous
 62
     7
100
AcDbLine
 10
3276.537438887837
 20
4859.386956917314
 30
0.0
 11
3276.537438887837
 21
5410.786956917314
 31
0.0
  0
LINE
  5
FB9
330
17
100
AcDbEntity
  8
0
  6
Continuous
 62
     7
100
AcDbLine
 10
3303.737438887837
 20
5410.786956917314
 30
0.0
 11
3303.737438887837
 21
4859.386956917314
 31
0.0
  0
LINE
  5
FBA
330
17
100
AcDbEntity
  8
0
  6
Continuous
 62
     7
100
AcDbLine
 10
3681.598771407305
 20
4859.386956917314
 30
0.0
 11
3681.598771407305
 21
5410.786956917314
 31
0.0
  0
LINE
  5
FBB
330
17
100
AcDbEntity
  8
0
  6
Continuous
 62
     7
100
AcDbLine
 10
3708.798771407305
 20
5410.786956917314
 30
0.0
 11
3708.798771407305
 21
4859.386956917314
 31
0.0
  0
LINE
  5
FBC
330
17
100
AcDbEntity
  8
0
  6
Continuous
 62
     7
100
AcDbLine
 10
2746.686854911262
 20
5410.786956917314
 30
0.0
 11
2746.686854911262
 21
4859.386956917314
 31
0.0
  0
LINE
  5
FBD
330
17
100
AcDbEntity
  8
0
  6
Continuous
 62
     7
100
AcDbLine
 10
3805.886854911263
 20
4859.386956917314
 30
0.0
 11
3805.886854911263
 21
5410.786956917314
 31
0.0
  0
LINE
  5
FBE
330
17
100
AcDbEntity
  8
0
  6
Continuous
 62
     7
100
AcDbLine
 10
3833.086854911262
 20
5414.949181469166
 30
0.0
 11
3833.086854911262
 21
4855.224732365461
 31
0.0
  0
LINE
  5
FBF
330
17
100
AcDbEntity
  8
0
  6
Continuous
 62
     7
100
AcDbLine
 10
3819.486854911263
 20
4810.786956917314
 30
0.0
 11
2719.486854911263
 21
4810.786956917314
 31
0.0
  0
LINE
  5
FC0
330
17
100
AcDbEntity
  8
0
  6
Continuous
 62
     7
100
AcDbLine
 10
3819.486854911263
 20
4859.386956917314
 30
0.0
 11
2719.486854911263
 21
4859.386956917314
 31
0.0
  0
LINE
  5
FC1
330
17
100
AcDbEntity
  8
0
  6
Continuous
 62
     7
100
AcDbLine
 10
3819.486854911263
 20
5410.786956917314
 30
0.0
 11
2719.486854911263
 21
5410.786956917314
 31
0.0
  0
LINE
  5
FC2
330
17
100
AcDbEntity
  8
0
  6
Continuous
 62
     7
100
AcDbLine
 10
3819.486854911263
 20
5459.386956917314
 30
0.0
 11
2719.486854911263
 21
5459.386956917314
 31
0.0
  0
ARC
  5
FC3
330
17
100
AcDbEntity
  8
0
  6
Continuous
 62
     7
100
AcDbCircle
 10
3819.486854911263
 20
4835.086956917314
 30
0.0
 40
24.3
100
AcDbArc
 50
270.0
 51
90.0
  0
ARC
  5
FC4
330
17
100
AcDbEntity
  8
0
  6
Continuous
 62
     7
100
AcDbCircle
 10
3819.486854911263
 20
5435.086956917314
 30
0.0
 40
24.3
100
AcDbArc
 50
270.0
 51
90.0
  0
DIMENSION
  5
1009
330
17
100
AcDbEntity
  8
0
  6
DIMENSION
 62
     7
100
AcDbDimension
  2
*D17
 10
5551.82571335404
 20
918.5523989860576
 30
0.0
 11
6001.82571335404
 21
918.5523989860576
 31
0.0
 70
   160
  1
<>
 71
     5
 42
900.0
  3
ASKSTANDARD
100
AcDbAlignedDimension
 13
6451.82571335404
 23
1026.879510394784
 33
0.0
 14
5551.82571335404
 24
1026.879510394784
 34
0.0
100
AcDbRotatedDimension
1001
ACAD
1000
DSTYLE
1002
{
1070
     3
1000
<>
1070
    41
1040
2.0
1070
    77
1070
     3
1070
    78
1070
     8
1070
   173
1070
     0
1070
   279
1070
     0
1070
   341
1005
0
1070
   342
1005
0
1070
   343
1005
0
1002
}
  0
DIMENSION
  5
1020
330
17
100
AcDbEntity
  8
0
  6
DIMENSION
 62
     7
100
AcDbDimension
  2
*D18
 10
6501.82571335404
 20
853.7393114174683
 30
0.0
 11
6001.82571335404
 21
853.7393114174683
 31
0.0
 70
   160
  1
<>
 71
     5
 42
1000.0
  3
ASKSTANDARD
100
AcDbAlignedDimension
 13
5501.82571335404
 23
1026.879510394784
 33
0.0
 14
6501.82571335404
 24
1026.879510394784
 34
0.0
100
AcDbRotatedDimension
1001
ACAD
1000
DSTYLE
1002
{
1070
     3
1000
<>
1070
    41
1040
2.0
1070
    77
1070
     3
1070
    78
1070
     8
1070
   173
1070
     0
1070
   279
1070
     0
1070
   341
1005
0
1070
   342
1005
0
1070
   343
1005
0
1002
}
  0
DIMENSION
  5
103D
330
17
100
AcDbEntity
  8
0
  6
DIMENSION
 62
     7
100
AcDbDimension
  2
*D19
 10
4019.486854911263
 20
918.5523989860576
 30
0.0
 11
3823.956737992143
 21
918.5523989860576
 31
0.0
 70
   160
  1
<>
 71
     5
 42
400.0
  3
ASKSTANDARD
100
AcDbAlignedDimension
 13
3619.486854911263
 23
1026.879510394784
 33
0.0
 14
4019.486854911263
 24
1026.879510394784
 34
0.0
100
AcDbRotatedDimension
1001
ACAD
1000
DSTYLE
1002
{
1070
     3
1000
<>
1070
    41
1040
2.0
1070
    77
1070
     3
1070
    78
1070
     8
1070
   173
1070
     0
1070
   279
1070
     0
1070
   341
1005
0
1070
   342
1005
0
1070
   343
1005
0
1002
}
  0
DIMENSION
  5
1054
330
17
100
AcDbEntity
  8
0
  6
DIMENSION
 62
     7
100
AcDbDimension
  2
*D20
 10
4069.486854911263
 20
853.7393114174683
 30
0.0
 11
3823.956737992143
 21
853.7393114174683
 31
0.0
 70
   160
  1
<>
 71
     5
 42
500.0
  3
ASKSTANDARD
100
AcDbAlignedDimension
 13
3569.486854911263
 23
1026.879510394784
 33
0.0
 14
4069.486854911263
 24
1026.879510394784
 34
0.0
100
AcDbRotatedDimension
1001
ACAD
1000
DSTYLE
1002
{
1070
     3
1000
<>
1070
    41
1040
2.0
1070
    77
1070
     3
1070
    78
1070
     8
1070
   173
1070
     0
1070
   279
1070
     0
1070
   341
1005
0
1070
   342
1005
0
1070
   343
1005
0
1002
}
  0
DIMENSION
  5
10E0
330
17
100
AcDbEntity
  8
0
  6
DIMENSION
 62
     7
100
AcDbDimension
  2
*D21
 10
3819.486854911263
 20
4437.942577908421
 30
0.0
 11
2719.486854911263
 21
4459.742577908421
 31
0.0
 70
    32
  1
<>
 71
     5
 42
2200.0
  3
ASKSTANDARD
100
AcDbAlignedDimension
 13
1619.486854911263
 23
3126.879510394784
 33
0.0
 14
3819.486854911263
 24
3126.879510394784
 34
0.0
100
AcDbRotatedDimension
1001
ACAD
1000
DSTYLE
1002
{
1070
     3
1000
<>
1070
    41
1040
2.0
1070
    77
1070
     3
1070
    78
1070
     8
1070
   173
1070
     0
1070
   279
1070
     2
1070
   341
1005
0
1070
   342
1005
0
1070
   343
1005
0
1002
}
  0
TEXT
  5
10F7
330
17
100
AcDbEntity
  8
TEXT_0
  6
Continuous
 62
     7
100
AcDbText
 10
2382.697955804949
 20
4603.775638391628
 30
0.0
 40
64.0
  1
平面図　Ｓ＝１：２０
  7
STYLE1
100
AcDbText
  0
LINE
  5
10F8
330
17
100
AcDbEntity
  8
0
  6
Continuous
 62
     7
100
AcDbLine
 10
2373.239357078834
 20
4575.399842213285
 30
0.0
 11
3109.139951387628
 21
4575.399842213285
 31
0.0
  0
DIMENSION
  5
10FB
330
17
100
AcDbEntity
  8
0
  6
DIMENSION
 62
     7
100
AcDbDimension
  2
*D22
 10
1234.348393258671
 20
4685.086956917314
 30
0.0
 11
1212.548393258671
 21
5135.086956917314
 31
0.0
 70
    32
  1
<>
 71
     5
 42
900.0
  3
ASKSTANDARD
100
AcDbAlignedDimension
 13
1419.486854911263
 23
5585.086956917314
 33
0.0
 14
1419.486854911263
 24
4685.086956917314
 34
0.0
 50
90.0
100
AcDbRotatedDimension
1001
ACAD
1000
DSTYLE
1002
{
1070
     3
1000
<>
1070
    41
1040
2.0
1070
    77
1070
     3
1070
    78
1070
     8
1070
   173
1070
     0
1070
   279
1070
     2
1070
   341
1005
0
1070
   342
1005
0
1070
   343
1005
0
1002
}
  0
DIMENSION
  5
1112
330
17
100
AcDbEntity
  8
0
  6
DIMENSION
 62
     7
100
AcDbDimension
  2
*D23
 10
1328.625601783267
 20
4835.086956917314
 30
0.0
 11
1306.825601783267
 21
5135.086956917314
 31
0.0
 70
    32
  1
<>
 71
     5
 42
600.0
  3
ASKSTANDARD
100
AcDbAlignedDimension
 13
1619.486854911263
 23
5435.086956917314
 33
0.0
 14
1619.486854911263
 24
4835.086956917314
 34
0.0
 50
90.0
100
AcDbRotatedDimension
1001
ACAD
1000
DSTYLE
1002
{
1070
     3
1000
<>
1070
    41
1040
2.0
1070
    77
1070
     3
1070
    78
1070
     8
1070
   173
1070
     0
1070
   279
1070
     2
1070
   341
1005
0
1070
   342
1005
0
1070
   343
1005
0
1002
}
  0
DIMENSION
  5
1129
330
17
100
AcDbEntity
  8
0
  6
DIMENSION
 62
     7
100
AcDbDimension
  2
*D24
 10
3819.486854911263
 20
5664.577211653033
 30
0.0
 11
2719.486854911263
 21
5686.377211653034
 31
0.0
 70
    32
  1
<>
 71
     5
 42
2200.0
  3
ASKSTANDARD
100
AcDbAlignedDimension
 13
1619.486854911263
 23
5435.086956917314
 33
0.0
 14
3819.486854911263
 24
5435.086956917314
 34
0.0
100
AcDbRotatedDimension
1001
ACAD
1000
DSTYLE
1002
{
1070
     3
1000
<>
1070
    41
1040
2.0
1070
    77
1070
     3
1070
    78
1070
     8
1070
   173
1070
     0
1070
   279
1070
     2
1070
   341
1005
0
1070
   342
1005
0
1070
   343
1005
0
1002
}
  0
DIMENSION
  5
1140
330
17
100
AcDbEntity
  8
0
  6
DIMENSION
 62
     7
100
AcDbDimension
  2
*D25
 10
1819.486854911263
 20
4595.504336388442
 30
0.0
 11
1619.486854911263
 21
4617.304336388442
 31
0.0
 70
    32
  1
<>
 71
     5
 42
400.0
  3
ASKSTANDARD
100
AcDbAlignedDimension
 13
1419.486854911263
 23
4685.086956917314
 33
0.0
 14
1819.486854911263
 24
4685.086956917314
 34
0.0
100
AcDbRotatedDimension
1001
ACAD
1000
DSTYLE
1002
{
1070
     3
1000
<>
1070
    41
1040
2.0
1070
    77
1070
     3
1070
    78
1070
     8
1070
   173
1070
     0
1070
   279
1070
     2
1070
   341
1005
0
1070
   342
1005
0
1070
   343
1005
0
1002
}
  0
TEXT
  5
117C
330
17
100
AcDbEntity
  8
TEXT_0
  6
Continuous
 62
     7
100
AcDbText
 10
386.9135911350654
 20
165.4912182290705
 30
0.0
 40
56.0
  1
・本製品は、(一社)日本公園施設業協会(ＪＰＦＡ)が定める賠償責任保険加入製品とする。
  7
STYLE1
100
AcDbText
  0
HATCH
  5
1250
330
17
100
AcDbEntity
  8
0
  6
Continuous
 62
     3
100
AcDbHatch
 10
0.0
 20
0.0
 30
0.0
210
0.0
220
0.0
230
1.0
  2
BRICK
 70
     0
 71
     0
 91
        1
 92
        7
 72
     0
 73
     1
 93
        4
 10
4069.486854911263
 20
1126.879510394784
 10
3569.486854911263
 20
1126.879510394784
 10
3569.486854911263
 20
1026.879510394784
 10
4069.486854911263
 20
1026.879510394784
 97
        0
 75
     0
 76
     1
 52
45.0
 41
200.0
 77
     0
 78
     3
 53
45.0
 43
3569.486854911263
 44
1026.879510394784
 45
-35.35533905932737
 46
35.35533905932738
 79
     0
 53
135.0
 43
3569.486854911263
 44
1026.879510394784
 45
-70.71067811865476
 46
-70.71067811865474
 79
     2
 49
50.0
 49
-50.0
 53
135.0
 43
3604.84219397059
 44
1062.234849454112
 45
-70.71067811865476
 46
-70.71067811865474
 79
     2
 49
-50.0
 49
50.0
 47
6.730290219479111
 98
        1
 10
3890.271341166728
 20
1065.327871752083
1001
ACAD
1010
3569.486854911263
1020
1026.879510394784
1030
0.0
  0
HATCH
  5
12CE
330
17
100
AcDbEntity
  8
0
  6
Continuous
 62
     3
100
AcDbHatch
 10
0.0
 20
0.0
 30
0.0
210
0.0
220
0.0
230
1.0
  2
BRICK
 70
     0
 71
     0
 91
        1
 92
        7
 72
     0
 73
     1
 93
        4
 10
6501.825713354039
 20
1126.879510394784
 10
5501.825713354041
 20
1126.879510394784
 10
5501.82571335404
 20
1026.879510394784
 10
6501.825713354041
 20
1026.879510394784
 97
        0
 75
     0
 76
     1
 52
45.0
 41
200.0
 77
     0
 78
     3
 53
45.0
 43
5501.82571335404
 44
1026.879510394784
 45
-35.35533905932737
 46
35.35533905932738
 79
     0
 53
135.0
 43
5501.82571335404
 44
1026.879510394784
 45
-70.71067811865476
 46
-70.71067811865474
 79
     2
 49
50.0
 49
-50.0
 53
135.0
 43
5537.181052413367
 44
1062.234849454112
 45
-70.71067811865476
 46
-70.71067811865474
 79
     2
 49
-50.0
 49
50.0
 47
6.730290219479111
 98
        1
 10
5916.974189081677
 20
1065.327871752083
1001
ACAD
1010
5501.82571335404
1020
1026.879510394784
1030
0.0
  0
HATCH
  5
134F
330
17
100
AcDbEntity
  8
0
  6
Continuous
 62
     3
100
AcDbHatch
 10
0.0
 20
0.0
 30
0.0
210
0.0
220
0.0
230
1.0
  2
PLAST
 70
     0
 71
     0
 91
        2
 92
        7
 72
     0
 73
     1
 93
        4
 10
3795.186854911264
 20
1656.879510394784
 10
3619.486854911262
 20
1626.879510394784
 10
3619.486854911263
 20
1126.879510394784
 10
3795.186854911263
 20
1126.879510394784
 97
        0
 92
        7
 72
     0
 73
     1
 93
        4
 10
4019.486854911263
 20
1626.879510394784
 10
3843.786854911263
 20
1656.879510394784
 10
3843.786854911264
 20
1126.879510394784
 10
4019.486854911263
 20
1126.879510394784
 97
        0
 75
     0
 76
     1
 52
45.0
 41
1000.0
 77
     0
 78
     3
 53
45.0
 43
3619.486854911262
 44
1126.879510394784
 45
-176.7766952966369
 46
176.7766952966369
 79
     0
 53
45.0
 43
3597.389767999182
 44
1148.976597306864
 45
-176.7766952966369
 46
176.7766952966369
 79
     0
 53
45.0
 43
3575.292681087103
 44
1171.073684218943
 45
-176.7766952966369
 46
176.7766952966369
 79
     0
 47
6.730290219479111
 98
        2
 10
3755.606701213015
 20
1294.157744663131
 10
3944.137202259477
 20
1442.224126553929
1001
ACAD
1010
3619.486854911262
1020
1126.879510394784
1030
0.0
  0
HATCH
  5
13E0
330
17
100
AcDbEntity
  8
0
  6
Continuous
 62
     3
100
AcDbHatch
 10
0.0
 20
0.0
 30
0.0
210
0.0
220
0.0
230
1.0
  2
PLAST
 70
     0
 71
     0
 91
        4
 92
        7
 72
     0
 73
     1
 93
        8
 10
5677.52571335404
 20
1656.879510394784
 10
5551.825713354039
 20
1626.879510394784
 10
5551.82571335404
 20
1126.879510394784
 10
5677.525713354041
 20
1126.879510394784
 10
5677.525713354041
 20
1220.379510394784
 10
5601.82571335404
 20
1220.379510394784
 10
5601.82571335404
 20
1233.379510394784
 10
5677.525713354042
 20
1233.379510394784
 97
        0
 92
        7
 72
     0
 73
     1
 93
        4
 10
6277.525713354043
 20
1656.879510394784
 10
5726.125713354039
 20
1656.879510394784
 10
5726.125713354039
 20
1233.379510394784
 10
6277.525713354041
 20
1233.379510394784
 97
        0
 92
        7
 72
     0
 73
     1
 93
        8
 10
6451.825713354039
 20
1626.879510394785
 10
6326.125713354039
 20
1656.879510394785
 10
6326.125713354039
 20
1233.379510394784
 10
6401.825713354041
 20
1233.379510394784
 10
6401.82571335404
 20
1220.379510394784
 10
6326.125713354039
 20
1220.379510394784
 10
6326.125713354038
 20
1126.879510394784
 10
6451.825713354041
 20
1126.879510394785
 97
        0
 92
        7
 72
     0
 73
     1
 93
        4
 10
6277.525713354041
 20
1220.379510394784
 10
5726.125713354038
 20
1220.379510394784
 10
5726.125713354041
 20
1126.879510394784
 10
6277.525713354041
 20
1126.879510394784
 97
        0
 75
     0
 76
     1
 52
45.0
 41
1000.0
 77
     0
 78
     3
 53
45.0
 43
5551.825713354039
 44
1126.879510394784
 45
-176.7766952966369
 46
176.7766952966369
 79
     0
 53
45.0
 43
5529.72862644196
 44
1148.976597306864
 45
-176.7766952966369
 46
176.7766952966369
 79
     0
 53
45.0
 43
5507.63153952988
 44
1171.073684218943
 45
-176.7766952966369
 46
176.7766952966369
 79
     0
 47
6.730290219479111
 98
        4
 10
5613.978742796749
 20
1428.763542101078
 10
5883.308022704168
 20
1435.493834327503
 10
6428.699831128306
 20
1374.921219986529
 10
6112.237913181107
 20
1152.821639301907
1001
ACAD
1010
5551.825713354039
1020
1126.879510394784
1030
0.0
  0
TEXT
  5
15D3
330
17
100
AcDbEntity
  8
3
  6
Continuous
 62
     7
100
AcDbText
 10
387.5990942257486
 20
378.5384320016494
 30
0.0
 40
60.0
  1
・基礎図は参考図とする。
  7
STYLE1
100
AcDbText
  0
TEXT
  5
1635
330
17
100
AcDbEntity
  8
3
  6
Continuous
 62
     7
100
AcDbText
 10
389.3806764076256
 20
582.0036723048037
 30
0.0
 40
59.994
  1
・鋼材は亜鉛メッキ（電気又は溶融）とし、環境対応型焼付塗装仕上げとする。
  7
STYLE1
100
AcDbText
  0
ENDSEC
  0
SECTION
  2
OBJECTS
  0
DICTIONARY
  5
C
330
0
100
AcDbDictionary
281
     1
  3
ACAD_DETAILVIEWSTYLE
350
17AD
  3
ACAD_GROUP
350
D
  3
ACAD_LAYOUT
350
36B
  3
ACAD_MLINESTYLE
350
1A
  3
ACAD_PLOTSETTINGS
350
36C
  3
ACAD_PLOTSTYLENAME
350
369
  3
ACAD_SCALELIST
350
1479
  3
ACAD_SECTIONVIEWSTYLE
350
17AE
  3
AcAmCatalogState
350
EA3
  3
AcAsAppObject
350
E32
  3
ACASGREF_MASTER
350
E69
  3
ACDBVARIABLEDICTIONARY
350
337
  3
ACDMSYSVARMGR
350
E0C
  3
ACGREF_MASTER
350
E06
  3
ACGREFACAD_MASTER
350
E2F
  3
AcmDictionary
350
E99
  3
ACME_BOM_MANAGER_NAME
350
DFF
  3
ACME_COMMAND_HISTORY
350
DF9
  3
ACME_SCOPE_NAME
350
DF8
  3
ACMESTATEMGR
350
E04
  3
AcmeSysVarManager
350
DFB
  3
AD_APPL
350
E7F
  3
AD_GREF_MODULE
350
E67
  3
AD_HOLENOTE_REPOSITORY
350
E81
  3
AD_MAPI_MODULE
350
E98
  3
ADSYSVARMGR
350
E71
  3
AEC_PROPERTY_SET_DEFS
350
156C
  3
AmdtNamedDwgMgr
350
E2A
  3
AMG
350
DF0
  3
AMGSNAPSETTINGS
350
EB3
  3
AMI_MASTER
350
E68
  3
APPDATA
350
17A8
  3
ASE_INDEX_DICTIONARY
350
DBF
  3
ASKSYSVAR
350
3AE
  3
ASURF_STATIC_VARS
350
E33
  3
AUTOCAD_ASSEMBLIES_PROJECT
350
E8D
  3
AutoSurf_SysVars
350
E34
  3
Designer_Assemblies_SysVars
350
E84
  3
DWGPROPS
350
17AF
  3
GREFAM_MODULE
350
E6A
  0
DICTIONARY
  5
1173
330
2
100
AcDbDictionary
280
     1
281
     1
  3
ACAD_LAYERSTATES
360
1174
  0
DICTIONARY
  5
1498
330
E
100
AcDbDictionary
280
     1
281
     1
  3
ADSK_XREC_LAYER_RECONCILED
360
1499
  0
DICTIONARY
  5
149A
330
30
100
AcDbDictionary
280
     1
281
     1
  3
ADSK_XREC_LAYER_RECONCILED
360
149B
  0
DICTIONARY
  5
149C
330
31
100
AcDbDictionary
280
     1
281
     1
  3
ADSK_XREC_LAYER_RECONCILED
360
149D
  0
DICTIONARY
  5
149E
330
32
100
AcDbDictionary
280
     1
281
     1
  3
ADSK_XREC_LAYER_RECONCILED
360
149F
  0
DICTIONARY
  5
14A0
330
34
100
AcDbDictionary
280
     1
281
     1
  3
ADSK_XREC_LAYER_RECONCILED
360
14A1
  0
DICTIONARY
  5
14A2
330
35
100
AcDbDictionary
280
     1
281
     1
  3
ADSK_XREC_LAYER_RECONCILED
360
14A3
  0
DICTIONARY
  5
14A4
330
33A
100
AcDbDictionary
280
     1
281
     1
  3
ADSK_XREC_LAYER_RECONCILED
360
14A5
  0
DICTIONARY
  5
14A6
330
835
100
AcDbDictionary
280
     1
281
     1
  3
ADSK_XREC_LAYER_RECONCILED
360
14A7
  0
DICTIONARY
  5
14A8
330
836
100
AcDbDictionary
280
     1
281
     1
  3
ADSK_XREC_LAYER_RECONCILED
360
14A9
  0
DICTIONARY
  5
14AA
330
83E
100
AcDbDictionary
280
     1
281
     1
  3
ADSK_XREC_LAYER_RECONCILED
360
14AB
  0
DICTIONARY
  5
1157
330
17
100
AcDbDictionary
280
     1
281
     1
  3
ACAD_INDEX
360
16EC
  3
ACAD_SORTENTS
360
1251
  0
DICTIONARY
  5
17AD
102
{ACAD_REACTORS
330
C
102
}
330
C
100
AcDbDictionary
281
     1
  0
DICTIONARY
  5
D
102
{ACAD_REACTORS
330
C
102
}
330
C
100
AcDbDictionary
281
     1
  0
DICTIONARY
  5
36B
102
{ACAD_REACTORS
330
C
102
}
330
C
100
AcDbDictionary
281
     1
  3
Model
350
36D
  3
ﾚｲｱｳﾄ1
350
36E
  0
DICTIONARY
  5
1A
102
{ACAD_REACTORS
330
C
102
}
330
C
100
AcDbDictionary
281
     1
  3
STANDARD
350
1B
  0
DICTIONARY
  5
36C
102
{ACAD_REACTORS
330
C
102
}
330
C
100
AcDbDictionary
281
     1
  3
DJ750C(A1)カラー
350
84D
  3
DJ750C(A1)モノクロ
350
84E
  3
DJ750C(A2)カラー
350
84F
  3
DJ750C(A2)モノクロ
350
850
  3
LP8200(A3)
350
851
  3
NEC(A3)
350
852
  3
NEC(A4)
350
853
  0
ACDBDICTIONARYWDFLT
  5
369
102
{ACAD_REACTORS
330
C
102
}
330
C
100
AcDbDictionary
281
     1
  3
Normal
350
36A
100
AcDbDictionaryWithDefault
340
36A
  0
DICTIONARY
  5
1479
102
{ACAD_REACTORS
330
C
102
}
330
C
100
AcDbDictionary
281
     1
  3
A0
350
147A
  3
A1
350
147B
  3
A2
350
147C
  3
A3
350
147D
  3
A4
350
147E
  3
A5
350
147F
  3
A6
350
1480
  3
A7
350
1481
  3
A8
350
1482
  3
A9
350
1483
  3
B0
350
1484
  3
B1
350
1485
  3
B2
350
1486
  3
B3
350
1487
  3
B4
350
1488
  3
B5
350
1489
  3
B6
350
148A
  0
DICTIONARY
  5
17AE
102
{ACAD_REACTORS
330
C
102
}
330
C
100
AcDbDictionary
281
     1
  0
ACAD_PROXY_OBJECT
  5
EA3
102
{ACAD_REACTORS
330
C
102
}
330
C
100
AcDbProxyObject
 90
      499
 91
      562
 95
   983063
 70
     0
 93
      520
310
3FFFFFFFE00A02844029A221D2E456DC729485DC6F647C54AABC7C0483ECB6547ABAE1819467B44C0473DC86EAE181A41B3C1C641C541AC2E4131C13B4133400AA
1001
ACAD
1000
AcRTDxfName
1000
CATALOGSTATE
1000
AcRTDxfName
1000
CATALOGSTATE
1000
AcRTDxfName
1000
CATALOGSTATE
1000
AcRTDxfName
1000
CATALOGSTATE
1000
AcRTDxfName
1000
CATALOGSTATE
1000
AcRTDxfName
1000
CATALOGSTATE
1000
AcRTDxfName
1000
CATALOGSTATE
1000
AcRTDxfName
1000
CATALOGSTATE
1000
AcRTDxfName
1000
CATALOGSTATE
1000
AcRTDxfName
1000
CATALOGSTATE
  0
ACAD_PROXY_OBJECT
  5
E32
102
{ACAD_REACTORS
330
C
102
}
330
C
100
AcDbProxyObject
 90
      499
 91
      529
 95
   983063
 70
     0
 93
       10
310
4040
1001
ACAD
1000
AcRTDxfName
1000
ASAPP
1000
AcRTDxfName
1000
ASAPP
1000
AcRTDxfName
1000
ASAPP
1000
AcRTDxfName
1000
ASAPP
1000
AcRTDxfName
1000
ASAPP
1000
AcRTDxfName
1000
ASAPP
1000
AcRTDxfName
1000
ASAPP
1000
AcRTDxfName
1000
ASAPP
1000
AcRTDxfName
1000
ASAPP
1000
AcRTDxfName
1000
ASAPP
  0
ACAD_PROXY_OBJECT
  5
E69
102
{ACAD_REACTORS
330
C
102
}
330
C
100
AcDbProxyObject
 90
      499
 91
      537
 95
   983063
 70
     0
 93
       34
310
0100004040
1001
ACAD
1000
AcRTDxfName
1000
ACASGREFMASTER
1000
AcRTDxfName
1000
ACASGREFMASTER
1000
AcRTDxfName
1000
ACASGREFMASTER
1000
AcRTDxfName
1000
ACASGREFMASTER
1000
AcRTDxfName
1000
ACASGREFMASTER
1000
AcRTDxfName
1000
ACASGREFMASTER
1000
AcRTDxfName
1000
ACASGREFMASTER
1000
AcRTDxfName
1000
ACASGREFMASTER
1000
AcRTDxfName
1000
ACASGREFMASTER
1000
AcRTDxfName
1000
ACASGREFMASTER
  0
DICTIONARY
  5
337
102
{ACAD_REACTORS
330
C
102
}
330
C
100
AcDbDictionary
281
     1
  3
DIMASSOC
350
13F7
  3
INDEXCTL
350
DFA
  3
PROJECTNAME
350
13F8
  3
SORTENTS
350
338
  0
ACAD_PROXY_OBJECT
  5
E0C
102
{ACAD_REACTORS
330
C
102
}
330
C
100
AcDbProxyObject
 90
      499
 91
      509
 95
   983063
 70
     0
 93
      240
310
4C51A4820000000000000000000000000000000000000000000000000000
330
E0D
330
E0E
330
E0F
330
E10
330
E11
330
E12
330
E13
330
E14
330
E18
330
E19
330
E1A
330
E1B
330
E1C
330
E1D
330
E1E
330
E1F
330
E20
330
E21
330
E22
330
E23
330
E24
330
E25
330
E26
330
E27
330
E28
330
E29
 94
        0
1001
ACAD
1000
AcRTDxfName
1000
ACIMSYSVARMAN
1000
AcRTDxfName
1000
ACIMSYSVARMAN
1000
AcRTDxfName
1000
ACIMSYSVARMAN
1000
AcRTDxfName
1000
ACIMSYSVARMAN
1000
AcRTDxfName
1000
ACIMSYSVARMAN
1000
AcRTDxfName
1000
ACIMSYSVARMAN
1000
AcRTDxfName
1000
ACIMSYSVARMAN
1000
AcRTDxfName
1000
ACIMSYSVARMAN
1000
AcRTDxfName
1000
ACIMSYSVARMAN
1000
AcRTDxfName
1000
ACIMSYSVARMAN
  0
ACAD_PROXY_OBJECT
  5
E06
102
{ACAD_REACTORS
330
C
102
}
330
C
100
AcDbProxyObject
 90
      499
 91
      526
 95
   983063
 70
     0
 93
       34
310
0400004280
1001
ACAD
1000
AcRTDxfName
1000
ACGREFMASTER
1000
AcRTDxfName
1000
ACGREFMASTER
1000
AcRTDxfName
1000
ACGREFMASTER
1000
AcRTDxfName
1000
ACGREFMASTER
1000
AcRTDxfName
1000
ACGREFMASTER
1000
AcRTDxfName
1000
ACGREFMASTER
1000
AcRTDxfName
1000
ACGREFMASTER
1000
AcRTDxfName
1000
ACGREFMASTER
1000
AcRTDxfName
1000
ACGREFMASTER
1000
AcRTDxfName
1000
ACGREFMASTER
  0
ACAD_PROXY_OBJECT
  5
E2F
102
{ACAD_REACTORS
330
C
102
}
330
C
100
AcDbProxyObject
 90
      499
 91
      526
 95
   983063
 70
     0
 93
      114
310
04000041C000000000000000000000
1001
ACAD
1000
AcRTDxfName
1000
ACGREFMASTER
1000
AcRTDxfName
1000
ACGREFMASTER
1000
AcRTDxfName
1000
ACGREFMASTER
1000
AcRTDxfName
1000
ACGREFMASTER
1000
AcRTDxfName
1000
ACGREFMASTER
1000
AcRTDxfName
1000
ACGREFMASTER
1000
AcRTDxfName
1000
ACGREFMASTER
1000
AcRTDxfName
1000
ACGREFMASTER
1000
AcRTDxfName
1000
ACGREFMASTER
1000
AcRTDxfName
1000
ACGREFMASTER
  0
DICTIONARY
  5
E99
102
{ACAD_REACTORS
330
C
102
}
330
C
100
AcDbDictionary
281
     1
  3
AcmBOMDATA
350
E9A
  0
ACAD_PROXY_OBJECT
  5
DFF
102
{ACAD_REACTORS
330
C
102
}
330
C
100
AcDbProxyObject
 90
      499
 91
      512
 95
   983063
 70
     0
 93
       52
310
00000040400060
330
0
330
0
330
E00
 94
        0
1001
ACAD
1000
AcRTDxfName
1000
ACMEDRAWINGMAN
1000
AcRTDxfName
1000
ACMEDRAWINGMAN
1000
AcRTDxfName
1000
ACMEDRAWINGMAN
1000
AcRTDxfName
1000
ACMEDRAWINGMAN
1000
AcRTDxfName
1000
ACMEDRAWINGMAN
1000
AcRTDxfName
1000
ACMEDRAWINGMAN
1000
AcRTDxfName
1000
ACMEDRAWINGMAN
1000
AcRTDxfName
1000
ACMEDRAWINGMAN
1000
AcRTDxfName
1000
ACMEDRAWINGMAN
1000
AcRTDxfName
1000
ACMEDRAWINGMAN
  0
ACAD_PROXY_OBJECT
  5
DF9
102
{ACAD_REACTORS
330
C
102
}
330
C
100
AcDbProxyObject
 90
      499
 91
      508
 95
   983063
 70
     0
 93
     8714
310
47805054552415345805045A4F4F4D8050941534B5F4C494E45568050545524153458050A41534B5F44494D4C494E440050A4E202D20534554564152014353880B48111253531253915054805224D5347202D202020204E657374656420636F6D6D616E642043414E43454C4C45442E014293880B4814D1551590548050D4E
310
202D2044494D4C494E45415201489354D1C80B4808080813995CDD19590818DBDB5B585B990810D05390D1531311510B805084E202D205A4F4F4D014293880B4814D1551590548050D4E202D2044494D4C494E45415201489354D1C80B4808080813995CDD19590818DBDB5B585B990810D05390D1531311510B8050A4E202
310
D20534554564152014353880B481112535312539150548050F4E202D2044494D4F56455252494445014293880B4814D1551590548050D4E202D2044494D4C494E4541520143D3880B4811125353D5915494925111405054552415345805045A4F4F4D8050941534B5F4C494E45568050A41534B5F44494D4C494E424050A4E
310
202D20534554564152014353880B48111253531253915054805224D5347202D202020204E657374656420636F6D6D616E642043414E43454C4C45442E014293880B4814D1551590548050D4E202D2044494D4C494E4541520143D3880B4811125353D59154949251114050A4E202D20534554564152014353880B481112535
310
312539150548050F4E202D2044494D4F56455252494445014151549054D1601431054D2D7D111531114905195102014213880B4815539113C05084E202D20554E444F01411693D3D3601421054D2D7D353D591507014213880B4815539113C05084E202D204D4F5645014213880B481353D591405084E202D204D4F5645014
310
213880B481353D591405084E202D204D4F5645014213880B4815539113C05045A4F4F4D8050A41534B5F44494D4C494E40C050A4E202D20534554564152014353880B481112535312539150548050F4E202D2044494D4F56455252494445014151549054D1601421054D2D7D0D3D416503014213880B4815539113C05084E2
310
02D20434F5059014213880B4815539113C050C41534B5F5445585445444954805045A4F4F4D8050A41534B5F44494D4C494E430050A4E202D20534554564152014353880B481112535312539150548050F4E202D2044494D4F56455252494445014293880B4814D1551590548050D4E202D2044494D4C494E4541520143D38
310
80B4811125353D59154949251114050A4E202D20534554564152014353880B481112535312539150548050F4E202D2044494D4F56455252494445014293880B4814D1551590548050D4E202D2044494D4C494E4541520143D3880B4811125353D59154949251114050A41534B5F5442334A6F62805045A4F4F4D8050941534
310
B5F51534156458050551534156458050941534B5F51534156458050551534156458050841534B5F504C4F548050A41534B5F5442334A6F62805045A4F4F4D8050841534B5F4F50454E80
1001
ACAD
1000
AcRTDxfName
1000
ACMECOMMANDHISTORY
1000
AcRTDxfName
1000
ACMECOMMANDHISTORY
1000
AcRTDxfName
1000
ACMECOMMANDHISTORY
1000
AcRTDxfName
1000
ACMECOMMANDHISTORY
1000
AcRTDxfName
1000
ACMECOMMANDHISTORY
1000
AcRTDxfName
1000
ACMECOMMANDHISTORY
1000
AcRTDxfName
1000
ACMECOMMANDHISTORY
1000
AcRTDxfName
1000
ACMECOMMANDHISTORY
1000
AcRTDxfName
1000
ACMECOMMANDHISTORY
1000
AcRTDxfName
1000
ACMECOMMANDHISTORY
  0
ACAD_PROXY_OBJECT
  5
DF8
102
{ACAD_REACTORS
330
C
102
}
330
C
100
AcDbProxyObject
 90
      499
 91
      507
 95
   983063
 70
     0
 93
     1074
310
04000043C00000000000000000001726020000000000000000000000000000000000000000000000000000000000000000000000000000000000000000000000000000000000000000000000000000000000000000000000000000000000000000000000000000000000000000000000000000000000000000000000000000
310
00000000AAAAAA80
360
DFC
360
DFD
360
DFE
360
E00
360
E07
360
E08
360
E09
360
E0A
360
E0D
360
E0E
360
E0F
360
E10
360
E11
360
E12
360
E13
360
E14
360
E18
360
E19
360
E1A
360
E1B
360
E1C
360
E1D
360
E1E
360
E1F
360
E20
360
E21
360
E22
360
E23
360
E24
360
E25
360
E26
360
E27
360
E28
360
E29
360
E35
360
E36
360
E37
360
E38
360
E39
360
E3A
360
E3B
360
E3C
360
E3D
360
E3E
360
E3F
360
E40
360
E41
360
E42
360
E43
360
E44
360
E45
360
E46
360
E47
360
E48
360
E49
360
E4A
360
E4B
360
E4C
360
E4D
360
E4E
360
E4F
360
E50
360
E51
360
E52
360
E53
360
E54
360
E55
360
E56
360
E57
360
E58
360
E59
360
E5A
360
E5B
360
E5C
360
E5D
360
E5E
360
E5F
360
E60
360
E61
360
E62
360
E63
360
E6D
360
E6E
360
E6F
360
E70
360
E72
360
E73
360
E74
360
E75
360
E76
360
E77
360
E78
360
E79
360
E7A
360
E7B
360
E7C
360
E7D
360
E7E
360
E80
360
E82
360
E85
360
E86
360
E87
360
E88
360
E89
360
E8A
360
E8B
360
E8C
360
E91
360
E92
360
E93
360
E94
360
E95
360
E96
 94
        0
1001
ACAD
1000
AcRTDxfName
1000
ACMESCOPE
1000
AcRTDxfName
1000
ACMESCOPE
1000
AcRTDxfName
1000
ACMESCOPE
1000
AcRTDxfName
1000
ACMESCOPE
1000
AcRTDxfName
1000
ACMESCOPE
1000
AcRTDxfName
1000
ACMESCOPE
1000
AcRTDxfName
1000
ACMESCOPE
1000
AcRTDxfName
1000
ACMESCOPE
1000
AcRTDxfName
1000
ACMESCOPE
1000
AcRTDxfName
1000
ACMESCOPE
  0
ACAD_PROXY_OBJECT
  5
E04
102
{ACAD_REACTORS
330
C
102
}
330
C
100
AcDbProxyObject
 90
      499
 91
      517
 95
   983063
 70
     0
 93
       50
310
04000040E41280
1001
ACAD
1000
AcRTDxfName
1000
ACMESTATEMGR
1000
AcRTDxfName
1000
ACMESTATEMGR
1000
AcRTDxfName
1000
ACMESTATEMGR
1000
AcRTDxfName
1000
ACMESTATEMGR
1000
AcRTDxfName
1000
ACMESTATEMGR
1000
AcRTDxfName
1000
ACMESTATEMGR
1000
AcRTDxfName
1000
ACMESTATEMGR
1000
AcRTDxfName
1000
ACMESTATEMGR
1000
AcRTDxfName
1000
ACMESTATEMGR
1000
AcRTDxfName
1000
ACMESTATEMGR
  0
ACAD_PROXY_OBJECT
  5
DFB
102
{ACAD_REACTORS
330
C
102
}
330
C
100
AcDbProxyObject
 90
      499
 91
      509
 95
   983063
 70
     0
 93
       48
310
903422000000
330
DFC
330
DFD
330
DFE
 94
        0
1001
ACAD
1000
AcRTDxfName
1000
ACIMSYSVARMAN
1000
AcRTDxfName
1000
ACIMSYSVARMAN
1000
AcRTDxfName
1000
ACIMSYSVARMAN
1000
AcRTDxfName
1000
ACIMSYSVARMAN
1000
AcRTDxfName
1000
ACIMSYSVARMAN
1000
AcRTDxfName
1000
ACIMSYSVARMAN
1000
AcRTDxfName
1000
ACIMSYSVARMAN
1000
AcRTDxfName
1000
ACIMSYSVARMAN
1000
AcRTDxfName
1000
ACIMSYSVARMAN
1000
AcRTDxfName
1000
ACIMSYSVARMAN
  0
ACAD_PROXY_OBJECT
  5
E7F
102
{ACAD_REACTORS
330
C
102
}
330
C
100
AcDbProxyObject
 90
      499
 91
      545
 95
   983063
 70
     0
 93
       42
310
000400004500
330
E6D
 94
        0
1001
ACAD
1000
AcRTDxfName
1000
NAMEDAPPL
1000
AcRTDxfName
1000
NAMEDAPPL
1000
AcRTDxfName
1000
NAMEDAPPL
1000
AcRTDxfName
1000
NAMEDAPPL
1000
AcRTDxfName
1000
NAMEDAPPL
1000
AcRTDxfName
1000
NAMEDAPPL
1000
AcRTDxfName
1000
NAMEDAPPL
1000
AcRTDxfName
1000
NAMEDAPPL
1000
AcRTDxfName
1000
NAMEDAPPL
1000
AcRTDxfName
1000
NAMEDAPPL
  0
ACAD_PROXY_OBJECT
  5
E67
102
{ACAD_REACTORS
330
C
102
}
330
C
100
AcDbProxyObject
 90
      499
 91
      535
 95
   983063
 70
     0
 93
      114
310
000000438000000000000000000000
1001
ACAD
1000
AcRTDxfName
1000
ACADGREFMODULE
1000
AcRTDxfName
1000
ACADGREFMODULE
1000
AcRTDxfName
1000
ACADGREFMODULE
1000
AcRTDxfName
1000
ACADGREFMODULE
1000
AcRTDxfName
1000
ACADGREFMODULE
1000
AcRTDxfName
1000
ACADGREFMODULE
1000
AcRTDxfName
1000
ACADGREFMODULE
1000
AcRTDxfName
1000
ACADGREFMODULE
1000
AcRTDxfName
1000
ACADGREFMODULE
1000
AcRTDxfName
1000
ACADGREFMODULE
  0
ACAD_PROXY_OBJECT
  5
E81
102
{ACAD_REACTORS
330
C
102
}
330
C
100
AcDbProxyObject
 90
      499
 91
      547
 95
   983063
 70
     0
 93
        8
310
00
330
E80
 94
        0
1001
ACAD
1000
AcRTDxfName
1000
AM_HNTEMPLATE_MGR_NAME
1000
AcRTDxfName
1000
AM_HNTEMPLATE_MGR_NAME
1000
AcRTDxfName
1000
AM_HNTEMPLATE_MGR_NAME
1000
AcRTDxfName
1000
AM_HNTEMPLATE_MGR_NAME
1000
AcRTDxfName
1000
AM_HNTEMPLATE_MGR_NAME
1000
AcRTDxfName
1000
AM_HNTEMPLATE_MGR_NAME
1000
AcRTDxfName
1000
AM_HNTEMPLATE_MGR_NAME
1000
AcRTDxfName
1000
AM_HNTEMPLATE_MGR_NAME
1000
AcRTDxfName
1000
AM_HNTEMPLATE_MGR_NAME
1000
AcRTDxfName
1000
AM_HNTEMPLATE_MGR_NAME
  0
ACAD_PROXY_OBJECT
  5
E98
102
{ACAD_REACTORS
330
C
102
}
330
C
100
AcDbProxyObject
 90
      499
 91
      556
 95
   983063
 70
     0
 93
       34
310
0400004440
1001
ACAD
1000
AcRTDxfName
1000
MAPIADMODULE
1000
AcRTDxfName
1000
MAPIADMODULE
1000
AcRTDxfName
1000
MAPIADMODULE
1000
AcRTDxfName
1000
MAPIADMODULE
1000
AcRTDxfName
1000
MAPIADMODULE
1000
AcRTDxfName
1000
MAPIADMODULE
1000
AcRTDxfName
1000
MAPIADMODULE
1000
AcRTDxfName
1000
MAPIADMODULE
1000
AcRTDxfName
1000
MAPIADMODULE
1000
AcRTDxfName
1000
MAPIADMODULE
  0
ACAD_PROXY_OBJECT
  5
E71
102
{ACAD_REACTORS
330
C
102
}
330
C
100
AcDbProxyObject
 90
      499
 91
      509
 95
   983063
 70
     0
 93
      136
310
90E4420000000000000000000000000000
330
E72
330
E73
330
E74
330
E75
330
E76
330
E77
330
E78
330
E79
330
E7A
330
E7B
330
E7C
330
E7D
330
E7E
330
E82
 94
        0
1001
ACAD
1000
AcRTDxfName
1000
ACIMSYSVARMAN
1000
AcRTDxfName
1000
ACIMSYSVARMAN
1000
AcRTDxfName
1000
ACIMSYSVARMAN
1000
AcRTDxfName
1000
ACIMSYSVARMAN
1000
AcRTDxfName
1000
ACIMSYSVARMAN
1000
AcRTDxfName
1000
ACIMSYSVARMAN
1000
AcRTDxfName
1000
ACIMSYSVARMAN
1000
AcRTDxfName
1000
ACIMSYSVARMAN
1000
AcRTDxfName
1000
ACIMSYSVARMAN
1000
AcRTDxfName
1000
ACIMSYSVARMAN
  0
DICTIONARY
  5
156C
102
{ACAD_REACTORS
330
C
102
}
330
C
100
AcDbDictionary
281
     1
  0
ACAD_PROXY_OBJECT
  5
E2A
102
{ACAD_REACTORS
330
C
102
}
330
C
100
AcDbProxyObject
 90
      499
 91
      523
 95
   983063
 70
     0
 93
       42
310
000100004FC0
330
E07
 94
        0
1001
ACAD
1000
AcRTDxfName
1000
AM_DWGMGR_NAME
1000
AcRTDxfName
1000
AM_DWGMGR_NAME
1000
AcRTDxfName
1000
AM_DWGMGR_NAME
1000
AcRTDxfName
1000
AM_DWGMGR_NAME
1000
AcRTDxfName
1000
AM_DWGMGR_NAME
1000
AcRTDxfName
1000
AM_DWGMGR_NAME
1000
AcRTDxfName
1000
AM_DWGMGR_NAME
1000
AcRTDxfName
1000
AM_DWGMGR_NAME
1000
AcRTDxfName
1000
AM_DWGMGR_NAME
1000
AcRTDxfName
1000
AM_DWGMGR_NAME
  0
DICTIONARY
  5
DF0
102
{ACAD_REACTORS
330
C
102
}
330
C
100
AcDbDictionary
281
     1
  3
AcMgSettings
350
DF1
  3
AMGLAYCFG
350
EA5
  0
DICTIONARY
  5
EB3
102
{ACAD_REACTORS
330
C
102
}
330
C
100
AcDbDictionary
281
     1
  3
DIMENSION
350
EB8
  3
FEA
350
EB7
  3
HATCH (1)
350
EB4
  3
HATCH (2)
350
EB5
  3
SYMBOLS
350
EB6
  0
ACAD_PROXY_OBJECT
  5
E68
102
{ACAD_REACTORS
330
C
102
}
330
C
100
AcDbProxyObject
 90
      499
 91
      536
 95
   983063
 70
     0
 93
       34
310
0400004180
1001
ACAD
1000
AcRTDxfName
1000
AMIMASTER
1000
AcRTDxfName
1000
AMIMASTER
1000
AcRTDxfName
1000
AMIMASTER
1000
AcRTDxfName
1000
AMIMASTER
1000
AcRTDxfName
1000
AMIMASTER
1000
AcRTDxfName
1000
AMIMASTER
1000
AcRTDxfName
1000
AMIMASTER
1000
AcRTDxfName
1000
AMIMASTER
1000
AcRTDxfName
1000
AMIMASTER
1000
AcRTDxfName
1000
AMIMASTER
  0
DICTIONARY
  5
17A8
102
{ACAD_REACTORS
330
C
102
}
330
C
100
AcDbDictionary
281
     1
  0
DICTIONARY
  5
DBF
102
{ACAD_REACTORS
330
C
102
}
330
C
100
AcDbDictionary
281
     1
  3
ASEBlockHierarchyIndexRecord
350
DC1
1001
DCO15
1040
1461926280.606
  0
DICTIONARY
  5
3AE
102
{ACAD_REACTORS
330
C
102
}
330
C
100
AcDbDictionary
281
     1
  3
ASK_SUMMARY
350
13E1
  3
ASKCURSC
350
3AF
  0
ACAD_PROXY_OBJECT
  5
E33
102
{ACAD_REACTORS
330
C
102
}
330
C
100
AcDbProxyObject
 90
      499
 91
      530
 95
   983063
 70
     0
 93
      272
310
4C51E482000000000000000000000000000000000000000000000000000000000000
330
E46
330
E47
330
E48
330
E49
330
E4A
330
E4B
330
E4C
330
E4D
330
E4E
330
E4F
330
E50
330
E51
330
E52
330
E53
330
E54
330
E55
330
E56
330
E57
330
E58
330
E59
330
E5A
330
E5B
330
E5C
330
E5D
330
E5E
330
E5F
330
E60
330
E61
330
E62
330
E63
 94
        0
1001
ACAD
1000
AcRTDxfName
1000
IM_STATIC_MAN
1000
AcRTDxfName
1000
IM_STATIC_MAN
1000
AcRTDxfName
1000
IM_STATIC_MAN
1000
AcRTDxfName
1000
IM_STATIC_MAN
1000
AcRTDxfName
1000
IM_STATIC_MAN
1000
AcRTDxfName
1000
IM_STATIC_MAN
1000
AcRTDxfName
1000
IM_STATIC_MAN
1000
AcRTDxfName
1000
IM_STATIC_MAN
1000
AcRTDxfName
1000
IM_STATIC_MAN
1000
AcRTDxfName
1000
IM_STATIC_MAN
  0
ACAD_PROXY_OBJECT
  5
E8D
102
{ACAD_REACTORS
330
C
102
}
330
C
100
AcDbProxyObject
 90
      499
 91
      549
 95
   983063
 70
     0
 93
       74
310
04000048400000000000
330
E94
330
0
330
E95
330
0
330
0
 94
        0
1001
ACAD
1000
AcRTDxfName
1000
ACAMPROJECT
1000
AcRTDxfName
1000
ACAMPROJECT
1000
AcRTDxfName
1000
ACAMPROJECT
1000
AcRTDxfName
1000
ACAMPROJECT
1000
AcRTDxfName
1000
ACAMPROJECT
1000
AcRTDxfName
1000
ACAMPROJECT
1000
AcRTDxfName
1000
ACAMPROJECT
1000
AcRTDxfName
1000
ACAMPROJECT
1000
AcRTDxfName
1000
ACAMPROJECT
1000
AcRTDxfName
1000
ACAMPROJECT
  0
ACAD_PROXY_OBJECT
  5
E34
102
{ACAD_REACTORS
330
C
102
}
330
C
100
AcDbProxyObject
 90
      499
 91
      509
 95
   983063
 70
     0
 93
      168
310
4C5114820000000000000000000000000000000000
330
E35
330
E36
330
E37
330
E38
330
E39
330
E3A
330
E3B
330
E3C
330
E3D
330
E3E
330
E3F
330
E40
330
E41
330
E42
330
E43
330
E44
330
E45
 94
        0
1001
ACAD
1000
AcRTDxfName
1000
ACIMSYSVARMAN
1000
AcRTDxfName
1000
ACIMSYSVARMAN
1000
AcRTDxfName
1000
ACIMSYSVARMAN
1000
AcRTDxfName
1000
ACIMSYSVARMAN
1000
AcRTDxfName
1000
ACIMSYSVARMAN
1000
AcRTDxfName
1000
ACIMSYSVARMAN
1000
AcRTDxfName
1000
ACIMSYSVARMAN
1000
AcRTDxfName
1000
ACIMSYSVARMAN
1000
AcRTDxfName
1000
ACIMSYSVARMAN
1000
AcRTDxfName
1000
ACIMSYSVARMAN
  0
ACAD_PROXY_OBJECT
  5
E84
102
{ACAD_REACTORS
330
C
102
}
330
C
100
AcDbProxyObject
 90
      499
 91
      509
 95
   983063
 70
     0
 93
       88
310
9084220000000000000000
330
E85
330
E86
330
E87
330
E88
330
E89
330
E8A
330
E8B
330
E8C
 94
        0
1001
ACAD
1000
AcRTDxfName
1000
ACIMSYSVARMAN
1000
AcRTDxfName
1000
ACIMSYSVARMAN
1000
AcRTDxfName
1000
ACIMSYSVARMAN
1000
AcRTDxfName
1000
ACIMSYSVARMAN
1000
AcRTDxfName
1000
ACIMSYSVARMAN
1000
AcRTDxfName
1000
ACIMSYSVARMAN
1000
AcRTDxfName
1000
ACIMSYSVARMAN
1000
AcRTDxfName
1000
ACIMSYSVARMAN
1000
AcRTDxfName
1000
ACIMSYSVARMAN
1000
AcRTDxfName
1000
ACIMSYSVARMAN
  0
XRECORD
  5
17AF
102
{ACAD_REACTORS
330
C
102
}
330
C
100
AcDbXrecord
280
     1
  1
DWGPROPS COOKIE
  2

  3

  4

  6

  7

  8
CAD01
  9

300
AmdtFileType=84
301
=
302
=
303
=
304
=
305
=
306
=
307
=
308
=
309
=
 40
0.0
 41
2449288.288229167
 42
2458698.24108522
  1

 90
        1
  0
ACAD_PROXY_OBJECT
  5
E6A
102
{ACAD_REACTORS
330
C
102
}
330
C
100
AcDbProxyObject
 90
      499
 91
      538
 95
   983063
 70
     0
 93
        8
310
02
1001
ACAD
1000
AcRTDxfName
1000
MAPIAMMOUDLE
1000
AcRTDxfName
1000
MAPIAMMOUDLE
1000
AcRTDxfName
1000
MAPIAMMOUDLE
1000
AcRTDxfName
1000
MAPIAMMOUDLE
1000
AcRTDxfName
1000
MAPIAMMOUDLE
1000
AcRTDxfName
1000
MAPIAMMOUDLE
1000
AcRTDxfName
1000
MAPIAMMOUDLE
1000
AcRTDxfName
1000
MAPIAMMOUDLE
1000
AcRTDxfName
1000
MAPIAMMOUDLE
1000
AcRTDxfName
1000
MAPIAMMOUDLE
  0
DICTIONARY
  5
1174
102
{ACAD_REACTORS
330
1173
102
}
330
1173
100
AcDbDictionary
281
     1
  0
XRECORD
  5
1499
102
{ACAD_REACTORS
330
1498
102
}
330
1498
100
AcDbXrecord
280
     1
290
     1
  0
XRECORD
  5
149B
102
{ACAD_REACTORS
330
149A
102
}
330
149A
100
AcDbXrecord
280
     1
290
     1
  0
XRECORD
  5
149D
102
{ACAD_REACTORS
330
149C
102
}
330
149C
100
AcDbXrecord
280
     1
290
     1
  0
XRECORD
  5
149F
102
{ACAD_REACTORS
330
149E
102
}
330
149E
100
AcDbXrecord
280
     1
290
     1
  0
XRECORD
  5
14A1
102
{ACAD_REACTORS
330
14A0
102
}
330
14A0
100
AcDbXrecord
280
     1
290
     1
  0
XRECORD
  5
14A3
102
{ACAD_REACTORS
330
14A2
102
}
330
14A2
100
AcDbXrecord
280
     1
290
     1
  0
XRECORD
  5
14A5
102
{ACAD_REACTORS
330
14A4
102
}
330
14A4
100
AcDbXrecord
280
     1
290
     1
  0
XRECORD
  5
14A7
102
{ACAD_REACTORS
330
14A6
102
}
330
14A6
100
AcDbXrecord
280
     1
290
     1
  0
XRECORD
  5
14A9
102
{ACAD_REACTORS
330
14A8
102
}
330
14A8
100
AcDbXrecord
280
     1
290
     1
  0
XRECORD
  5
14AB
102
{ACAD_REACTORS
330
14AA
102
}
330
14AA
100
AcDbXrecord
280
     1
290
     1
  0
DICTIONARY
  5
16EC
102
{ACAD_REACTORS
330
1157
102
}
330
1157
100
AcDbDictionary
281
     1
  3
*A1
350
16ED
  0
SORTENTSTABLE
  5
1251
102
{ACAD_REACTORS
330
1157
102
}
330
1157
100
AcDbSortentsTable
330
17
331
21D
  5
21D
331
222
  5
222
331
223
  5
223
331
224
  5
224
331
225
  5
225
331
226
  5
226
331
227
  5
228
331
228
  5
229
331
229
  5
22A
331
22A
  5
22B
331
22B
  5
22D
331
22C
  5
22E
331
22D
  5
22F
331
22E
  5
230
331
22F
  5
231
331
230
  5
232
331
231
  5
233
331
232
  5
234
331
233
  5
235
331
234
  5
236
331
235
  5
237
331
236
  5
238
331
237
  5
239
331
238
  5
23A
331
239
  5
23B
331
23A
  5
23C
331
23B
  5
23D
331
23C
  5
23E
331
23D
  5
240
331
23E
  5
241
331
240
  5
242
331
241
  5
243
331
242
  5
244
331
243
  5
245
331
244
  5
246
331
245
  5
247
331
246
  5
248
331
247
  5
249
331
248
  5
24A
331
249
  5
24B
331
24A
  5
24C
331
24B
  5
24D
331
24C
  5
24E
331
24D
  5
24F
331
24E
  5
250
331
24F
  5
251
331
250
  5
252
331
251
  5
254
331
252
  5
255
331
253
  5
256
331
254
  5
257
331
255
  5
259
331
256
  5
25A
331
257
  5
25B
331
258
  5
25C
331
259
  5
25D
331
25A
  5
25E
331
25B
  5
25F
331
25C
  5
260
331
25D
  5
261
331
25E
  5
262
331
25F
  5
263
331
260
  5
264
331
261
  5
265
331
262
  5
266
331
263
  5
267
331
264
  5
268
331
265
  5
269
331
266
  5
26A
331
267
  5
26B
331
268
  5
26C
331
269
  5
26D
331
26A
  5
26E
331
26B
  5
26F
331
26C
  5
270
331
26D
  5
271
331
26E
  5
272
331
26F
  5
273
331
270
  5
274
331
271
  5
275
331
272
  5
276
331
273
  5
277
331
274
  5
278
331
275
  5
279
331
276
  5
27A
331
277
  5
27B
331
278
  5
27C
331
279
  5
27D
331
27A
  5
27E
331
27B
  5
27F
331
27C
  5
280
331
27D
  5
281
331
27E
  5
2A7
331
27F
  5
2C6
331
280
  5
2C7
331
281
  5
2EA
331
2A7
  5
2EB
331
2C6
  5
2EC
331
2C7
  5
2ED
331
2EA
  5
2EF
331
2EB
  5
2F0
331
2EC
  5
2F1
331
2ED
  5
2F2
331
2EF
  5
2FC
331
2F0
  5
2FD
331
2F1
  5
2FE
331
2F2
  5
303
331
2FC
  5
304
331
2FD
  5
305
331
2FE
  5
307
331
303
  5
308
331
304
  5
309
331
307
  5
30B
331
308
  5
30C
331
309
  5
30D
331
30A
  5
315
331
30B
  5
334
331
30C
  5
33B
331
30D
  5
372
331
315
  5
373
331
334
  5
395
331
33B
  5
396
331
372
  5
3A8
331
373
  5
3A9
331
395
  5
3DE
331
396
  5
98C
331
3A8
  5
98D
331
3A9
  5
98E
331
3DE
  5
98F
331
98C
  5
990
331
98D
  5
991
331
98E
  5
992
331
98F
  5
993
331
990
  5
994
331
991
  5
995
331
992
  5
996
331
993
  5
997
331
994
  5
998
331
995
  5
999
331
996
  5
99A
331
997
  5
99B
331
998
  5
99C
331
999
  5
9A0
331
99A
  5
9A1
331
99B
  5
9A2
331
99C
  5
9A3
331
9A0
  5
9A4
331
9A1
  5
9A5
331
9A2
  5
9A6
331
9A3
  5
9A7
331
9A4
  5
9A8
331
9A5
  5
9A9
331
9A6
  5
9AA
331
9A7
  5
9AB
331
9A8
  5
9AC
331
9A9
  5
9AD
331
9AA
  5
9AE
331
9AB
  5
9AF
331
9AC
  5
9B0
331
9AD
  5
9B1
331
9AE
  5
9B2
331
9AF
  5
9B3
331
9B0
  5
9B4
331
9B1
  5
9B5
331
9B2
  5
9B6
331
9B3
  5
9B7
331
9B4
  5
9B8
331
9B5
  5
9BB
331
9B6
  5
9BC
331
9B7
  5
9BD
331
9B8
  5
9BE
331
9BB
  5
9BF
331
9BC
  5
9C0
331
9BD
  5
9C1
331
9BE
  5
9C2
331
9BF
  5
9C3
331
9C0
  5
9C4
331
9C1
  5
9C5
331
9C2
  5
9C6
331
9C3
  5
9C7
331
9C4
  5
9C8
331
9C5
  5
9C9
331
9C6
  5
9CA
331
9C7
  5
9CB
331
9C8
  5
9CC
331
9C9
  5
9CD
331
9CA
  5
9CE
331
9CB
  5
9CF
331
9CC
  5
9D0
331
9CD
  5
9D1
331
9CE
  5
9D3
331
9CF
  5
9D4
331
9D0
  5
9D5
331
9D1
  5
9D6
331
9D3
  5
9D7
331
9D4
  5
9D8
331
9D5
  5
9D9
331
9D6
  5
9DA
331
9D7
  5
A61
331
9D8
  5
A62
331
9D9
  5
A63
331
9DA
  5
A64
331
A61
  5
A65
331
A62
  5
A66
331
A63
  5
A67
331
A64
  5
A68
331
A65
  5
A69
331
A66
  5
A6A
331
A67
  5
BC3
331
A68
  5
BDA
331
A69
  5
BEF
331
A6A
  5
C04
331
BC3
  5
C1B
331
BDA
  5
C6A
331
BEF
  5
C6B
331
C04
  5
C6F
331
C1B
  5
C70
331
C6A
  5
C85
331
C6B
  5
C86
331
C6F
  5
C87
331
C70
  5
C91
331
C85
  5
C92
331
C86
  5
C93
331
C87
  5
C99
331
C91
  5
C9A
331
C92
  5
C9E
331
C93
  5
C9F
331
C99
  5
CE7
331
C9A
  5
CE8
331
C9E
  5
CFD
331
C9F
  5
D14
331
CE7
  5
D3C
331
CE8
  5
D3D
331
CFD
  5
D5A
331
D14
  5
D86
331
D3C
  5
D87
331
D3D
  5
D8B
331
D5A
  5
D8C
331
D86
  5
D8D
331
D87
  5
D91
331
D8B
  5
D92
331
D8C
  5
D99
331
D8D
  5
DD8
331
D91
  5
DE5
331
D92
  5
F36
331
D99
  5
F37
331
DD8
  5
F38
331
DE5
  5
F39
331
F36
  5
F3A
331
F37
  5
F3B
331
F38
  5
F41
331
F39
  5
F42
331
F3A
  5
F45
331
F3B
  5
F4C
331
F41
  5
F4D
331
F42
  5
F4E
331
F45
  5
F4F
331
F4C
  5
F5B
331
F4D
  5
F5C
331
F4E
  5
F5D
331
F4F
  5
F5E
331
F5B
  5
F68
331
F5C
  5
F69
331
F5D
  5
F6A
331
F5E
  5
F6B
331
F68
  5
F6C
331
F69
  5
F6D
331
F6A
  5
F6E
331
F6B
  5
F72
331
F6C
  5
F73
331
F6D
  5
F74
331
F6E
  5
F75
331
F72
  5
F76
331
F73
  5
F77
331
F74
  5
F78
331
F75
  5
F79
331
F76
  5
F7A
331
F77
  5
F7B
331
F78
  5
F7C
331
F79
  5
F7D
331
F7A
  5
F7E
331
F7B
  5
F7F
331
F7C
  5
F80
331
F7D
  5
F81
331
F7E
  5
F87
331
F7F
  5
F89
331
F80
  5
F8E
331
F81
  5
F94
331
F87
  5
F95
331
F89
  5
F98
331
F8E
  5
F99
331
F94
  5
F9A
331
F95
  5
F9B
331
F98
  5
F9C
331
F99
  5
F9D
331
F9A
  5
F9E
331
F9B
  5
F9F
331
F9C
  5
FA0
331
F9D
  5
FA1
331
F9E
  5
FA2
331
F9F
  5
FA3
331
FA0
  5
FA4
331
FA1
  5
FA5
331
FA2
  5
FA6
331
FA3
  5
FA7
331
FA4
  5
FA8
331
FA5
  5
FA9
331
FA6
  5
FAA
331
FA7
  5
FAB
331
FA8
  5
FAC
331
FA9
  5
FAD
331
FAA
  5
FAE
331
FAB
  5
FAF
331
FAC
  5
FB0
331
FAD
  5
FB1
331
FAE
  5
FB2
331
FAF
  5
FB3
331
FB0
  5
FB4
331
FB1
  5
FB5
331
FB2
  5
FB6
331
FB3
  5
FB7
331
FB4
  5
FB8
331
FB5
  5
FB9
331
FB6
  5
FBA
331
FB7
  5
FBB
331
FB8
  5
FBC
331
FB9
  5
FBD
331
FBA
  5
FBE
331
FBB
  5
FBF
331
FBC
  5
FC0
331
FBD
  5
FC1
331
FBE
  5
FC2
331
FBF
  5
FC3
331
FC0
  5
FC4
331
FC1
  5
1009
331
FC2
  5
1020
331
FC3
  5
103D
331
FC4
  5
1054
331
1009
  5
10E0
331
1020
  5
10F7
331
103D
  5
10F8
331
1054
  5
10FB
331
10E0
  5
1112
331
10F7
  5
1129
331
10F8
  5
1140
331
10FB
  5
117C
331
1112
  5
11D4
331
1129
  5
1252
331
1140
  5
12CF
331
117C
  5
1350
331
1250
  5
22C
331
12CE
  5
258
331
134F
  5
227
331
13E0
  5
253
  0
LAYOUT
  5
36D
102
{ACAD_REACTORS
330
36B
102
}
330
36B
100
AcDbPlotSettings
  1

  2
FinePrint pdfFactoryA3.pc3
  4
A3
  6
V0
 40
5.87375
 41
5.873748
 42
5.873779
 43
5.873749
 44
420.031342
 45
297.010651
 46
4.64
 47
1.56
 48
210.0
 49
148.5
140
8190.0
141
5791.5
142
1.0
143
20.0
 70
 11956
 72
     1
 73
     0
 74
     4
  7
モノクロ.ctb
 75
    22
147
0.05
148
-210.0
149
-148.5
100
AcDbLayout
  1
Model
 70
     1
 71
     0
 10
0.0
 20
0.0
 11
12.0
 21
9.0
 12
0.0
 22
0.0
 32
0.0
 14
0.0
 24
-800.9237860362527
 34
0.0
 15
8400.0
 25
5940.0
 35
0.0
146
0.0
 13
0.0
 23
0.0
 33
0.0
 16
1.0
 26
0.0
 36
0.0
 17
0.0
 27
1.0
 37
0.0
 76
     0
330
17
331
1432
  0
LAYOUT
  5
36E
102
{ACAD_REACTORS
330
36B
102
}
330
36B
100
AcDbPlotSettings
  1

  2
\\CAD_SERVER\LP-8200
  4

  6

 40
0.0
 41
0.0
 42
0.0
 43
0.0
 44
0.0
 45
0.0
 46
0.0
 47
0.0
 48
0.0
 49
0.0
140
0.0
141
0.0
142
1.0
143
1.0
 70
   688
 72
     0
 73
     0
 74
     5
  7
モノクロ.ctb
 75
    16
147
1.0
148
0.0
149
0.0
100
AcDbLayout
  1
ﾚｲｱｳﾄ1
 70
     0
 71
     1
 10
0.0
 20
0.0
 11
12.0
 21
9.0
 12
0.0
 22
0.0
 32
0.0
 14
1.000000000000000E+20
 24
1.000000000000000E+20
 34
1.000000000000000E+20
 15
-1.000000000000000E+20
 25
-1.000000000000000E+20
 35
-1.000000000000000E+20
146
0.0
 13
0.0
 23
0.0
 33
0.0
 16
1.0
 26
0.0
 36
0.0
 17
0.0
 27
1.0
 37
0.0
 76
     0
330
14
  0
MLINESTYLE
  5
1B
102
{ACAD_REACTORS
330
1A
102
}
330
1A
100
AcDbMlineStyle
  2
STANDARD
 70
     0
  3

 62
   256
 51
90.0
 52
90.0
 71
     2
 49
0.5
 62
   256
  6
BYLAYER
 49
-0.5
 62
   256
  6
BYLAYER
  0
PLOTSETTINGS
  5
84D
102
{ACAD_REACTORS
330
36C
102
}
330
36C
100
AcDbPlotSettings
  1
DJ750C(A1)カラー
  2
HP DesignJet 750C (C3195A)
  4
User267
  6
V0
 40
4.995333194732666
 41
16.93330574035645
 42
4.99530029296875
 43
16.933349609375
 44
593.9366455078125
 45
840.8246459960938
 46
0.0
 47
0.0
 48
0.0
 49
0.0
140
0.0
141
0.0
142
1.0
143
1.0
 70
  1712
 72
     1
 73
     1
 74
     2
  7
カラー.ctb
 75
    16
147
1.0
148
0.0
149
0.0
  0
PLOTSETTINGS
  5
84E
102
{ACAD_REACTORS
330
36C
102
}
330
36C
100
AcDbPlotSettings
  1
DJ750C(A1)モノクロ
  2
HP DesignJet 750C (C3195A)
  4
User267
  6
V0
 40
4.995333194732666
 41
16.93330574035645
 42
4.99530029296875
 43
16.933349609375
 44
593.9366455078125
 45
840.8246459960938
 46
0.0
 47
0.0
 48
0.0
 49
0.0
140
0.0
141
0.0
142
1.0
143
1.0
 70
  1712
 72
     1
 73
     1
 74
     2
  7
モノクロ.ctb
 75
    16
147
1.0
148
0.0
149
0.0
  0
PLOTSETTINGS
  5
84F
102
{ACAD_REACTORS
330
36C
102
}
330
36C
100
AcDbPlotSettings
  1
DJ750C(A2)カラー
  2
HP DesignJet 750C (C3195A)
  4
User1290
  6
V0
 40
4.995333194732666
 41
16.93333625793457
 42
4.99530029296875
 43
16.93331909179688
 44
593.9366455078125
 45
419.8619995117188
 46
0.0
 47
0.0
 48
0.0
 49
0.0
140
0.0
141
0.0
142
1.0
143
1.0
 70
  1712
 72
     1
 73
     0
 74
     2
  7
カラー.ctb
 75
    16
147
1.0
148
0.0
149
0.0
  0
PLOTSETTINGS
  5
850
102
{ACAD_REACTORS
330
36C
102
}
330
36C
100
AcDbPlotSettings
  1
DJ750C(A2)モノクロ
  2
HP DesignJet 750C (C3195A)
  4
User1290
  6
V0
 40
4.995333194732666
 41
16.93333625793457
 42
4.99530029296875
 43
16.93331909179688
 44
593.9366455078125
 45
419.8619995117188
 46
0.0
 47
0.0
 48
0.0
 49
0.0
140
0.0
141
0.0
142
1.0
143
1.0
 70
  1712
 72
     1
 73
     0
 74
     2
  7
モノクロ.ctb
 75
    16
147
1.0
148
0.0
149
0.0
  0
PLOTSETTINGS
  5
851
102
{ACAD_REACTORS
330
36C
102
}
330
36C
100
AcDbPlotSettings
  1
LP8200(A3)
  2
EPSON LP-8200.pc3
  4
A3
  6
V0
 40
5.873749732971191
 41
5.873747825622559
 42
5.873748779296875
 43
5.873748779296875
 44
419.9466552734375
 45
297.0106506347656
 46
0.0
 47
0.0
 48
0.0
 49
0.0
140
0.0
141
0.0
142
1.0
143
1.0
 70
  1712
 72
     1
 73
     0
 74
     2
  7
モノクロ.ctb
 75
    16
147
1.0
148
0.0
149
0.0
  0
PLOTSETTINGS
  5
852
102
{ACAD_REACTORS
330
36C
102
}
330
36C
100
AcDbPlotSettings
  1
NEC(A3)
  2
NEC PICTY4000 Printer
  4
A3
  6
V0
 40
5.873749732971191
 41
13.7477388381958
 42
5.450408935546875
 43
3.757080078125
 44
296.9259948730469
 45
419.9466552734375
 46
0.0
 47
0.0
 48
0.0
 49
0.0
140
0.0
141
0.0
142
1.0
143
1.0
 70
  1712
 72
     1
 73
     1
 74
     2
  7
カラー.ctb
 75
    16
147
1.0
148
0.0
149
0.0
  0
PLOTSETTINGS
  5
853
102
{ACAD_REACTORS
330
36C
102
}
330
36C
100
AcDbPlotSettings
  1
NEC(A4)
  2
NEC PICTY4000 Printer
  4
A4
  6
V0
 40
4.180416584014893
 41
13.7477388381958
 42
4.180404663085938
 43
3.757080078125
 44
209.9733276367188
 45
296.9259948730469
 46
0.0
 47
0.0
 48
0.0
 49
0.0
140
0.0
141
0.0
142
1.0
143
1.0
 70
  1712
 72
     1
 73
     1
 74
     2
  7
カラー.ctb
 75
    16
147
1.0
148
0.0
149
0.0
  0
ACDBPLACEHOLDER
  5
36A
102
{ACAD_REACTORS
330
369
102
}
330
369
  0
SCALE
  5
147A
102
{ACAD_REACTORS
330
1479
102
}
330
1479
100
AcDbScale
 70
     0
300
1:1
140
1.0
141
1.0
290
     1
  0
SCALE
  5
147B
102
{ACAD_REACTORS
330
1479
102
}
330
1479
100
AcDbScale
 70
     0
300
1/128" = 1'-0"
140
0.0078125
141
12.0
290
     0
  0
SCALE
  5
147C
102
{ACAD_REACTORS
330
1479
102
}
330
1479
100
AcDbScale
 70
     0
300
1/64" = 1'-0"
140
0.015625
141
12.0
290
     0
  0
SCALE
  5
147D
102
{ACAD_REACTORS
330
1479
102
}
330
1479
100
AcDbScale
 70
     0
300
1/32" = 1'-0"
140
0.03125
141
12.0
290
     0
  0
SCALE
  5
147E
102
{ACAD_REACTORS
330
1479
102
}
330
1479
100
AcDbScale
 70
     0
300
1/16" = 1'-0"
140
0.0625
141
12.0
290
     0
  0
SCALE
  5
147F
102
{ACAD_REACTORS
330
1479
102
}
330
1479
100
AcDbScale
 70
     0
300
3/32" = 1'-0"
140
0.09375
141
12.0
290
     0
  0
SCALE
  5
1480
102
{ACAD_REACTORS
330
1479
102
}
330
1479
100
AcDbScale
 70
     0
300
1/8" = 1'-0"
140
0.125
141
12.0
290
     0
  0
SCALE
  5
1481
102
{ACAD_REACTORS
330
1479
102
}
330
1479
100
AcDbScale
 70
     0
300
3/16" = 1'-0"
140
0.1875
141
12.0
290
     0
  0
SCALE
  5
1482
102
{ACAD_REACTORS
330
1479
102
}
330
1479
100
AcDbScale
 70
     0
300
1/4" = 1'-0"
140
0.25
141
12.0
290
     0
  0
SCALE
  5
1483
102
{ACAD_REACTORS
330
1479
102
}
330
1479
100
AcDbScale
 70
     0
300
3/8" = 1'-0"
140
0.375
141
12.0
290
     0
  0
SCALE
  5
1484
102
{ACAD_REACTORS
330
1479
102
}
330
1479
100
AcDbScale
 70
     0
300
1/2" = 1'-0"
140
0.5
141
12.0
290
     0
  0
SCALE
  5
1485
102
{ACAD_REACTORS
330
1479
102
}
330
1479
100
AcDbScale
 70
     0
300
3/4" = 1'-0"
140
0.75
141
12.0
290
     0
  0
SCALE
  5
1486
102
{ACAD_REACTORS
330
1479
102
}
330
1479
100
AcDbScale
 70
     0
300
1" = 1'-0"
140
1.0
141
12.0
290
     0
  0
SCALE
  5
1487
102
{ACAD_REACTORS
330
1479
102
}
330
1479
100
AcDbScale
 70
     0
300
1-1/2" = 1'-0"
140
1.5
141
12.0
290
     0
  0
SCALE
  5
1488
102
{ACAD_REACTORS
330
1479
102
}
330
1479
100
AcDbScale
 70
     0
300
3" = 1'-0"
140
3.0
141
12.0
290
     0
  0
SCALE
  5
1489
102
{ACAD_REACTORS
330
1479
102
}
330
1479
100
AcDbScale
 70
     0
300
6" = 1'-0"
140
6.0
141
12.0
290
     0
  0
SCALE
  5
148A
102
{ACAD_REACTORS
330
1479
102
}
330
1479
100
AcDbScale
 70
     0
300
1'-0" = 1'-0"
140
12.0
141
12.0
290
     0
  0
DICTIONARYVAR
  5
13F7
102
{ACAD_REACTORS
330
337
102
}
330
337
100
DictionaryVariables
280
     0
  1
1
  0
DICTIONARYVAR
  5
DFA
102
{ACAD_REACTORS
330
337
102
}
330
337
100
DictionaryVariables
280
     0
  1
1
  0
DICTIONARYVAR
  5
13F8
102
{ACAD_REACTORS
330
337
102
}
330
337
100
DictionaryVariables
280
     0
  1

  0
DICTIONARYVAR
  5
338
102
{ACAD_REACTORS
330
337
102
}
330
337
100
DictionaryVariables
280
     0
  1
99
  0
ACAD_PROXY_OBJECT
  5
E9A
102
{ACAD_REACTORS
330
E99
102
}
330
E99
100
AcDbProxyObject
 90
      499
 91
      557
 95
   983063
 70
     0
 93
      118
310
405010040CA904C415CD5B074D5028
350
E9B
 94
        0
1001
ACAD
1000
AcRTDxfName
1000
ACMDATADICTIONARY
1000
AcRTDxfName
1000
ACMDATADICTIONARY
1000
AcRTDxfName
1000
ACMDATADICTIONARY
1000
AcRTDxfName
1000
ACMDATADICTIONARY
1000
AcRTDxfName
1000
ACMDATADICTIONARY
1000
AcRTDxfName
1000
ACMDATADICTIONARY
1000
AcRTDxfName
1000
ACMDATADICTIONARY
1000
AcRTDxfName
1000
ACMDATADICTIONARY
1000
AcRTDxfName
1000
ACMDATADICTIONARY
1000
AcRTDxfName
1000
ACMDATADICTIONARY
  0
ACAD_PROXY_OBJECT
  5
DFC
330
DF8
100
AcDbProxyObject
 90
      499
 91
      510
 95
   983063
 70
     0
 93
      156
310
00010143D050D351505391D5531054925390D490
330
DF8
 94
        0
1001
ACAD
1000
AcRTDxfName
1000
ACIMREALSYSVAR
1000
AcRTDxfName
1000
ACIMREALSYSVAR
1000
AcRTDxfName
1000
ACIMREALSYSVAR
1000
AcRTDxfName
1000
ACIMREALSYSVAR
1000
AcRTDxfName
1000
ACIMREALSYSVAR
1000
AcRTDxfName
1000
ACIMREALSYSVAR
1000
AcRTDxfName
1000
ACIMREALSYSVAR
1000
AcRTDxfName
1000
ACIMREALSYSVAR
1000
AcRTDxfName
1000
ACIMREALSYSVAR
1000
AcRTDxfName
1000
ACIMREALSYSVAR
  0
ACAD_PROXY_OBJECT
  5
DFD
330
DF8
100
AcDbProxyObject
 90
      499
 91
      510
 95
   983063
 70
     0
 93
      148
310
000101439050D351531253915054925390D490
330
DF8
 94
        0
1001
ACAD
1000
AcRTDxfName
1000
ACIMREALSYSVAR
1000
AcRTDxfName
1000
ACIMREALSYSVAR
1000
AcRTDxfName
1000
ACIMREALSYSVAR
1000
AcRTDxfName
1000
ACIMREALSYSVAR
1000
AcRTDxfName
1000
ACIMREALSYSVAR
1000
AcRTDxfName
1000
ACIMREALSYSVAR
1000
AcRTDxfName
1000
ACIMREALSYSVAR
1000
AcRTDxfName
1000
ACIMREALSYSVAR
1000
AcRTDxfName
1000
ACIMREALSYSVAR
1000
AcRTDxfName
1000
ACIMREALSYSVAR
  0
ACAD_PROXY_OBJECT
  5
DFE
330
DF8
100
AcDbProxyObject
 90
      499
 91
      511
 95
   983063
 70
     0
 93
      156
310
000101439050D35154D6535093D314D256915080
330
DF8
 94
        0
1001
ACAD
1000
AcRTDxfName
1000
ACIMINTSYSVAR
1000
AcRTDxfName
1000
ACIMINTSYSVAR
1000
AcRTDxfName
1000
ACIMINTSYSVAR
1000
AcRTDxfName
1000
ACIMINTSYSVAR
1000
AcRTDxfName
1000
ACIMINTSYSVAR
1000
AcRTDxfName
1000
ACIMINTSYSVAR
1000
AcRTDxfName
1000
ACIMINTSYSVAR
1000
AcRTDxfName
1000
ACIMINTSYSVAR
1000
AcRTDxfName
1000
ACIMINTSYSVAR
1000
AcRTDxfName
1000
ACIMINTSYSVAR
  0
ACAD_PROXY_OBJECT
  5
E00
330
DF8
100
AcDbProxyObject
 90
      499
 91
      513
 95
   983063
 70
     0
 93
       88
310
000101411093D34C402B00
330
DF8
330
0
330
0
 94
        0
1001
ACAD
1000
AcRTDxfName
1000
ACMEVIEW
1000
AcRTDxfName
1000
ACMEVIEW
1000
AcRTDxfName
1000
ACMEVIEW
1000
AcRTDxfName
1000
ACMEVIEW
1000
AcRTDxfName
1000
ACMEVIEW
1000
AcRTDxfName
1000
ACMEVIEW
1000
AcRTDxfName
1000
ACMEVIEW
1000
AcRTDxfName
1000
ACMEVIEW
1000
AcRTDxfName
1000
ACMEVIEW
1000
AcRTDxfName
1000
ACMEVIEW
  0
ACAD_PROXY_OBJECT
  5
E07
330
DF8
100
AcDbProxyObject
 90
      499
 91
      519
 95
   983063
 70
     0
 93
      366
310
0001014124FEA55D00507342E312E332E35014124FEA55D00507342E312E332E3540501000041905394D24CCC658
330
DF8
330
E08
330
E0C
 94
        0
1001
ACAD
1000
AcRTDxfName
1000
AM_DRAWING_MGR
1000
AcRTDxfName
1000
AM_DRAWING_MGR
1000
AcRTDxfName
1000
AM_DRAWING_MGR
1000
AcRTDxfName
1000
AM_DRAWING_MGR
1000
AcRTDxfName
1000
AM_DRAWING_MGR
1000
AcRTDxfName
1000
AM_DRAWING_MGR
1000
AcRTDxfName
1000
AM_DRAWING_MGR
1000
AcRTDxfName
1000
AM_DRAWING_MGR
1000
AcRTDxfName
1000
AM_DRAWING_MGR
1000
AcRTDxfName
1000
AM_DRAWING_MGR
  0
ACAD_PROXY_OBJECT
  5
E08
330
DF8
100
AcDbProxyObject
 90
      499
 91
      520
 95
   983063
 70
     0
 93
       48
310
000190142200
330
DF8
330
E09
 94
        0
1001
ACAD
1000
AcRTDxfName
1000
AM_DWG_DOCUMENT
1000
AcRTDxfName
1000
AM_DWG_DOCUMENT
1000
AcRTDxfName
1000
AM_DWG_DOCUMENT
1000
AcRTDxfName
1000
AM_DWG_DOCUMENT
1000
AcRTDxfName
1000
AM_DWG_DOCUMENT
1000
AcRTDxfName
1000
AM_DWG_DOCUMENT
1000
AcRTDxfName
1000
AM_DWG_DOCUMENT
1000
AcRTDxfName
1000
AM_DWG_DOCUMENT
1000
AcRTDxfName
1000
AM_DWG_DOCUMENT
1000
AcRTDxfName
1000
AM_DWG_DOCUMENT
  0
ACAD_PROXY_OBJECT
  5
E09
330
DF8
100
AcDbProxyObject
 90
      499
 91
      521
 95
   983063
 70
     0
 93
       48
310
0001AA000000
330
DF8
330
36E
330
E0A
330
0
 94
        0
1001
ACAD
1000
AcRTDxfName
1000
AM_DWG_SHEET
1000
AcRTDxfName
1000
AM_DWG_SHEET
1000
AcRTDxfName
1000
AM_DWG_SHEET
1000
AcRTDxfName
1000
AM_DWG_SHEET
1000
AcRTDxfName
1000
AM_DWG_SHEET
1000
AcRTDxfName
1000
AM_DWG_SHEET
1000
AcRTDxfName
1000
AM_DWG_SHEET
1000
AcRTDxfName
1000
AM_DWG_SHEET
1000
AcRTDxfName
1000
AM_DWG_SHEET
1000
AcRTDxfName
1000
AM_DWG_SHEET
  0
ACAD_PROXY_OBJECT
  5
E0A
330
DF8
100
AcDbProxyObject
 90
      499
 91
      522
 95
   983063
 70
     0
 93
       28
310
0001AAA0
330
DF8
 94
        0
1001
ACAD
1000
AcRTDxfName
1000
AM_VIEWDIMPARMAP
1000
AcRTDxfName
1000
AM_VIEWDIMPARMAP
1000
AcRTDxfName
1000
AM_VIEWDIMPARMAP
1000
AcRTDxfName
1000
AM_VIEWDIMPARMAP
1000
AcRTDxfName
1000
AM_VIEWDIMPARMAP
1000
AcRTDxfName
1000
AM_VIEWDIMPARMAP
1000
AcRTDxfName
1000
AM_VIEWDIMPARMAP
1000
AcRTDxfName
1000
AM_VIEWDIMPARMAP
1000
AcRTDxfName
1000
AM_VIEWDIMPARMAP
1000
AcRTDxfName
1000
AM_VIEWDIMPARMAP
  0
ACAD_PROXY_OBJECT
  5
E0D
330
DF8
100
AcDbProxyObject
 90
      499
 91
      511
 95
   983063
 70
     0
 93
      108
310
000101421053521310D05310D010
330
DF8
 94
        0
1001
ACAD
1000
AcRTDxfName
1000
ACIMINTSYSVAR
1000
AcRTDxfName
1000
ACIMINTSYSVAR
1000
AcRTDxfName
1000
ACIMINTSYSVAR
1000
AcRTDxfName
1000
ACIMINTSYSVAR
1000
AcRTDxfName
1000
ACIMINTSYSVAR
1000
AcRTDxfName
1000
ACIMINTSYSVAR
1000
AcRTDxfName
1000
ACIMINTSYSVAR
1000
AcRTDxfName
1000
ACIMINTSYSVAR
1000
AcRTDxfName
1000
ACIMINTSYSVAR
1000
AcRTDxfName
1000
ACIMINTSYSVAR
  0
ACAD_PROXY_OBJECT
  5
E0E
330
DF8
100
AcDbProxyObject
 90
      499
 91
      511
 95
   983063
 70
     0
 93
      124
310
000101429053541493D2951654115010
330
DF8
 94
        0
1001
ACAD
1000
AcRTDxfName
1000
ACIMINTSYSVAR
1000
AcRTDxfName
1000
ACIMINTSYSVAR
1000
AcRTDxfName
1000
ACIMINTSYSVAR
1000
AcRTDxfName
1000
ACIMINTSYSVAR
1000
AcRTDxfName
1000
ACIMINTSYSVAR
1000
AcRTDxfName
1000
ACIMINTSYSVAR
1000
AcRTDxfName
1000
ACIMINTSYSVAR
1000
AcRTDxfName
1000
ACIMINTSYSVAR
1000
AcRTDxfName
1000
ACIMINTSYSVAR
1000
AcRTDxfName
1000
ACIMINTSYSVAR
  0
ACAD_PROXY_OBJECT
  5
E0F
330
DF8
100
AcDbProxyObject
 90
      499
 91
      511
 95
   983063
 70
     0
 93
      124
310
00010142905354915554D15112535010
330
DF8
 94
        0
1001
ACAD
1000
AcRTDxfName
1000
ACIMINTSYSVAR
1000
AcRTDxfName
1000
ACIMINTSYSVAR
1000
AcRTDxfName
1000
ACIMINTSYSVAR
1000
AcRTDxfName
1000
ACIMINTSYSVAR
1000
AcRTDxfName
1000
ACIMINTSYSVAR
1000
AcRTDxfName
1000
ACIMINTSYSVAR
1000
AcRTDxfName
1000
ACIMINTSYSVAR
1000
AcRTDxfName
1000
ACIMINTSYSVAR
1000
AcRTDxfName
1000
ACIMINTSYSVAR
1000
AcRTDxfName
1000
ACIMINTSYSVAR
  0
ACAD_PROXY_OBJECT
  5
E10
330
DF8
100
AcDbProxyObject
 90
      499
 91
      511
 95
   983063
 70
     0
 93
      132
310
00010143105354D150D51253D391125360
330
DF8
 94
        0
1001
ACAD
1000
AcRTDxfName
1000
ACIMINTSYSVAR
1000
AcRTDxfName
1000
ACIMINTSYSVAR
1000
AcRTDxfName
1000
ACIMINTSYSVAR
1000
AcRTDxfName
1000
ACIMINTSYSVAR
1000
AcRTDxfName
1000
ACIMINTSYSVAR
1000
AcRTDxfName
1000
ACIMINTSYSVAR
1000
AcRTDxfName
1000
ACIMINTSYSVAR
1000
AcRTDxfName
1000
ACIMINTSYSVAR
1000
AcRTDxfName
1000
ACIMINTSYSVAR
1000
AcRTDxfName
1000
ACIMINTSYSVAR
  0
ACAD_PROXY_OBJECT
  5
E11
330
DF8
100
AcDbProxyObject
 90
      499
 91
      511
 95
   983063
 70
     0
 93
      124
310
00010142905355941093D49111549010
330
DF8
 94
        0
1001
ACAD
1000
AcRTDxfName
1000
ACIMINTSYSVAR
1000
AcRTDxfName
1000
ACIMINTSYSVAR
1000
AcRTDxfName
1000
ACIMINTSYSVAR
1000
AcRTDxfName
1000
ACIMINTSYSVAR
1000
AcRTDxfName
1000
ACIMINTSYSVAR
1000
AcRTDxfName
1000
ACIMINTSYSVAR
1000
AcRTDxfName
1000
ACIMINTSYSVAR
1000
AcRTDxfName
1000
ACIMINTSYSVAR
1000
AcRTDxfName
1000
ACIMINTSYSVAR
1000
AcRTDxfName
1000
ACIMINTSYSVAR
  0
ACAD_PROXY_OBJECT
  5
E12
330
DF8
100
AcDbProxyObject
 90
      499
 91
      511
 95
   983063
 70
     0
 93
      116
310
0001014290535115D1D0D3D313D4A0
330
DF8
 94
        0
1001
ACAD
1000
AcRTDxfName
1000
ACIMINTSYSVAR
1000
AcRTDxfName
1000
ACIMINTSYSVAR
1000
AcRTDxfName
1000
ACIMINTSYSVAR
1000
AcRTDxfName
1000
ACIMINTSYSVAR
1000
AcRTDxfName
1000
ACIMINTSYSVAR
1000
AcRTDxfName
1000
ACIMINTSYSVAR
1000
AcRTDxfName
1000
ACIMINTSYSVAR
1000
AcRTDxfName
1000
ACIMINTSYSVAR
1000
AcRTDxfName
1000
ACIMINTSYSVAR
1000
AcRTDxfName
1000
ACIMINTSYSVAR
  0
ACAD_PROXY_OBJECT
  5
E13
330
DF8
100
AcDbProxyObject
 90
      499
 91
      511
 95
   983063
 70
     0
 93
      148
310
00010143505355925155D49151949154D21010
330
DF8
 94
        0
1001
ACAD
1000
AcRTDxfName
1000
ACIMINTSYSVAR
1000
AcRTDxfName
1000
ACIMINTSYSVAR
1000
AcRTDxfName
1000
ACIMINTSYSVAR
1000
AcRTDxfName
1000
ACIMINTSYSVAR
1000
AcRTDxfName
1000
ACIMINTSYSVAR
1000
AcRTDxfName
1000
ACIMINTSYSVAR
1000
AcRTDxfName
1000
ACIMINTSYSVAR
1000
AcRTDxfName
1000
ACIMINTSYSVAR
1000
AcRTDxfName
1000
ACIMINTSYSVAR
1000
AcRTDxfName
1000
ACIMINTSYSVAR
  0
ACAD_PROXY_OBJECT
  5
E14
330
DF8
100
AcDbProxyObject
 90
      499
 91
      511
 95
   983063
 70
     0
 93
      172
310
00010144105350539393D51154149154D15495915010
330
DF8
 94
        0
1001
ACAD
1000
AcRTDxfName
1000
ACIMINTSYSVAR
1000
AcRTDxfName
1000
ACIMINTSYSVAR
1000
AcRTDxfName
1000
ACIMINTSYSVAR
1000
AcRTDxfName
1000
ACIMINTSYSVAR
1000
AcRTDxfName
1000
ACIMINTSYSVAR
1000
AcRTDxfName
1000
ACIMINTSYSVAR
1000
AcRTDxfName
1000
ACIMINTSYSVAR
1000
AcRTDxfName
1000
ACIMINTSYSVAR
1000
AcRTDxfName
1000
ACIMINTSYSVAR
1000
AcRTDxfName
1000
ACIMINTSYSVAR
  0
ACAD_PROXY_OBJECT
  5
E18
330
DF8
100
AcDbProxyObject
 90
      499
 91
      511
 95
   983063
 70
     0
 93
      108
310
00010142105354D51114D0D51060
330
DF8
 94
        0
1001
ACAD
1000
AcRTDxfName
1000
ACIMINTSYSVAR
1000
AcRTDxfName
1000
ACIMINTSYSVAR
1000
AcRTDxfName
1000
ACIMINTSYSVAR
1000
AcRTDxfName
1000
ACIMINTSYSVAR
1000
AcRTDxfName
1000
ACIMINTSYSVAR
1000
AcRTDxfName
1000
ACIMINTSYSVAR
1000
AcRTDxfName
1000
ACIMINTSYSVAR
1000
AcRTDxfName
1000
ACIMINTSYSVAR
1000
AcRTDxfName
1000
ACIMINTSYSVAR
1000
AcRTDxfName
1000
ACIMINTSYSVAR
  0
ACAD_PROXY_OBJECT
  5
E19
330
DF8
100
AcDbProxyObject
 90
      499
 91
      511
 95
   983063
 70
     0
 93
      108
310
00010142105354D5111510541060
330
DF8
 94
        0
1001
ACAD
1000
AcRTDxfName
1000
ACIMINTSYSVAR
1000
AcRTDxfName
1000
ACIMINTSYSVAR
1000
AcRTDxfName
1000
ACIMINTSYSVAR
1000
AcRTDxfName
1000
ACIMINTSYSVAR
1000
AcRTDxfName
1000
ACIMINTSYSVAR
1000
AcRTDxfName
1000
ACIMINTSYSVAR
1000
AcRTDxfName
1000
ACIMINTSYSVAR
1000
AcRTDxfName
1000
ACIMINTSYSVAR
1000
AcRTDxfName
1000
ACIMINTSYSVAR
1000
AcRTDxfName
1000
ACIMINTSYSVAR
  0
ACAD_PROXY_OBJECT
  5
E1A
330
DF8
100
AcDbProxyObject
 90
      499
 91
      511
 95
   983063
 70
     0
 93
      108
310
00010142105354D5111115131060
330
DF8
 94
        0
1001
ACAD
1000
AcRTDxfName
1000
ACIMINTSYSVAR
1000
AcRTDxfName
1000
ACIMINTSYSVAR
1000
AcRTDxfName
1000
ACIMINTSYSVAR
1000
AcRTDxfName
1000
ACIMINTSYSVAR
1000
AcRTDxfName
1000
ACIMINTSYSVAR
1000
AcRTDxfName
1000
ACIMINTSYSVAR
1000
AcRTDxfName
1000
ACIMINTSYSVAR
1000
AcRTDxfName
1000
ACIMINTSYSVAR
1000
AcRTDxfName
1000
ACIMINTSYSVAR
1000
AcRTDxfName
1000
ACIMINTSYSVAR
  0
ACAD_PROXY_OBJECT
  5
E1B
330
DF8
100
AcDbProxyObject
 90
      499
 91
      510
 95
   983063
 70
     0
 93
      148
310
00010141905350D310D34295C8FC2F528BC3F0
330
DF8
 94
        0
1001
ACAD
1000
AcRTDxfName
1000
ACIMREALSYSVAR
1000
AcRTDxfName
1000
ACIMREALSYSVAR
1000
AcRTDxfName
1000
ACIMREALSYSVAR
1000
AcRTDxfName
1000
ACIMREALSYSVAR
1000
AcRTDxfName
1000
ACIMREALSYSVAR
1000
AcRTDxfName
1000
ACIMREALSYSVAR
1000
AcRTDxfName
1000
ACIMREALSYSVAR
1000
AcRTDxfName
1000
ACIMREALSYSVAR
1000
AcRTDxfName
1000
ACIMREALSYSVAR
1000
AcRTDxfName
1000
ACIMREALSYSVAR
  0
ACAD_PROXY_OBJECT
  5
E1C
330
DF8
100
AcDbProxyObject
 90
      499
 91
      510
 95
   983063
 70
     0
 93
      156
310
00010141D05350D311D05402B8716D9CEF7C33F0
330
DF8
 94
        0
1001
ACAD
1000
AcRTDxfName
1000
ACIMREALSYSVAR
1000
AcRTDxfName
1000
ACIMREALSYSVAR
1000
AcRTDxfName
1000
ACIMREALSYSVAR
1000
AcRTDxfName
1000
ACIMREALSYSVAR
1000
AcRTDxfName
1000
ACIMREALSYSVAR
1000
AcRTDxfName
1000
ACIMREALSYSVAR
1000
AcRTDxfName
1000
ACIMREALSYSVAR
1000
AcRTDxfName
1000
ACIMREALSYSVAR
1000
AcRTDxfName
1000
ACIMREALSYSVAR
1000
AcRTDxfName
1000
ACIMREALSYSVAR
  0
ACAD_PROXY_OBJECT
  5
E1D
330
DF8
100
AcDbProxyObject
 90
      499
 91
      510
 95
   983063
 70
     0
 93
      164
310
00010142105350D313D4D2150295C8FC2F528BC3F0
330
DF8
 94
        0
1001
ACAD
1000
AcRTDxfName
1000
ACIMREALSYSVAR
1000
AcRTDxfName
1000
ACIMREALSYSVAR
1000
AcRTDxfName
1000
ACIMREALSYSVAR
1000
AcRTDxfName
1000
ACIMREALSYSVAR
1000
AcRTDxfName
1000
ACIMREALSYSVAR
1000
AcRTDxfName
1000
ACIMREALSYSVAR
1000
AcRTDxfName
1000
ACIMREALSYSVAR
1000
AcRTDxfName
1000
ACIMREALSYSVAR
1000
AcRTDxfName
1000
ACIMREALSYSVAR
1000
AcRTDxfName
1000
ACIMREALSYSVAR
  0
ACAD_PROXY_OBJECT
  5
E1E
330
DF8
100
AcDbProxyObject
 90
      499
 91
      511
 95
   983063
 70
     0
 93
      100
310
00010141D05350D31410549010
330
DF8
 94
        0
1001
ACAD
1000
AcRTDxfName
1000
ACIMINTSYSVAR
1000
AcRTDxfName
1000
ACIMINTSYSVAR
1000
AcRTDxfName
1000
ACIMINTSYSVAR
1000
AcRTDxfName
1000
ACIMINTSYSVAR
1000
AcRTDxfName
1000
ACIMINTSYSVAR
1000
AcRTDxfName
1000
ACIMINTSYSVAR
1000
AcRTDxfName
1000
ACIMINTSYSVAR
1000
AcRTDxfName
1000
ACIMINTSYSVAR
1000
AcRTDxfName
1000
ACIMINTSYSVAR
1000
AcRTDxfName
1000
ACIMINTSYSVAR
  0
ACAD_PROXY_OBJECT
  5
E1F
330
DF8
100
AcDbProxyObject
 90
      499
 91
      511
 95
   983063
 70
     0
 93
      100
310
0001014210535590539254D220
330
DF8
 94
        0
1001
ACAD
1000
AcRTDxfName
1000
ACIMINTSYSVAR
1000
AcRTDxfName
1000
ACIMINTSYSVAR
1000
AcRTDxfName
1000
ACIMINTSYSVAR
1000
AcRTDxfName
1000
ACIMINTSYSVAR
1000
AcRTDxfName
1000
ACIMINTSYSVAR
1000
AcRTDxfName
1000
ACIMINTSYSVAR
1000
AcRTDxfName
1000
ACIMINTSYSVAR
1000
AcRTDxfName
1000
ACIMINTSYSVAR
1000
AcRTDxfName
1000
ACIMINTSYSVAR
1000
AcRTDxfName
1000
ACIMINTSYSVAR
  0
ACAD_PROXY_OBJECT
  5
E20
330
DF8
100
AcDbProxyObject
 90
      499
 91
      510
 95
   983063
 70
     0
 93
      188
310
00010142D0535312539155121250D2C295C8FC2F5289C3F0
330
DF8
 94
        0
1001
ACAD
1000
AcRTDxfName
1000
ACIMREALSYSVAR
1000
AcRTDxfName
1000
ACIMREALSYSVAR
1000
AcRTDxfName
1000
ACIMREALSYSVAR
1000
AcRTDxfName
1000
ACIMREALSYSVAR
1000
AcRTDxfName
1000
ACIMREALSYSVAR
1000
AcRTDxfName
1000
ACIMREALSYSVAR
1000
AcRTDxfName
1000
ACIMREALSYSVAR
1000
AcRTDxfName
1000
ACIMREALSYSVAR
1000
AcRTDxfName
1000
ACIMREALSYSVAR
1000
AcRTDxfName
1000
ACIMREALSYSVAR
  0
ACAD_PROXY_OBJECT
  5
E21
330
DF8
100
AcDbProxyObject
 90
      499
 91
      511
 95
   983063
 70
     0
 93
      172
310
00010144105350555513D11253505494905391D15010
330
DF8
 94
        0
1001
ACAD
1000
AcRTDxfName
1000
ACIMINTSYSVAR
1000
AcRTDxfName
1000
ACIMINTSYSVAR
1000
AcRTDxfName
1000
ACIMINTSYSVAR
1000
AcRTDxfName
1000
ACIMINTSYSVAR
1000
AcRTDxfName
1000
ACIMINTSYSVAR
1000
AcRTDxfName
1000
ACIMINTSYSVAR
1000
AcRTDxfName
1000
ACIMINTSYSVAR
1000
AcRTDxfName
1000
ACIMINTSYSVAR
1000
AcRTDxfName
1000
ACIMINTSYSVAR
1000
AcRTDxfName
1000
ACIMINTSYSVAR
  0
ACAD_PROXY_OBJECT
  5
E22
330
DF8
100
AcDbProxyObject
 90
      499
 91
      511
 95
   983063
 70
     0
 93
      124
310
00010142D05351561514915191125360
330
DF8
 94
        0
1001
ACAD
1000
AcRTDxfName
1000
ACIMINTSYSVAR
1000
AcRTDxfName
1000
ACIMINTSYSVAR
1000
AcRTDxfName
1000
ACIMINTSYSVAR
1000
AcRTDxfName
1000
ACIMINTSYSVAR
1000
AcRTDxfName
1000
ACIMINTSYSVAR
1000
AcRTDxfName
1000
ACIMINTSYSVAR
1000
AcRTDxfName
1000
ACIMINTSYSVAR
1000
AcRTDxfName
1000
ACIMINTSYSVAR
1000
AcRTDxfName
1000
ACIMINTSYSVAR
1000
AcRTDxfName
1000
ACIMINTSYSVAR
  0
ACAD_PROXY_OBJECT
  5
E23
330
DF8
100
AcDbProxyObject
 90
      499
 91
      511
 95
   983063
 70
     0
 93
      132
310
00010142D05355105410539393D5115010
330
DF8
 94
        0
1001
ACAD
1000
AcRTDxfName
1000
ACIMINTSYSVAR
1000
AcRTDxfName
1000
ACIMINTSYSVAR
1000
AcRTDxfName
1000
ACIMINTSYSVAR
1000
AcRTDxfName
1000
ACIMINTSYSVAR
1000
AcRTDxfName
1000
ACIMINTSYSVAR
1000
AcRTDxfName
1000
ACIMINTSYSVAR
1000
AcRTDxfName
1000
ACIMINTSYSVAR
1000
AcRTDxfName
1000
ACIMINTSYSVAR
1000
AcRTDxfName
1000
ACIMINTSYSVAR
1000
AcRTDxfName
1000
ACIMINTSYSVAR
  0
ACAD_PROXY_OBJECT
  5
E24
330
DF8
100
AcDbProxyObject
 90
      499
 91
      511
 95
   983063
 70
     0
 93
      108
310
00010142105350555513D0D31010
330
DF8
 94
        0
1001
ACAD
1000
AcRTDxfName
1000
ACIMINTSYSVAR
1000
AcRTDxfName
1000
ACIMINTSYSVAR
1000
AcRTDxfName
1000
ACIMINTSYSVAR
1000
AcRTDxfName
1000
ACIMINTSYSVAR
1000
AcRTDxfName
1000
ACIMINTSYSVAR
1000
AcRTDxfName
1000
ACIMINTSYSVAR
1000
AcRTDxfName
1000
ACIMINTSYSVAR
1000
AcRTDxfName
1000
ACIMINTSYSVAR
1000
AcRTDxfName
1000
ACIMINTSYSVAR
1000
AcRTDxfName
1000
ACIMINTSYSVAR
  0
ACAD_PROXY_OBJECT
  5
E25
330
DF8
100
AcDbProxyObject
 90
      499
 91
      511
 95
   983063
 70
     0
 93
      108
310
00010142105350D3119150551050
330
DF8
 94
        0
1001
ACAD
1000
AcRTDxfName
1000
ACIMINTSYSVAR
1000
AcRTDxfName
1000
ACIMINTSYSVAR
1000
AcRTDxfName
1000
ACIMINTSYSVAR
1000
AcRTDxfName
1000
ACIMINTSYSVAR
1000
AcRTDxfName
1000
ACIMINTSYSVAR
1000
AcRTDxfName
1000
ACIMINTSYSVAR
1000
AcRTDxfName
1000
ACIMINTSYSVAR
1000
AcRTDxfName
1000
ACIMINTSYSVAR
1000
AcRTDxfName
1000
ACIMINTSYSVAR
1000
AcRTDxfName
1000
ACIMINTSYSVAR
  0
ACAD_PROXY_OBJECT
  5
E26
330
DF8
100
AcDbProxyObject
 90
      499
 91
      511
 95
   983063
 70
     0
 93
      108
310
00010142105350D315925155D3F0
330
DF8
 94
        0
1001
ACAD
1000
AcRTDxfName
1000
ACIMINTSYSVAR
1000
AcRTDxfName
1000
ACIMINTSYSVAR
1000
AcRTDxfName
1000
ACIMINTSYSVAR
1000
AcRTDxfName
1000
ACIMINTSYSVAR
1000
AcRTDxfName
1000
ACIMINTSYSVAR
1000
AcRTDxfName
1000
ACIMINTSYSVAR
1000
AcRTDxfName
1000
ACIMINTSYSVAR
1000
AcRTDxfName
1000
ACIMINTSYSVAR
1000
AcRTDxfName
1000
ACIMINTSYSVAR
1000
AcRTDxfName
1000
ACIMINTSYSVAR
  0
ACAD_PROXY_OBJECT
  5
E27
330
DF8
100
AcDbProxyObject
 90
      499
 91
      511
 95
   983063
 70
     0
 93
      148
310
0001014350535212511156915493D112535010
330
DF8
 94
        0
1001
ACAD
1000
AcRTDxfName
1000
ACIMINTSYSVAR
1000
AcRTDxfName
1000
ACIMINTSYSVAR
1000
AcRTDxfName
1000
ACIMINTSYSVAR
1000
AcRTDxfName
1000
ACIMINTSYSVAR
1000
AcRTDxfName
1000
ACIMINTSYSVAR
1000
AcRTDxfName
1000
ACIMINTSYSVAR
1000
AcRTDxfName
1000
ACIMINTSYSVAR
1000
AcRTDxfName
1000
ACIMINTSYSVAR
1000
AcRTDxfName
1000
ACIMINTSYSVAR
1000
AcRTDxfName
1000
ACIMINTSYSVAR
  0
ACAD_PROXY_OBJECT
  5
E28
330
DF8
100
AcDbProxyObject
 90
      499
 91
      511
 95
   983063
 70
     0
 93
      116
310
00010142905352105510D21254D3E0
330
DF8
 94
        0
1001
ACAD
1000
AcRTDxfName
1000
ACIMINTSYSVAR
1000
AcRTDxfName
1000
ACIMINTSYSVAR
1000
AcRTDxfName
1000
ACIMINTSYSVAR
1000
AcRTDxfName
1000
ACIMINTSYSVAR
1000
AcRTDxfName
1000
ACIMINTSYSVAR
1000
AcRTDxfName
1000
ACIMINTSYSVAR
1000
AcRTDxfName
1000
ACIMINTSYSVAR
1000
AcRTDxfName
1000
ACIMINTSYSVAR
1000
AcRTDxfName
1000
ACIMINTSYSVAR
1000
AcRTDxfName
1000
ACIMINTSYSVAR
  0
ACAD_PROXY_OBJECT
  5
E29
330
DF8
100
AcDbProxyObject
 90
      499
 91
      511
 95
   983063
 70
     0
 93
      148
310
00010143905354D25391D31152105513105660
330
DF8
 94
        0
1001
ACAD
1000
AcRTDxfName
1000
ACIMINTSYSVAR
1000
AcRTDxfName
1000
ACIMINTSYSVAR
1000
AcRTDxfName
1000
ACIMINTSYSVAR
1000
AcRTDxfName
1000
ACIMINTSYSVAR
1000
AcRTDxfName
1000
ACIMINTSYSVAR
1000
AcRTDxfName
1000
ACIMINTSYSVAR
1000
AcRTDxfName
1000
ACIMINTSYSVAR
1000
AcRTDxfName
1000
ACIMINTSYSVAR
1000
AcRTDxfName
1000
ACIMINTSYSVAR
1000
AcRTDxfName
1000
ACIMINTSYSVAR
  0
ACAD_PROXY_OBJECT
  5
E35
330
DF8
100
AcDbProxyObject
 90
      499
 91
      511
 95
   983063
 70
     0
 93
      116
310
000101425053541051D15311539190
330
DF8
 94
        0
1001
ACAD
1000
AcRTDxfName
1000
ACIMINTSYSVAR
1000
AcRTDxfName
1000
ACIMINTSYSVAR
1000
AcRTDxfName
1000
ACIMINTSYSVAR
1000
AcRTDxfName
1000
ACIMINTSYSVAR
1000
AcRTDxfName
1000
ACIMINTSYSVAR
1000
AcRTDxfName
1000
ACIMINTSYSVAR
1000
AcRTDxfName
1000
ACIMINTSYSVAR
1000
AcRTDxfName
1000
ACIMINTSYSVAR
1000
AcRTDxfName
1000
ACIMINTSYSVAR
1000
AcRTDxfName
1000
ACIMINTSYSVAR
  0
ACAD_PROXY_OBJECT
  5
E36
330
DF8
100
AcDbProxyObject
 90
      499
 91
      511
 95
   983063
 70
     0
 93
      108
310
000101421053555312539154D050
330
DF8
 94
        0
1001
ACAD
1000
AcRTDxfName
1000
ACIMINTSYSVAR
1000
AcRTDxfName
1000
ACIMINTSYSVAR
1000
AcRTDxfName
1000
ACIMINTSYSVAR
1000
AcRTDxfName
1000
ACIMINTSYSVAR
1000
AcRTDxfName
1000
ACIMINTSYSVAR
1000
AcRTDxfName
1000
ACIMINTSYSVAR
1000
AcRTDxfName
1000
ACIMINTSYSVAR
1000
AcRTDxfName
1000
ACIMINTSYSVAR
1000
AcRTDxfName
1000
ACIMINTSYSVAR
1000
AcRTDxfName
1000
ACIMINTSYSVAR
  0
ACAD_PROXY_OBJECT
  5
E37
330
DF8
100
AcDbProxyObject
 90
      499
 91
      511
 95
   983063
 70
     0
 93
      108
310
000101421053559312539154D030
330
DF8
 94
        0
1001
ACAD
1000
AcRTDxfName
1000
ACIMINTSYSVAR
1000
AcRTDxfName
1000
ACIMINTSYSVAR
1000
AcRTDxfName
1000
ACIMINTSYSVAR
1000
AcRTDxfName
1000
ACIMINTSYSVAR
1000
AcRTDxfName
1000
ACIMINTSYSVAR
1000
AcRTDxfName
1000
ACIMINTSYSVAR
1000
AcRTDxfName
1000
ACIMINTSYSVAR
1000
AcRTDxfName
1000
ACIMINTSYSVAR
1000
AcRTDxfName
1000
ACIMINTSYSVAR
1000
AcRTDxfName
1000
ACIMINTSYSVAR
  0
ACAD_PROXY_OBJECT
  5
E38
330
DF8
100
AcDbProxyObject
 90
      499
 91
      511
 95
   983063
 70
     0
 93
      140
310
00010143105354D1911254D41353D1115010
330
DF8
 94
        0
1001
ACAD
1000
AcRTDxfName
1000
ACIMINTSYSVAR
1000
AcRTDxfName
1000
ACIMINTSYSVAR
1000
AcRTDxfName
1000
ACIMINTSYSVAR
1000
AcRTDxfName
1000
ACIMINTSYSVAR
1000
AcRTDxfName
1000
ACIMINTSYSVAR
1000
AcRTDxfName
1000
ACIMINTSYSVAR
1000
AcRTDxfName
1000
ACIMINTSYSVAR
1000
AcRTDxfName
1000
ACIMINTSYSVAR
1000
AcRTDxfName
1000
ACIMINTSYSVAR
1000
AcRTDxfName
1000
ACIMINTSYSVAR
  0
ACAD_PROXY_OBJECT
  5
E39
330
DF8
100
AcDbProxyObject
 90
      499
 91
      510
 95
   983063
 70
     0
 93
      172
310
00010142505354119255105391C1C052DC9A6F104400
330
DF8
 94
        0
1001
ACAD
1000
AcRTDxfName
1000
ACIMREALSYSVAR
1000
AcRTDxfName
1000
ACIMREALSYSVAR
1000
AcRTDxfName
1000
ACIMREALSYSVAR
1000
AcRTDxfName
1000
ACIMREALSYSVAR
1000
AcRTDxfName
1000
ACIMREALSYSVAR
1000
AcRTDxfName
1000
ACIMREALSYSVAR
1000
AcRTDxfName
1000
ACIMREALSYSVAR
1000
AcRTDxfName
1000
ACIMREALSYSVAR
1000
AcRTDxfName
1000
ACIMREALSYSVAR
1000
AcRTDxfName
1000
ACIMREALSYSVAR
  0
ACAD_PROXY_OBJECT
  5
E3A
330
DF8
100
AcDbProxyObject
 90
      499
 91
      510
 95
   983063
 70
     0
 93
      164
310
000101421053559150D05551C000000000000E03F0
330
DF8
 94
        0
1001
ACAD
1000
AcRTDxfName
1000
ACIMREALSYSVAR
1000
AcRTDxfName
1000
ACIMREALSYSVAR
1000
AcRTDxfName
1000
ACIMREALSYSVAR
1000
AcRTDxfName
1000
ACIMREALSYSVAR
1000
AcRTDxfName
1000
ACIMREALSYSVAR
1000
AcRTDxfName
1000
ACIMREALSYSVAR
1000
AcRTDxfName
1000
ACIMREALSYSVAR
1000
AcRTDxfName
1000
ACIMREALSYSVAR
1000
AcRTDxfName
1000
ACIMREALSYSVAR
1000
AcRTDxfName
1000
ACIMREALSYSVAR
  0
ACAD_PROXY_OBJECT
  5
E3B
330
DF8
100
AcDbProxyObject
 90
      499
 91
      510
 95
   983063
 70
     0
 93
      180
310
00010142905350931153911513D307B14AE47E17A843F0
330
DF8
 94
        0
1001
ACAD
1000
AcRTDxfName
1000
ACIMREALSYSVAR
1000
AcRTDxfName
1000
ACIMREALSYSVAR
1000
AcRTDxfName
1000
ACIMREALSYSVAR
1000
AcRTDxfName
1000
ACIMREALSYSVAR
1000
AcRTDxfName
1000
ACIMREALSYSVAR
1000
AcRTDxfName
1000
ACIMREALSYSVAR
1000
AcRTDxfName
1000
ACIMREALSYSVAR
1000
AcRTDxfName
1000
ACIMREALSYSVAR
1000
AcRTDxfName
1000
ACIMREALSYSVAR
1000
AcRTDxfName
1000
ACIMREALSYSVAR
  0
ACAD_PROXY_OBJECT
  5
E3C
330
DF8
100
AcDbProxyObject
 90
      499
 91
      510
 95
   983063
 70
     0
 93
      172
310
0001014250535293D25391D05407B14AE47E17A843F0
330
DF8
 94
        0
1001
ACAD
1000
AcRTDxfName
1000
ACIMREALSYSVAR
1000
AcRTDxfName
1000
ACIMREALSYSVAR
1000
AcRTDxfName
1000
ACIMREALSYSVAR
1000
AcRTDxfName
1000
ACIMREALSYSVAR
1000
AcRTDxfName
1000
ACIMREALSYSVAR
1000
AcRTDxfName
1000
ACIMREALSYSVAR
1000
AcRTDxfName
1000
ACIMREALSYSVAR
1000
AcRTDxfName
1000
ACIMREALSYSVAR
1000
AcRTDxfName
1000
ACIMREALSYSVAR
1000
AcRTDxfName
1000
ACIMREALSYSVAR
  0
ACAD_PROXY_OBJECT
  5
E3D
330
DF8
100
AcDbProxyObject
 90
      499
 91
      510
 95
   983063
 70
     0
 93
      172
310
000101425053541192551311538000000FC83D797410
330
DF8
 94
        0
1001
ACAD
1000
AcRTDxfName
1000
ACIMREALSYSVAR
1000
AcRTDxfName
1000
ACIMREALSYSVAR
1000
AcRTDxfName
1000
ACIMREALSYSVAR
1000
AcRTDxfName
1000
ACIMREALSYSVAR
1000
AcRTDxfName
1000
ACIMREALSYSVAR
1000
AcRTDxfName
1000
ACIMREALSYSVAR
1000
AcRTDxfName
1000
ACIMREALSYSVAR
1000
AcRTDxfName
1000
ACIMREALSYSVAR
1000
AcRTDxfName
1000
ACIMREALSYSVAR
1000
AcRTDxfName
1000
ACIMREALSYSVAR
  0
ACAD_PROXY_OBJECT
  5
E3E
330
DF8
100
AcDbProxyObject
 90
      499
 91
      510
 95
   983063
 70
     0
 93
      156
310
00010141D053559150D4D18000000000000E03F0
330
DF8
 94
        0
1001
ACAD
1000
AcRTDxfName
1000
ACIMREALSYSVAR
1000
AcRTDxfName
1000
ACIMREALSYSVAR
1000
AcRTDxfName
1000
ACIMREALSYSVAR
1000
AcRTDxfName
1000
ACIMREALSYSVAR
1000
AcRTDxfName
1000
ACIMREALSYSVAR
1000
AcRTDxfName
1000
ACIMREALSYSVAR
1000
AcRTDxfName
1000
ACIMREALSYSVAR
1000
AcRTDxfName
1000
ACIMREALSYSVAR
1000
AcRTDxfName
1000
ACIMREALSYSVAR
1000
AcRTDxfName
1000
ACIMREALSYSVAR
  0
ACAD_PROXY_OBJECT
  5
E3F
330
DF8
100
AcDbProxyObject
 90
      499
 91
      510
 95
   983063
 70
     0
 93
      156
310
00010141D05354D19513D30FCA9F1D24D62503F0
330
DF8
 94
        0
1001
ACAD
1000
AcRTDxfName
1000
ACIMREALSYSVAR
1000
AcRTDxfName
1000
ACIMREALSYSVAR
1000
AcRTDxfName
1000
ACIMREALSYSVAR
1000
AcRTDxfName
1000
ACIMREALSYSVAR
1000
AcRTDxfName
1000
ACIMREALSYSVAR
1000
AcRTDxfName
1000
ACIMREALSYSVAR
1000
AcRTDxfName
1000
ACIMREALSYSVAR
1000
AcRTDxfName
1000
ACIMREALSYSVAR
1000
AcRTDxfName
1000
ACIMREALSYSVAR
1000
AcRTDxfName
1000
ACIMREALSYSVAR
  0
ACAD_PROXY_OBJECT
  5
E40
330
DF8
100
AcDbProxyObject
 90
      499
 91
      510
 95
   983063
 70
     0
 93
      172
310
000101425053541192551513D307B14AE47E17A843F0
330
DF8
 94
        0
1001
ACAD
1000
AcRTDxfName
1000
ACIMREALSYSVAR
1000
AcRTDxfName
1000
ACIMREALSYSVAR
1000
AcRTDxfName
1000
ACIMREALSYSVAR
1000
AcRTDxfName
1000
ACIMREALSYSVAR
1000
AcRTDxfName
1000
ACIMREALSYSVAR
1000
AcRTDxfName
1000
ACIMREALSYSVAR
1000
AcRTDxfName
1000
ACIMREALSYSVAR
1000
AcRTDxfName
1000
ACIMREALSYSVAR
1000
AcRTDxfName
1000
ACIMREALSYSVAR
1000
AcRTDxfName
1000
ACIMREALSYSVAR
  0
ACAD_PROXY_OBJECT
  5
E41
330
DF8
100
AcDbProxyObject
 90
      499
 91
      510
 95
   983063
 70
     0
 93
      188
310
00010142D05354D151D192551513D307B14AE47E17A843F0
330
DF8
 94
        0
1001
ACAD
1000
AcRTDxfName
1000
ACIMREALSYSVAR
1000
AcRTDxfName
1000
ACIMREALSYSVAR
1000
AcRTDxfName
1000
ACIMREALSYSVAR
1000
AcRTDxfName
1000
ACIMREALSYSVAR
1000
AcRTDxfName
1000
ACIMREALSYSVAR
1000
AcRTDxfName
1000
ACIMREALSYSVAR
1000
AcRTDxfName
1000
ACIMREALSYSVAR
1000
AcRTDxfName
1000
ACIMREALSYSVAR
1000
AcRTDxfName
1000
ACIMREALSYSVAR
1000
AcRTDxfName
1000
ACIMREALSYSVAR
  0
ACAD_PROXY_OBJECT
  5
E42
330
DF8
100
AcDbProxyObject
 90
      499
 91
      510
 95
   983063
 70
     0
 93
      148
310
000101419053541311538000000FC83D797410
330
DF8
 94
        0
1001
ACAD
1000
AcRTDxfName
1000
ACIMREALSYSVAR
1000
AcRTDxfName
1000
ACIMREALSYSVAR
1000
AcRTDxfName
1000
ACIMREALSYSVAR
1000
AcRTDxfName
1000
ACIMREALSYSVAR
1000
AcRTDxfName
1000
ACIMREALSYSVAR
1000
AcRTDxfName
1000
ACIMREALSYSVAR
1000
AcRTDxfName
1000
ACIMREALSYSVAR
1000
AcRTDxfName
1000
ACIMREALSYSVAR
1000
AcRTDxfName
1000
ACIMREALSYSVAR
1000
AcRTDxfName
1000
ACIMREALSYSVAR
  0
ACAD_PROXY_OBJECT
  5
E43
330
DF8
100
AcDbProxyObject
 90
      499
 91
      510
 95
   983063
 70
     0
 93
      172
310
00010142505354105391D513D301C052DC9A6F104400
330
DF8
 94
        0
1001
ACAD
1000
AcRTDxfName
1000
ACIMREALSYSVAR
1000
AcRTDxfName
1000
ACIMREALSYSVAR
1000
AcRTDxfName
1000
ACIMREALSYSVAR
1000
AcRTDxfName
1000
ACIMREALSYSVAR
1000
AcRTDxfName
1000
ACIMREALSYSVAR
1000
AcRTDxfName
1000
ACIMREALSYSVAR
1000
AcRTDxfName
1000
ACIMREALSYSVAR
1000
AcRTDxfName
1000
ACIMREALSYSVAR
1000
AcRTDxfName
1000
ACIMREALSYSVAR
1000
AcRTDxfName
1000
ACIMREALSYSVAR
  0
ACAD_PROXY_OBJECT
  5
E44
330
DF8
100
AcDbProxyObject
 90
      499
 91
      510
 95
   983063
 70
     0
 93
      132
310
0001014114D25691400000000000024400
330
DF8
 94
        0
1001
ACAD
1000
AcRTDxfName
1000
ACIMREALSYSVAR
1000
AcRTDxfName
1000
ACIMREALSYSVAR
1000
AcRTDxfName
1000
ACIMREALSYSVAR
1000
AcRTDxfName
1000
ACIMREALSYSVAR
1000
AcRTDxfName
1000
ACIMREALSYSVAR
1000
AcRTDxfName
1000
ACIMREALSYSVAR
1000
AcRTDxfName
1000
ACIMREALSYSVAR
1000
AcRTDxfName
1000
ACIMREALSYSVAR
1000
AcRTDxfName
1000
ACIMREALSYSVAR
1000
AcRTDxfName
1000
ACIMREALSYSVAR
  0
ACAD_PROXY_OBJECT
  5
E45
330
DF8
100
AcDbProxyObject
 90
      499
 91
      531
 95
   983063
 70
     0
 93
      156
310
00010142905351D4941491519256005034153470
330
DF8
 94
        0
1001
ACAD
1000
AcRTDxfName
1000
ACIMSTRSYSVAR
1000
AcRTDxfName
1000
ACIMSTRSYSVAR
1000
AcRTDxfName
1000
ACIMSTRSYSVAR
1000
AcRTDxfName
1000
ACIMSTRSYSVAR
1000
AcRTDxfName
1000
ACIMSTRSYSVAR
1000
AcRTDxfName
1000
ACIMSTRSYSVAR
1000
AcRTDxfName
1000
ACIMSTRSYSVAR
1000
AcRTDxfName
1000
ACIMSTRSYSVAR
1000
AcRTDxfName
1000
ACIMSTRSYSVAR
1000
AcRTDxfName
1000
ACIMSTRSYSVAR
  0
ACAD_PROXY_OBJECT
  5
E46
330
DF8
100
AcDbProxyObject
 90
      499
 91
      532
 95
   983063
 70
     0
 93
      314
310
00014080509646973745363616C650000000000003C2FC000000000000F0BF0000003F20F5E5D040
330
DF8
 94
        0
1001
ACAD
1000
AcRTDxfName
1000
ACIMDBLSTATICVAR
1000
AcRTDxfName
1000
ACIMDBLSTATICVAR
1000
AcRTDxfName
1000
ACIMDBLSTATICVAR
1000
AcRTDxfName
1000
ACIMDBLSTATICVAR
1000
AcRTDxfName
1000
ACIMDBLSTATICVAR
1000
AcRTDxfName
1000
ACIMDBLSTATICVAR
1000
AcRTDxfName
1000
ACIMDBLSTATICVAR
1000
AcRTDxfName
1000
ACIMDBLSTATICVAR
1000
AcRTDxfName
1000
ACIMDBLSTATICVAR
1000
AcRTDxfName
1000
ACIMDBLSTATICVAR
  0
ACAD_PROXY_OBJECT
  5
E47
330
DF8
100
AcDbProxyObject
 90
      499
 91
      532
 95
   983063
 70
     0
 93
      322
310
0001408050A65646175526F74617465060B51153EC87E4FC182D4454FB2119C0060B51153EC8465000
330
DF8
 94
        0
1001
ACAD
1000
AcRTDxfName
1000
ACIMDBLSTATICVAR
1000
AcRTDxfName
1000
ACIMDBLSTATICVAR
1000
AcRTDxfName
1000
ACIMDBLSTATICVAR
1000
AcRTDxfName
1000
ACIMDBLSTATICVAR
1000
AcRTDxfName
1000
ACIMDBLSTATICVAR
1000
AcRTDxfName
1000
ACIMDBLSTATICVAR
1000
AcRTDxfName
1000
ACIMDBLSTATICVAR
1000
AcRTDxfName
1000
ACIMDBLSTATICVAR
1000
AcRTDxfName
1000
ACIMDBLSTATICVAR
1000
AcRTDxfName
1000
ACIMDBLSTATICVAR
  0
ACAD_PROXY_OBJECT
  5
E48
330
DF8
100
AcDbProxyObject
 90
      499
 91
      532
 95
   983063
 70
     0
 93
      314
310
00014080509656461755477697374060B51153EC846500000000FC83D797C10000003F20F5E5D040
330
DF8
 94
        0
1001
ACAD
1000
AcRTDxfName
1000
ACIMDBLSTATICVAR
1000
AcRTDxfName
1000
ACIMDBLSTATICVAR
1000
AcRTDxfName
1000
ACIMDBLSTATICVAR
1000
AcRTDxfName
1000
ACIMDBLSTATICVAR
1000
AcRTDxfName
1000
ACIMDBLSTATICVAR
1000
AcRTDxfName
1000
ACIMDBLSTATICVAR
1000
AcRTDxfName
1000
ACIMDBLSTATICVAR
1000
AcRTDxfName
1000
ACIMDBLSTATICVAR
1000
AcRTDxfName
1000
ACIMDBLSTATICVAR
1000
AcRTDxfName
1000
ACIMDBLSTATICVAR
  0
ACAD_PROXY_OBJECT
  5
E49
330
DF8
100
AcDbProxyObject
 90
      499
 91
      533
 95
   983063
 70
     0
 93
      294
310
000140C050A656467654F75747075740144F3B7F635ECB74A140A4817D41BDB1E5B1A5B994
330
DF8
 94
        0
1001
ACAD
1000
AcRTDxfName
1000
ACIMSTRSTATICVAR
1000
AcRTDxfName
1000
ACIMSTRSTATICVAR
1000
AcRTDxfName
1000
ACIMSTRSTATICVAR
1000
AcRTDxfName
1000
ACIMSTRSTATICVAR
1000
AcRTDxfName
1000
ACIMSTRSTATICVAR
1000
AcRTDxfName
1000
ACIMSTRSTATICVAR
1000
AcRTDxfName
1000
ACIMSTRSTATICVAR
1000
AcRTDxfName
1000
ACIMSTRSTATICVAR
1000
AcRTDxfName
1000
ACIMSTRSTATICVAR
1000
AcRTDxfName
1000
ACIMSTRSTATICVAR
  0
ACAD_PROXY_OBJECT
  5
E4A
330
DF8
100
AcDbProxyObject
 90
      499
 91
      534
 95
   983063
 70
     0
 93
      154
310
0001404050B65646974507265766965774064040
330
DF8
 94
        0
1001
ACAD
1000
AcRTDxfName
1000
ACIMINTSTATICVAR
1000
AcRTDxfName
1000
ACIMINTSTATICVAR
1000
AcRTDxfName
1000
ACIMINTSTATICVAR
1000
AcRTDxfName
1000
ACIMINTSTATICVAR
1000
AcRTDxfName
1000
ACIMINTSTATICVAR
1000
AcRTDxfName
1000
ACIMINTSTATICVAR
1000
AcRTDxfName
1000
ACIMINTSTATICVAR
1000
AcRTDxfName
1000
ACIMINTSTATICVAR
1000
AcRTDxfName
1000
ACIMINTSTATICVAR
1000
AcRTDxfName
1000
ACIMINTSTATICVAR
  0
ACAD_PROXY_OBJECT
  5
E4B
330
DF8
100
AcDbProxyObject
 90
      499
 91
      534
 95
   983063
 70
     0
 93
      170
310
0001404050A666C6F77556C696E657342A3A00C00000
330
DF8
 94
        0
1001
ACAD
1000
AcRTDxfName
1000
ACIMINTSTATICVAR
1000
AcRTDxfName
1000
ACIMINTSTATICVAR
1000
AcRTDxfName
1000
ACIMINTSTATICVAR
1000
AcRTDxfName
1000
ACIMINTSTATICVAR
1000
AcRTDxfName
1000
ACIMINTSTATICVAR
1000
AcRTDxfName
1000
ACIMINTSTATICVAR
1000
AcRTDxfName
1000
ACIMINTSTATICVAR
1000
AcRTDxfName
1000
ACIMINTSTATICVAR
1000
AcRTDxfName
1000
ACIMINTSTATICVAR
1000
AcRTDxfName
1000
ACIMINTSTATICVAR
  0
ACAD_PROXY_OBJECT
  5
E4C
330
DF8
100
AcDbProxyObject
 90
      499
 91
      534
 95
   983063
 70
     0
 93
      170
310
0001404050A666C6F77566C696E657342A3A00C00000
330
DF8
 94
        0
1001
ACAD
1000
AcRTDxfName
1000
ACIMINTSTATICVAR
1000
AcRTDxfName
1000
ACIMINTSTATICVAR
1000
AcRTDxfName
1000
ACIMINTSTATICVAR
1000
AcRTDxfName
1000
ACIMINTSTATICVAR
1000
AcRTDxfName
1000
ACIMINTSTATICVAR
1000
AcRTDxfName
1000
ACIMINTSTATICVAR
1000
AcRTDxfName
1000
ACIMINTSTATICVAR
1000
AcRTDxfName
1000
ACIMINTSTATICVAR
1000
AcRTDxfName
1000
ACIMINTSTATICVAR
1000
AcRTDxfName
1000
ACIMINTSTATICVAR
  0
ACAD_PROXY_OBJECT
  5
E4D
330
DF8
100
AcDbProxyObject
 90
      499
 91
      532
 95
   983063
 70
     0
 93
      322
310
0001408050A666C7366456E645261640000000000003C2FC000000000000F0BF0000003F20F5E5D040
330
DF8
 94
        0
1001
ACAD
1000
AcRTDxfName
1000
ACIMDBLSTATICVAR
1000
AcRTDxfName
1000
ACIMDBLSTATICVAR
1000
AcRTDxfName
1000
ACIMDBLSTATICVAR
1000
AcRTDxfName
1000
ACIMDBLSTATICVAR
1000
AcRTDxfName
1000
ACIMDBLSTATICVAR
1000
AcRTDxfName
1000
ACIMDBLSTATICVAR
1000
AcRTDxfName
1000
ACIMDBLSTATICVAR
1000
AcRTDxfName
1000
ACIMDBLSTATICVAR
1000
AcRTDxfName
1000
ACIMDBLSTATICVAR
1000
AcRTDxfName
1000
ACIMDBLSTATICVAR
  0
ACAD_PROXY_OBJECT
  5
E4E
330
DF8
100
AcDbProxyObject
 90
      499
 91
      533
 95
   983063
 70
     0
 93
      246
310
000140C05086A6E33644D6F64650143E3BA24EB8A134A4817D3585B9D585B0
330
DF8
 94
        0
1001
ACAD
1000
AcRTDxfName
1000
ACIMSTRSTATICVAR
1000
AcRTDxfName
1000
ACIMSTRSTATICVAR
1000
AcRTDxfName
1000
ACIMSTRSTATICVAR
1000
AcRTDxfName
1000
ACIMSTRSTATICVAR
1000
AcRTDxfName
1000
ACIMSTRSTATICVAR
1000
AcRTDxfName
1000
ACIMSTRSTATICVAR
1000
AcRTDxfName
1000
ACIMSTRSTATICVAR
1000
AcRTDxfName
1000
ACIMSTRSTATICVAR
1000
AcRTDxfName
1000
ACIMSTRSTATICVAR
1000
AcRTDxfName
1000
ACIMSTRSTATICVAR
  0
ACAD_PROXY_OBJECT
  5
E4F
330
DF8
100
AcDbProxyObject
 90
      499
 91
      533
 95
   983063
 70
     0
 93
      294
310
000140C050A6A6E33644F75747075740144F3B7F635ECB74A140A4817D41BDB1E5B1A5B994
330
DF8
 94
        0
1001
ACAD
1000
AcRTDxfName
1000
ACIMSTRSTATICVAR
1000
AcRTDxfName
1000
ACIMSTRSTATICVAR
1000
AcRTDxfName
1000
ACIMSTRSTATICVAR
1000
AcRTDxfName
1000
ACIMSTRSTATICVAR
1000
AcRTDxfName
1000
ACIMSTRSTATICVAR
1000
AcRTDxfName
1000
ACIMSTRSTATICVAR
1000
AcRTDxfName
1000
ACIMSTRSTATICVAR
1000
AcRTDxfName
1000
ACIMSTRSTATICVAR
1000
AcRTDxfName
1000
ACIMSTRSTATICVAR
1000
AcRTDxfName
1000
ACIMSTRSTATICVAR
  0
ACAD_PROXY_OBJECT
  5
E50
330
DF8
100
AcDbProxyObject
 90
      499
 91
      532
 95
   983063
 70
     0
 93
      306
310
000140805086C656E675065726300000000002016D002D431CEBE2361A3F0000003F20F5E5D040
330
DF8
 94
        0
1001
ACAD
1000
AcRTDxfName
1000
ACIMDBLSTATICVAR
1000
AcRTDxfName
1000
ACIMDBLSTATICVAR
1000
AcRTDxfName
1000
ACIMDBLSTATICVAR
1000
AcRTDxfName
1000
ACIMDBLSTATICVAR
1000
AcRTDxfName
1000
ACIMDBLSTATICVAR
1000
AcRTDxfName
1000
ACIMDBLSTATICVAR
1000
AcRTDxfName
1000
ACIMDBLSTATICVAR
1000
AcRTDxfName
1000
ACIMDBLSTATICVAR
1000
AcRTDxfName
1000
ACIMDBLSTATICVAR
1000
AcRTDxfName
1000
ACIMDBLSTATICVAR
  0
ACAD_PROXY_OBJECT
  5
E51
330
DF8
100
AcDbProxyObject
 90
      499
 91
      532
 95
   983063
 70
     0
 93
      266
310
0001408050B6D61737344656E7369747942D431CEBE2361A3F0000003F20F5E5D040
330
DF8
 94
        0
1001
ACAD
1000
AcRTDxfName
1000
ACIMDBLSTATICVAR
1000
AcRTDxfName
1000
ACIMDBLSTATICVAR
1000
AcRTDxfName
1000
ACIMDBLSTATICVAR
1000
AcRTDxfName
1000
ACIMDBLSTATICVAR
1000
AcRTDxfName
1000
ACIMDBLSTATICVAR
1000
AcRTDxfName
1000
ACIMDBLSTATICVAR
1000
AcRTDxfName
1000
ACIMDBLSTATICVAR
1000
AcRTDxfName
1000
ACIMDBLSTATICVAR
1000
AcRTDxfName
1000
ACIMDBLSTATICVAR
1000
AcRTDxfName
1000
ACIMDBLSTATICVAR
  0
ACAD_PROXY_OBJECT
  5
E52
330
DF8
100
AcDbProxyObject
 90
      499
 91
      532
 95
   983063
 70
     0
 93
      186
310
000140805096D617373546869636BA0000003F20F5E5D040
330
DF8
 94
        0
1001
ACAD
1000
AcRTDxfName
1000
ACIMDBLSTATICVAR
1000
AcRTDxfName
1000
ACIMDBLSTATICVAR
1000
AcRTDxfName
1000
ACIMDBLSTATICVAR
1000
AcRTDxfName
1000
ACIMDBLSTATICVAR
1000
AcRTDxfName
1000
ACIMDBLSTATICVAR
1000
AcRTDxfName
1000
ACIMDBLSTATICVAR
1000
AcRTDxfName
1000
ACIMDBLSTATICVAR
1000
AcRTDxfName
1000
ACIMDBLSTATICVAR
1000
AcRTDxfName
1000
ACIMDBLSTATICVAR
1000
AcRTDxfName
1000
ACIMDBLSTATICVAR
  0
ACAD_PROXY_OBJECT
  5
E53
330
DF8
100
AcDbProxyObject
 90
      499
 91
      533
 95
   983063
 70
     0
 93
      230
310
000140C05086D6173735479706501436F2AB64A14CA4817D4DA195B1B0
330
DF8
 94
        0
1001
ACAD
1000
AcRTDxfName
1000
ACIMSTRSTATICVAR
1000
AcRTDxfName
1000
ACIMSTRSTATICVAR
1000
AcRTDxfName
1000
ACIMSTRSTATICVAR
1000
AcRTDxfName
1000
ACIMSTRSTATICVAR
1000
AcRTDxfName
1000
ACIMSTRSTATICVAR
1000
AcRTDxfName
1000
ACIMSTRSTATICVAR
1000
AcRTDxfName
1000
ACIMSTRSTATICVAR
1000
AcRTDxfName
1000
ACIMSTRSTATICVAR
1000
AcRTDxfName
1000
ACIMSTRSTATICVAR
1000
AcRTDxfName
1000
ACIMSTRSTATICVAR
  0
ACAD_PROXY_OBJECT
  5
E54
330
DF8
100
AcDbProxyObject
 90
      499
 91
      532
 95
   983063
 70
     0
 93
      242
310
000140805086F667366446973744000000FC83D797C10000003F20F5E5D040
330
DF8
 94
        0
1001
ACAD
1000
AcRTDxfName
1000
ACIMDBLSTATICVAR
1000
AcRTDxfName
1000
ACIMDBLSTATICVAR
1000
AcRTDxfName
1000
ACIMDBLSTATICVAR
1000
AcRTDxfName
1000
ACIMDBLSTATICVAR
1000
AcRTDxfName
1000
ACIMDBLSTATICVAR
1000
AcRTDxfName
1000
ACIMDBLSTATICVAR
1000
AcRTDxfName
1000
ACIMDBLSTATICVAR
1000
AcRTDxfName
1000
ACIMDBLSTATICVAR
1000
AcRTDxfName
1000
ACIMDBLSTATICVAR
1000
AcRTDxfName
1000
ACIMDBLSTATICVAR
  0
ACAD_PROXY_OBJECT
  5
E55
330
DF8
100
AcDbProxyObject
 90
      499
 91
      532
 95
   983063
 70
     0
 93
      258
310
0001408050A7072696D52616469757342D431CEBE2361A3F0000003F20F5E5D040
330
DF8
 94
        0
1001
ACAD
1000
AcRTDxfName
1000
ACIMDBLSTATICVAR
1000
AcRTDxfName
1000
ACIMDBLSTATICVAR
1000
AcRTDxfName
1000
ACIMDBLSTATICVAR
1000
AcRTDxfName
1000
ACIMDBLSTATICVAR
1000
AcRTDxfName
1000
ACIMDBLSTATICVAR
1000
AcRTDxfName
1000
ACIMDBLSTATICVAR
1000
AcRTDxfName
1000
ACIMDBLSTATICVAR
1000
AcRTDxfName
1000
ACIMDBLSTATICVAR
1000
AcRTDxfName
1000
ACIMDBLSTATICVAR
1000
AcRTDxfName
1000
ACIMDBLSTATICVAR
  0
ACAD_PROXY_OBJECT
  5
E56
330
DF8
100
AcDbProxyObject
 90
      499
 91
      532
 95
   983063
 70
     0
 93
      194
310
0001408050A7072696D546F70526164A0000003F20F5E5D040
330
DF8
 94
        0
1001
ACAD
1000
AcRTDxfName
1000
ACIMDBLSTATICVAR
1000
AcRTDxfName
1000
ACIMDBLSTATICVAR
1000
AcRTDxfName
1000
ACIMDBLSTATICVAR
1000
AcRTDxfName
1000
ACIMDBLSTATICVAR
1000
AcRTDxfName
1000
ACIMDBLSTATICVAR
1000
AcRTDxfName
1000
ACIMDBLSTATICVAR
1000
AcRTDxfName
1000
ACIMDBLSTATICVAR
1000
AcRTDxfName
1000
ACIMDBLSTATICVAR
1000
AcRTDxfName
1000
ACIMDBLSTATICVAR
1000
AcRTDxfName
1000
ACIMDBLSTATICVAR
  0
ACAD_PROXY_OBJECT
  5
E57
330
DF8
100
AcDbProxyObject
 90
      499
 91
      532
 95
   983063
 70
     0
 93
      266
310
0001408050B7072696D5475626552616442D431CEBE2361A3F0000003F20F5E5D040
330
DF8
 94
        0
1001
ACAD
1000
AcRTDxfName
1000
ACIMDBLSTATICVAR
1000
AcRTDxfName
1000
ACIMDBLSTATICVAR
1000
AcRTDxfName
1000
ACIMDBLSTATICVAR
1000
AcRTDxfName
1000
ACIMDBLSTATICVAR
1000
AcRTDxfName
1000
ACIMDBLSTATICVAR
1000
AcRTDxfName
1000
ACIMDBLSTATICVAR
1000
AcRTDxfName
1000
ACIMDBLSTATICVAR
1000
AcRTDxfName
1000
ACIMDBLSTATICVAR
1000
AcRTDxfName
1000
ACIMDBLSTATICVAR
1000
AcRTDxfName
1000
ACIMDBLSTATICVAR
  0
ACAD_PROXY_OBJECT
  5
E58
330
DF8
100
AcDbProxyObject
 90
      499
 91
      532
 95
   983063
 70
     0
 93
      258
310
0001408050A7072696D4865696768744000000FC83D797C10000003F20F5E5D040
330
DF8
 94
        0
1001
ACAD
1000
AcRTDxfName
1000
ACIMDBLSTATICVAR
1000
AcRTDxfName
1000
ACIMDBLSTATICVAR
1000
AcRTDxfName
1000
ACIMDBLSTATICVAR
1000
AcRTDxfName
1000
ACIMDBLSTATICVAR
1000
AcRTDxfName
1000
ACIMDBLSTATICVAR
1000
AcRTDxfName
1000
ACIMDBLSTATICVAR
1000
AcRTDxfName
1000
ACIMDBLSTATICVAR
1000
AcRTDxfName
1000
ACIMDBLSTATICVAR
1000
AcRTDxfName
1000
ACIMDBLSTATICVAR
1000
AcRTDxfName
1000
ACIMDBLSTATICVAR
  0
ACAD_PROXY_OBJECT
  5
E59
330
DF8
100
AcDbProxyObject
 90
      499
 91
      532
 95
   983063
 70
     0
 93
      250
310
000140805097072696D5374416E678182D4454FB2119C0060B51153EC8465000
330
DF8
 94
        0
1001
ACAD
1000
AcRTDxfName
1000
ACIMDBLSTATICVAR
1000
AcRTDxfName
1000
ACIMDBLSTATICVAR
1000
AcRTDxfName
1000
ACIMDBLSTATICVAR
1000
AcRTDxfName
1000
ACIMDBLSTATICVAR
1000
AcRTDxfName
1000
ACIMDBLSTATICVAR
1000
AcRTDxfName
1000
ACIMDBLSTATICVAR
1000
AcRTDxfName
1000
ACIMDBLSTATICVAR
1000
AcRTDxfName
1000
ACIMDBLSTATICVAR
1000
AcRTDxfName
1000
ACIMDBLSTATICVAR
1000
AcRTDxfName
1000
ACIMDBLSTATICVAR
  0
ACAD_PROXY_OBJECT
  5
E5A
330
DF8
100
AcDbProxyObject
 90
      499
 91
      532
 95
   983063
 70
     0
 93
      322
310
0001408050A7072696D456E64416E67060B51153EC846500182D4454FB2119C0060B51153EC8465000
330
DF8
 94
        0
1001
ACAD
1000
AcRTDxfName
1000
ACIMDBLSTATICVAR
1000
AcRTDxfName
1000
ACIMDBLSTATICVAR
1000
AcRTDxfName
1000
ACIMDBLSTATICVAR
1000
AcRTDxfName
1000
ACIMDBLSTATICVAR
1000
AcRTDxfName
1000
ACIMDBLSTATICVAR
1000
AcRTDxfName
1000
ACIMDBLSTATICVAR
1000
AcRTDxfName
1000
ACIMDBLSTATICVAR
1000
AcRTDxfName
1000
ACIMDBLSTATICVAR
1000
AcRTDxfName
1000
ACIMDBLSTATICVAR
1000
AcRTDxfName
1000
ACIMDBLSTATICVAR
  0
ACAD_PROXY_OBJECT
  5
E5B
330
DF8
100
AcDbProxyObject
 90
      499
 91
      532
 95
   983063
 70
     0
 93
      242
310
000140805087265765374416E678182D4454FB2119C0060B51153EC8465000
330
DF8
 94
        0
1001
ACAD
1000
AcRTDxfName
1000
ACIMDBLSTATICVAR
1000
AcRTDxfName
1000
ACIMDBLSTATICVAR
1000
AcRTDxfName
1000
ACIMDBLSTATICVAR
1000
AcRTDxfName
1000
ACIMDBLSTATICVAR
1000
AcRTDxfName
1000
ACIMDBLSTATICVAR
1000
AcRTDxfName
1000
ACIMDBLSTATICVAR
1000
AcRTDxfName
1000
ACIMDBLSTATICVAR
1000
AcRTDxfName
1000
ACIMDBLSTATICVAR
1000
AcRTDxfName
1000
ACIMDBLSTATICVAR
1000
AcRTDxfName
1000
ACIMDBLSTATICVAR
  0
ACAD_PROXY_OBJECT
  5
E5C
330
DF8
100
AcDbProxyObject
 90
      499
 91
      532
 95
   983063
 70
     0
 93
      314
310
00014080509726576456E64416E67060B51153EC846500182D4454FB2119C0060B51153EC8465000
330
DF8
 94
        0
1001
ACAD
1000
AcRTDxfName
1000
ACIMDBLSTATICVAR
1000
AcRTDxfName
1000
ACIMDBLSTATICVAR
1000
AcRTDxfName
1000
ACIMDBLSTATICVAR
1000
AcRTDxfName
1000
ACIMDBLSTATICVAR
1000
AcRTDxfName
1000
ACIMDBLSTATICVAR
1000
AcRTDxfName
1000
ACIMDBLSTATICVAR
1000
AcRTDxfName
1000
ACIMDBLSTATICVAR
1000
AcRTDxfName
1000
ACIMDBLSTATICVAR
1000
AcRTDxfName
1000
ACIMDBLSTATICVAR
1000
AcRTDxfName
1000
ACIMDBLSTATICVAR
  0
ACAD_PROXY_OBJECT
  5
E5D
330
DF8
100
AcDbProxyObject
 90
      499
 91
      534
 95
   983063
 70
     0
 93
      194
310
0001404050C7266736655706174636865734290139C0C00000
330
DF8
 94
        0
1001
ACAD
1000
AcRTDxfName
1000
ACIMINTSTATICVAR
1000
AcRTDxfName
1000
ACIMINTSTATICVAR
1000
AcRTDxfName
1000
ACIMINTSTATICVAR
1000
AcRTDxfName
1000
ACIMINTSTATICVAR
1000
AcRTDxfName
1000
ACIMINTSTATICVAR
1000
AcRTDxfName
1000
ACIMINTSTATICVAR
1000
AcRTDxfName
1000
ACIMINTSTATICVAR
1000
AcRTDxfName
1000
ACIMINTSTATICVAR
1000
AcRTDxfName
1000
ACIMINTSTATICVAR
1000
AcRTDxfName
1000
ACIMINTSTATICVAR
  0
ACAD_PROXY_OBJECT
  5
E5E
330
DF8
100
AcDbProxyObject
 90
      499
 91
      534
 95
   983063
 70
     0
 93
      194
310
0001404050C7266736656706174636865734290139C0C00000
330
DF8
 94
        0
1001
ACAD
1000
AcRTDxfName
1000
ACIMINTSTATICVAR
1000
AcRTDxfName
1000
ACIMINTSTATICVAR
1000
AcRTDxfName
1000
ACIMINTSTATICVAR
1000
AcRTDxfName
1000
ACIMINTSTATICVAR
1000
AcRTDxfName
1000
ACIMINTSTATICVAR
1000
AcRTDxfName
1000
ACIMINTSTATICVAR
1000
AcRTDxfName
1000
ACIMINTSTATICVAR
1000
AcRTDxfName
1000
ACIMINTSTATICVAR
1000
AcRTDxfName
1000
ACIMINTSTATICVAR
1000
AcRTDxfName
1000
ACIMINTSTATICVAR
  0
ACAD_PROXY_OBJECT
  5
E5F
330
DF8
100
AcDbProxyObject
 90
      499
 91
      533
 95
   983063
 70
     0
 93
      246
310
000140C0508747562654D6F64650143E3BA24EB8A134A4817D3585B9D585B0
330
DF8
 94
        0
1001
ACAD
1000
AcRTDxfName
1000
ACIMSTRSTATICVAR
1000
AcRTDxfName
1000
ACIMSTRSTATICVAR
1000
AcRTDxfName
1000
ACIMSTRSTATICVAR
1000
AcRTDxfName
1000
ACIMSTRSTATICVAR
1000
AcRTDxfName
1000
ACIMSTRSTATICVAR
1000
AcRTDxfName
1000
ACIMSTRSTATICVAR
1000
AcRTDxfName
1000
ACIMSTRSTATICVAR
1000
AcRTDxfName
1000
ACIMSTRSTATICVAR
1000
AcRTDxfName
1000
ACIMSTRSTATICVAR
1000
AcRTDxfName
1000
ACIMSTRSTATICVAR
  0
ACAD_PROXY_OBJECT
  5
E60
330
DF8
100
AcDbProxyObject
 90
      499
 91
      532
 95
   983063
 70
     0
 93
      274
310
0001408050C747562654469616D6574657242D431CEBE2361A3F0000003F20F5E5D040
330
DF8
 94
        0
1001
ACAD
1000
AcRTDxfName
1000
ACIMDBLSTATICVAR
1000
AcRTDxfName
1000
ACIMDBLSTATICVAR
1000
AcRTDxfName
1000
ACIMDBLSTATICVAR
1000
AcRTDxfName
1000
ACIMDBLSTATICVAR
1000
AcRTDxfName
1000
ACIMDBLSTATICVAR
1000
AcRTDxfName
1000
ACIMDBLSTATICVAR
1000
AcRTDxfName
1000
ACIMDBLSTATICVAR
1000
AcRTDxfName
1000
ACIMDBLSTATICVAR
1000
AcRTDxfName
1000
ACIMDBLSTATICVAR
1000
AcRTDxfName
1000
ACIMDBLSTATICVAR
  0
ACAD_PROXY_OBJECT
  5
E61
330
DF8
100
AcDbProxyObject
 90
      499
 91
      532
 95
   983063
 70
     0
 93
      314
310
00014080509626C656E644261636B0000000000000D1002D431CEBE2361A3F000000000000165000
330
DF8
 94
        0
1001
ACAD
1000
AcRTDxfName
1000
ACIMDBLSTATICVAR
1000
AcRTDxfName
1000
ACIMDBLSTATICVAR
1000
AcRTDxfName
1000
ACIMDBLSTATICVAR
1000
AcRTDxfName
1000
ACIMDBLSTATICVAR
1000
AcRTDxfName
1000
ACIMDBLSTATICVAR
1000
AcRTDxfName
1000
ACIMDBLSTATICVAR
1000
AcRTDxfName
1000
ACIMDBLSTATICVAR
1000
AcRTDxfName
1000
ACIMDBLSTATICVAR
1000
AcRTDxfName
1000
ACIMDBLSTATICVAR
1000
AcRTDxfName
1000
ACIMDBLSTATICVAR
  0
ACAD_PROXY_OBJECT
  5
E62
330
DF8
100
AcDbProxyObject
 90
      499
 91
      534
 95
   983063
 70
     0
 93
      130
310
00014040509696E746572506F6C79A4040
330
DF8
 94
        0
1001
ACAD
1000
AcRTDxfName
1000
ACIMINTSTATICVAR
1000
AcRTDxfName
1000
ACIMINTSTATICVAR
1000
AcRTDxfName
1000
ACIMINTSTATICVAR
1000
AcRTDxfName
1000
ACIMINTSTATICVAR
1000
AcRTDxfName
1000
ACIMINTSTATICVAR
1000
AcRTDxfName
1000
ACIMINTSTATICVAR
1000
AcRTDxfName
1000
ACIMINTSTATICVAR
1000
AcRTDxfName
1000
ACIMINTSTATICVAR
1000
AcRTDxfName
1000
ACIMINTSTATICVAR
1000
AcRTDxfName
1000
ACIMINTSTATICVAR
  0
ACAD_PROXY_OBJECT
  5
E63
330
DF8
100
AcDbProxyObject
 90
      499
 91
      534
 95
   983063
 70
     0
 93
      146
310
0001404050A70726F6A4F757470757440A4080
330
DF8
 94
        0
1001
ACAD
1000
AcRTDxfName
1000
ACIMINTSTATICVAR
1000
AcRTDxfName
1000
ACIMINTSTATICVAR
1000
AcRTDxfName
1000
ACIMINTSTATICVAR
1000
AcRTDxfName
1000
ACIMINTSTATICVAR
1000
AcRTDxfName
1000
ACIMINTSTATICVAR
1000
AcRTDxfName
1000
ACIMINTSTATICVAR
1000
AcRTDxfName
1000
ACIMINTSTATICVAR
1000
AcRTDxfName
1000
ACIMINTSTATICVAR
1000
AcRTDxfName
1000
ACIMINTSTATICVAR
1000
AcRTDxfName
1000
ACIMINTSTATICVAR
  0
ACAD_PROXY_OBJECT
  5
E6D
330
DF8
100
AcDbProxyObject
 90
      499
 91
      541
 95
   983063
 70
     0
 93
      666
310
0001000000009AA6A9AA40518467269204D61792030322031383A35373A3030203230303301420D0B8C4B8CCB8C4C00518467269204D61792030322031393A31333A3335203230303301420D0B8C4B8CCB8C4C00
330
DF8
330
E6E
330
E6F
330
E71
330
0
 94
        0
1001
ACAD
1000
AcRTDxfName
1000
ADAPPL
1000
AcRTDxfName
1000
ADAPPL
1000
AcRTDxfName
1000
ADAPPL
1000
AcRTDxfName
1000
ADAPPL
1000
AcRTDxfName
1000
ADAPPL
1000
AcRTDxfName
1000
ADAPPL
1000
AcRTDxfName
1000
ADAPPL
1000
AcRTDxfName
1000
ADAPPL
1000
AcRTDxfName
1000
ADAPPL
1000
AcRTDxfName
1000
ADAPPL
  0
ACAD_PROXY_OBJECT
  5
E6E
330
DF8
100
AcDbProxyObject
 90
      499
 91
      542
 95
   983063
 70
     0
 93
       70
310
0001AAA80820000000
330
DF8
330
E6E
330
E6E
 94
        0
1001
ACAD
1000
AcRTDxfName
1000
DEPMGR
1000
AcRTDxfName
1000
DEPMGR
1000
AcRTDxfName
1000
DEPMGR
1000
AcRTDxfName
1000
DEPMGR
1000
AcRTDxfName
1000
DEPMGR
1000
AcRTDxfName
1000
DEPMGR
1000
AcRTDxfName
1000
DEPMGR
1000
AcRTDxfName
1000
DEPMGR
1000
AcRTDxfName
1000
DEPMGR
1000
AcRTDxfName
1000
DEPMGR
  0
ACAD_PROXY_OBJECT
  5
E6F
330
DF8
100
AcDbProxyObject
 90
      499
 91
      543
 95
   983063
 70
     0
 93
       48
310
000100000000
330
DF8
330
0
330
E70
330
0
330
0
 94
        0
1001
ACAD
1000
AcRTDxfName
1000
PARAMMGR
1000
AcRTDxfName
1000
PARAMMGR
1000
AcRTDxfName
1000
PARAMMGR
1000
AcRTDxfName
1000
PARAMMGR
1000
AcRTDxfName
1000
PARAMMGR
1000
AcRTDxfName
1000
PARAMMGR
1000
AcRTDxfName
1000
PARAMMGR
1000
AcRTDxfName
1000
PARAMMGR
1000
AcRTDxfName
1000
PARAMMGR
1000
AcRTDxfName
1000
PARAMMGR
  0
ACAD_PROXY_OBJECT
  5
E70
330
DF8
100
AcDbProxyObject
 90
      499
 91
      544
 95
   983063
 70
     0
 93
       40
310
000100AAAA
330
DF8
330
0
 94
        0
1001
ACAD
1000
AcRTDxfName
1000
PARAMSCOPE
1000
AcRTDxfName
1000
PARAMSCOPE
1000
AcRTDxfName
1000
PARAMSCOPE
1000
AcRTDxfName
1000
PARAMSCOPE
1000
AcRTDxfName
1000
PARAMSCOPE
1000
AcRTDxfName
1000
PARAMSCOPE
1000
AcRTDxfName
1000
PARAMSCOPE
1000
AcRTDxfName
1000
PARAMSCOPE
1000
AcRTDxfName
1000
PARAMSCOPE
1000
AcRTDxfName
1000
PARAMSCOPE
  0
ACAD_PROXY_OBJECT
  5
E72
330
DF8
100
AcDbProxyObject
 90
      499
 91
      511
 95
   983063
 70
     0
 93
      124
310
00010142905350D3D39114D414D69050
330
DF8
 94
        0
1001
ACAD
1000
AcRTDxfName
1000
ACIMINTSYSVAR
1000
AcRTDxfName
1000
ACIMINTSYSVAR
1000
AcRTDxfName
1000
ACIMINTSYSVAR
1000
AcRTDxfName
1000
ACIMINTSYSVAR
1000
AcRTDxfName
1000
ACIMINTSYSVAR
1000
AcRTDxfName
1000
ACIMINTSYSVAR
1000
AcRTDxfName
1000
ACIMINTSYSVAR
1000
AcRTDxfName
1000
ACIMINTSYSVAR
1000
AcRTDxfName
1000
ACIMINTSYSVAR
1000
AcRTDxfName
1000
ACIMINTSYSVAR
  0
ACAD_PROXY_OBJECT
  5
E73
330
DF8
100
AcDbProxyObject
 90
      499
 91
      511
 95
   983063
 70
     0
 93
      124
310
000101429053549553115353D1115010
330
DF8
 94
        0
1001
ACAD
1000
AcRTDxfName
1000
ACIMINTSYSVAR
1000
AcRTDxfName
1000
ACIMINTSYSVAR
1000
AcRTDxfName
1000
ACIMINTSYSVAR
1000
AcRTDxfName
1000
ACIMINTSYSVAR
1000
AcRTDxfName
1000
ACIMINTSYSVAR
1000
AcRTDxfName
1000
ACIMINTSYSVAR
1000
AcRTDxfName
1000
ACIMINTSYSVAR
1000
AcRTDxfName
1000
ACIMINTSYSVAR
1000
AcRTDxfName
1000
ACIMINTSYSVAR
1000
AcRTDxfName
1000
ACIMINTSYSVAR
  0
ACAD_PROXY_OBJECT
  5
E74
330
DF8
100
AcDbProxyObject
 90
      499
 91
      511
 95
   983063
 70
     0
 93
      108
310
00010142105354D2D353D1115010
330
DF8
 94
        0
1001
ACAD
1000
AcRTDxfName
1000
ACIMINTSYSVAR
1000
AcRTDxfName
1000
ACIMINTSYSVAR
1000
AcRTDxfName
1000
ACIMINTSYSVAR
1000
AcRTDxfName
1000
ACIMINTSYSVAR
1000
AcRTDxfName
1000
ACIMINTSYSVAR
1000
AcRTDxfName
1000
ACIMINTSYSVAR
1000
AcRTDxfName
1000
ACIMINTSYSVAR
1000
AcRTDxfName
1000
ACIMINTSYSVAR
1000
AcRTDxfName
1000
ACIMINTSYSVAR
1000
AcRTDxfName
1000
ACIMINTSYSVAR
  0
ACAD_PROXY_OBJECT
  5
E75
330
DF8
100
AcDbProxyObject
 90
      499
 91
      511
 95
   983063
 70
     0
 93
      140
310
000101435053511253511254D41353D11160
330
DF8
 94
        0
1001
ACAD
1000
AcRTDxfName
1000
ACIMINTSYSVAR
1000
AcRTDxfName
1000
ACIMINTSYSVAR
1000
AcRTDxfName
1000
ACIMINTSYSVAR
1000
AcRTDxfName
1000
ACIMINTSYSVAR
1000
AcRTDxfName
1000
ACIMINTSYSVAR
1000
AcRTDxfName
1000
ACIMINTSYSVAR
1000
AcRTDxfName
1000
ACIMINTSYSVAR
1000
AcRTDxfName
1000
ACIMINTSYSVAR
1000
AcRTDxfName
1000
ACIMINTSYSVAR
1000
AcRTDxfName
1000
ACIMINTSYSVAR
  0
ACAD_PROXY_OBJECT
  5
E76
330
DF8
100
AcDbProxyObject
 90
      499
 91
      510
 95
   983063
 70
     0
 93
      180
310
00010142905354D2D05391D513D3000000000000010400
330
DF8
 94
        0
1001
ACAD
1000
AcRTDxfName
1000
ACIMREALSYSVAR
1000
AcRTDxfName
1000
ACIMREALSYSVAR
1000
AcRTDxfName
1000
ACIMREALSYSVAR
1000
AcRTDxfName
1000
ACIMREALSYSVAR
1000
AcRTDxfName
1000
ACIMREALSYSVAR
1000
AcRTDxfName
1000
ACIMREALSYSVAR
1000
AcRTDxfName
1000
ACIMREALSYSVAR
1000
AcRTDxfName
1000
ACIMREALSYSVAR
1000
AcRTDxfName
1000
ACIMREALSYSVAR
1000
AcRTDxfName
1000
ACIMREALSYSVAR
  0
ACAD_PROXY_OBJECT
  5
E77
330
DF8
100
AcDbProxyObject
 90
      499
 91
      531
 95
   983063
 70
     0
 93
      164
310
00010142505354D2D4D516531140505434F4E542A0
330
DF8
 94
        0
1001
ACAD
1000
AcRTDxfName
1000
ACIMSTRSYSVAR
1000
AcRTDxfName
1000
ACIMSTRSYSVAR
1000
AcRTDxfName
1000
ACIMSTRSYSVAR
1000
AcRTDxfName
1000
ACIMSTRSYSVAR
1000
AcRTDxfName
1000
ACIMSTRSYSVAR
1000
AcRTDxfName
1000
ACIMSTRSYSVAR
1000
AcRTDxfName
1000
ACIMSTRSYSVAR
1000
AcRTDxfName
1000
ACIMSTRSYSVAR
1000
AcRTDxfName
1000
ACIMSTRSYSVAR
1000
AcRTDxfName
1000
ACIMSTRSYSVAR
  0
ACAD_PROXY_OBJECT
  5
E78
330
DF8
100
AcDbProxyObject
 90
      499
 91
      511
 95
   983063
 70
     0
 93
      108
310
00010142105350D3511112535010
330
DF8
 94
        0
1001
ACAD
1000
AcRTDxfName
1000
ACIMINTSYSVAR
1000
AcRTDxfName
1000
ACIMINTSYSVAR
1000
AcRTDxfName
1000
ACIMINTSYSVAR
1000
AcRTDxfName
1000
ACIMINTSYSVAR
1000
AcRTDxfName
1000
ACIMINTSYSVAR
1000
AcRTDxfName
1000
ACIMINTSYSVAR
1000
AcRTDxfName
1000
ACIMINTSYSVAR
1000
AcRTDxfName
1000
ACIMINTSYSVAR
1000
AcRTDxfName
1000
ACIMINTSYSVAR
1000
AcRTDxfName
1000
ACIMINTSYSVAR
  0
ACAD_PROXY_OBJECT
  5
E79
330
DF8
100
AcDbProxyObject
 90
      499
 91
      511
 95
   983063
 70
     0
 93
      108
310
00010142105350D3D35414D59010
330
DF8
 94
        0
1001
ACAD
1000
AcRTDxfName
1000
ACIMINTSYSVAR
1000
AcRTDxfName
1000
ACIMINTSYSVAR
1000
AcRTDxfName
1000
ACIMINTSYSVAR
1000
AcRTDxfName
1000
ACIMINTSYSVAR
1000
AcRTDxfName
1000
ACIMINTSYSVAR
1000
AcRTDxfName
1000
ACIMINTSYSVAR
1000
AcRTDxfName
1000
ACIMINTSYSVAR
1000
AcRTDxfName
1000
ACIMINTSYSVAR
1000
AcRTDxfName
1000
ACIMINTSYSVAR
1000
AcRTDxfName
1000
ACIMINTSYSVAR
  0
ACAD_PROXY_OBJECT
  5
E7A
330
DF8
100
AcDbProxyObject
 90
      499
 91
      531
 95
   983063
 70
     0
 93
      164
310
0001014290535410549514D4119600504504152540
330
DF8
 94
        0
1001
ACAD
1000
AcRTDxfName
1000
ACIMSTRSYSVAR
1000
AcRTDxfName
1000
ACIMSTRSYSVAR
1000
AcRTDxfName
1000
ACIMSTRSYSVAR
1000
AcRTDxfName
1000
ACIMSTRSYSVAR
1000
AcRTDxfName
1000
ACIMSTRSYSVAR
1000
AcRTDxfName
1000
ACIMSTRSYSVAR
1000
AcRTDxfName
1000
ACIMSTRSYSVAR
1000
AcRTDxfName
1000
ACIMSTRSYSVAR
1000
AcRTDxfName
1000
ACIMSTRSYSVAR
1000
AcRTDxfName
1000
ACIMSTRSYSVAR
  0
ACAD_PROXY_OBJECT
  5
E7B
330
DF8
100
AcDbProxyObject
 90
      499
 91
      531
 95
   983063
 70
     0
 93
      220
310
0001014350535513D3D31093D11654119600508544F4F4C424F44590
330
DF8
 94
        0
1001
ACAD
1000
AcRTDxfName
1000
ACIMSTRSYSVAR
1000
AcRTDxfName
1000
ACIMSTRSYSVAR
1000
AcRTDxfName
1000
ACIMSTRSYSVAR
1000
AcRTDxfName
1000
ACIMSTRSYSVAR
1000
AcRTDxfName
1000
ACIMSTRSYSVAR
1000
AcRTDxfName
1000
ACIMSTRSYSVAR
1000
AcRTDxfName
1000
ACIMSTRSYSVAR
1000
AcRTDxfName
1000
ACIMSTRSYSVAR
1000
AcRTDxfName
1000
ACIMSTRSYSVAR
1000
AcRTDxfName
1000
ACIMSTRSYSVAR
  0
ACAD_PROXY_OBJECT
  5
E7C
330
DF8
100
AcDbProxyObject
 90
      499
 91
      511
 95
   983063
 70
     0
 93
      116
310
000101425053511254D410D3D39010
330
DF8
 94
        0
1001
ACAD
1000
AcRTDxfName
1000
ACIMINTSYSVAR
1000
AcRTDxfName
1000
ACIMINTSYSVAR
1000
AcRTDxfName
1000
ACIMINTSYSVAR
1000
AcRTDxfName
1000
ACIMINTSYSVAR
1000
AcRTDxfName
1000
ACIMINTSYSVAR
1000
AcRTDxfName
1000
ACIMINTSYSVAR
1000
AcRTDxfName
1000
ACIMINTSYSVAR
1000
AcRTDxfName
1000
ACIMINTSYSVAR
1000
AcRTDxfName
1000
ACIMINTSYSVAR
1000
AcRTDxfName
1000
ACIMINTSYSVAR
  0
ACAD_PROXY_OBJECT
  5
E7D
330
DF8
100
AcDbProxyObject
 90
      499
 91
      511
 95
   983063
 70
     0
 93
      108
310
00010142105350D3D39114D41010
330
DF8
 94
        0
1001
ACAD
1000
AcRTDxfName
1000
ACIMINTSYSVAR
1000
AcRTDxfName
1000
ACIMINTSYSVAR
1000
AcRTDxfName
1000
ACIMINTSYSVAR
1000
AcRTDxfName
1000
ACIMINTSYSVAR
1000
AcRTDxfName
1000
ACIMINTSYSVAR
1000
AcRTDxfName
1000
ACIMINTSYSVAR
1000
AcRTDxfName
1000
ACIMINTSYSVAR
1000
AcRTDxfName
1000
ACIMINTSYSVAR
1000
AcRTDxfName
1000
ACIMINTSYSVAR
1000
AcRTDxfName
1000
ACIMINTSYSVAR
  0
ACAD_PROXY_OBJECT
  5
E7E
330
DF8
100
AcDbProxyObject
 90
      499
 91
      511
 95
   983063
 70
     0
 93
      124
310
0001014290535490511114D414D69190
330
DF8
 94
        0
1001
ACAD
1000
AcRTDxfName
1000
ACIMINTSYSVAR
1000
AcRTDxfName
1000
ACIMINTSYSVAR
1000
AcRTDxfName
1000
ACIMINTSYSVAR
1000
AcRTDxfName
1000
ACIMINTSYSVAR
1000
AcRTDxfName
1000
ACIMINTSYSVAR
1000
AcRTDxfName
1000
ACIMINTSYSVAR
1000
AcRTDxfName
1000
ACIMINTSYSVAR
1000
AcRTDxfName
1000
ACIMINTSYSVAR
1000
AcRTDxfName
1000
ACIMINTSYSVAR
1000
AcRTDxfName
1000
ACIMINTSYSVAR
  0
ACAD_PROXY_OBJECT
  5
E80
330
DF8
100
AcDbProxyObject
 90
      499
 91
      546
 95
   983063
 70
     0
 93
     3196
310
0001419088050A544852555F4452494C4C0142D09312539117D1149253130050A544852555F43424F52450142D09312539117D0D093D4914050A544852555F4353494E4B0142D09312539117D0D4D25392D0642201459EC94958C8094950535112504815121493D551D20B9F4051C7B252563202525414D444941205820252
310
5414D44455020444545507D014F5EC94958C8094950535112504815121493D551D20B9F57141ED0D093D49148094958C80949505350D112504816080949505350D091115408111151541F405437B252563202525414D4449412058202525414D44455020444545507D5C507B43424F524520252563202525414D4344494120
310
58202525414D434244455020444545507D014EDEC94958C8094950535112504815121493D551D20B9F57141ED0D4D25392C8094958C80949505350D112504816080949505350D4D05391C949591F405417B252563202525414D4449412058202525414D44455020444545507D5C507B4353494E4B20252563202525414D434
310
449412058202525414D4353414E472525647D0
330
DF8
 94
        0
1001
ACAD
1000
AcRTDxfName
1000
ADHNTMPLT
1000
AcRTDxfName
1000
ADHNTMPLT
1000
AcRTDxfName
1000
ADHNTMPLT
1000
AcRTDxfName
1000
ADHNTMPLT
1000
AcRTDxfName
1000
ADHNTMPLT
1000
AcRTDxfName
1000
ADHNTMPLT
1000
AcRTDxfName
1000
ADHNTMPLT
1000
AcRTDxfName
1000
ADHNTMPLT
1000
AcRTDxfName
1000
ADHNTMPLT
1000
AcRTDxfName
1000
ADHNTMPLT
  0
ACAD_PROXY_OBJECT
  5
E82
330
DF8
100
AcDbProxyObject
 90
      499
 91
      511
 95
   983063
 70
     0
 93
      140
310
00010143105354D554141490D3D313D49060
330
DF8
 94
        0
1001
ACAD
1000
AcRTDxfName
1000
ACIMINTSYSVAR
1000
AcRTDxfName
1000
ACIMINTSYSVAR
1000
AcRTDxfName
1000
ACIMINTSYSVAR
1000
AcRTDxfName
1000
ACIMINTSYSVAR
1000
AcRTDxfName
1000
ACIMINTSYSVAR
1000
AcRTDxfName
1000
ACIMINTSYSVAR
1000
AcRTDxfName
1000
ACIMINTSYSVAR
1000
AcRTDxfName
1000
ACIMINTSYSVAR
1000
AcRTDxfName
1000
ACIMINTSYSVAR
1000
AcRTDxfName
1000
ACIMINTSYSVAR
  0
ACAD_PROXY_OBJECT
  5
E85
330
DF8
100
AcDbProxyObject
 90
      499
 91
      511
 95
   983063
 70
     0
 93
      132
310
00010142D05050555513D4D3D315915010
330
DF8
 94
        0
1001
ACAD
1000
AcRTDxfName
1000
ACIMINTSYSVAR
1000
AcRTDxfName
1000
ACIMINTSYSVAR
1000
AcRTDxfName
1000
ACIMINTSYSVAR
1000
AcRTDxfName
1000
ACIMINTSYSVAR
1000
AcRTDxfName
1000
ACIMINTSYSVAR
1000
AcRTDxfName
1000
ACIMINTSYSVAR
1000
AcRTDxfName
1000
ACIMINTSYSVAR
1000
AcRTDxfName
1000
ACIMINTSYSVAR
1000
AcRTDxfName
1000
ACIMINTSYSVAR
1000
AcRTDxfName
1000
ACIMINTSYSVAR
  0
ACAD_PROXY_OBJECT
  5
E86
330
DF8
100
AcDbProxyObject
 90
      499
 91
      511
 95
   983063
 70
     0
 93
      156
310
00010143905050555513D054D4D1535093115010
330
DF8
 94
        0
1001
ACAD
1000
AcRTDxfName
1000
ACIMINTSYSVAR
1000
AcRTDxfName
1000
ACIMINTSYSVAR
1000
AcRTDxfName
1000
ACIMINTSYSVAR
1000
AcRTDxfName
1000
ACIMINTSYSVAR
1000
AcRTDxfName
1000
ACIMINTSYSVAR
1000
AcRTDxfName
1000
ACIMINTSYSVAR
1000
AcRTDxfName
1000
ACIMINTSYSVAR
1000
AcRTDxfName
1000
ACIMINTSYSVAR
1000
AcRTDxfName
1000
ACIMINTSYSVAR
1000
AcRTDxfName
1000
ACIMINTSYSVAR
  0
ACAD_PROXY_OBJECT
  5
E87
330
DF8
100
AcDbProxyObject
 90
      499
 91
      511
 95
   983063
 70
     0
 93
      148
310
00010143505055925155D49154D513D4915010
330
DF8
 94
        0
1001
ACAD
1000
AcRTDxfName
1000
ACIMINTSYSVAR
1000
AcRTDxfName
1000
ACIMINTSYSVAR
1000
AcRTDxfName
1000
ACIMINTSYSVAR
1000
AcRTDxfName
1000
ACIMINTSYSVAR
1000
AcRTDxfName
1000
ACIMINTSYSVAR
1000
AcRTDxfName
1000
ACIMINTSYSVAR
1000
AcRTDxfName
1000
ACIMINTSYSVAR
1000
AcRTDxfName
1000
ACIMINTSYSVAR
1000
AcRTDxfName
1000
ACIMINTSYSVAR
1000
AcRTDxfName
1000
ACIMINTSYSVAR
  0
ACAD_PROXY_OBJECT
  5
E88
330
DF8
100
AcDbProxyObject
 90
      499
 91
      511
 95
   983063
 70
     0
 93
      124
310
00010142D050525394D15495105094E0
330
DF8
 94
        0
1001
ACAD
1000
AcRTDxfName
1000
ACIMINTSYSVAR
1000
AcRTDxfName
1000
ACIMINTSYSVAR
1000
AcRTDxfName
1000
ACIMINTSYSVAR
1000
AcRTDxfName
1000
ACIMINTSYSVAR
1000
AcRTDxfName
1000
ACIMINTSYSVAR
1000
AcRTDxfName
1000
ACIMINTSYSVAR
1000
AcRTDxfName
1000
ACIMINTSYSVAR
1000
AcRTDxfName
1000
ACIMINTSYSVAR
1000
AcRTDxfName
1000
ACIMINTSYSVAR
1000
AcRTDxfName
1000
ACIMINTSYSVAR
  0
ACAD_PROXY_OBJECT
  5
E89
330
DF8
100
AcDbProxyObject
 90
      499
 91
      511
 95
   983063
 70
     0
 93
      148
310
00010143505054D0D153915554111055115010
330
DF8
 94
        0
1001
ACAD
1000
AcRTDxfName
1000
ACIMINTSYSVAR
1000
AcRTDxfName
1000
ACIMINTSYSVAR
1000
AcRTDxfName
1000
ACIMINTSYSVAR
1000
AcRTDxfName
1000
ACIMINTSYSVAR
1000
AcRTDxfName
1000
ACIMINTSYSVAR
1000
AcRTDxfName
1000
ACIMINTSYSVAR
1000
AcRTDxfName
1000
ACIMINTSYSVAR
1000
AcRTDxfName
1000
ACIMINTSYSVAR
1000
AcRTDxfName
1000
ACIMINTSYSVAR
1000
AcRTDxfName
1000
ACIMINTSYSVAR
  0
ACAD_PROXY_OBJECT
  5
E8A
330
DF8
100
AcDbProxyObject
 90
      499
 91
      531
 95
   983063
 70
     0
 93
      172
310
00010143105054D5509054D4D3541196005035355420
330
DF8
 94
        0
1001
ACAD
1000
AcRTDxfName
1000
ACIMSTRSYSVAR
1000
AcRTDxfName
1000
ACIMSTRSYSVAR
1000
AcRTDxfName
1000
ACIMSTRSYSVAR
1000
AcRTDxfName
1000
ACIMSTRSYSVAR
1000
AcRTDxfName
1000
ACIMSTRSYSVAR
1000
AcRTDxfName
1000
ACIMSTRSYSVAR
1000
AcRTDxfName
1000
ACIMSTRSYSVAR
1000
AcRTDxfName
1000
ACIMSTRSYSVAR
1000
AcRTDxfName
1000
ACIMSTRSYSVAR
1000
AcRTDxfName
1000
ACIMSTRSYSVAR
  0
ACAD_PROXY_OBJECT
  5
E8B
330
DF8
100
AcDbProxyObject
 90
      499
 91
      531
 95
   983063
 70
     0
 93
      172
310
00010142905054D0D15391541196005055343454E450
330
DF8
 94
        0
1001
ACAD
1000
AcRTDxfName
1000
ACIMSTRSYSVAR
1000
AcRTDxfName
1000
ACIMSTRSYSVAR
1000
AcRTDxfName
1000
ACIMSTRSYSVAR
1000
AcRTDxfName
1000
ACIMSTRSYSVAR
1000
AcRTDxfName
1000
ACIMSTRSYSVAR
1000
AcRTDxfName
1000
ACIMSTRSYSVAR
1000
AcRTDxfName
1000
ACIMSTRSYSVAR
1000
AcRTDxfName
1000
ACIMSTRSYSVAR
1000
AcRTDxfName
1000
ACIMSTRSYSVAR
1000
AcRTDxfName
1000
ACIMSTRSYSVAR
  0
ACAD_PROXY_OBJECT
  5
E8C
330
DF8
100
AcDbProxyObject
 90
      499
 91
      511
 95
   983063
 70
     0
 93
      148
310
00010143505350555513D313D0D2D4D0D39010
330
DF8
 94
        0
1001
ACAD
1000
AcRTDxfName
1000
ACIMINTSYSVAR
1000
AcRTDxfName
1000
ACIMINTSYSVAR
1000
AcRTDxfName
1000
ACIMINTSYSVAR
1000
AcRTDxfName
1000
ACIMINTSYSVAR
1000
AcRTDxfName
1000
ACIMINTSYSVAR
1000
AcRTDxfName
1000
ACIMINTSYSVAR
1000
AcRTDxfName
1000
ACIMINTSYSVAR
1000
AcRTDxfName
1000
ACIMINTSYSVAR
1000
AcRTDxfName
1000
ACIMINTSYSVAR
1000
AcRTDxfName
1000
ACIMINTSYSVAR
  0
ACAD_PROXY_OBJECT
  5
E91
330
DF8
100
AcDbProxyObject
 90
      499
 91
      550
 95
   983063
 70
     0
 93
       32
310
00010000
330
DF8
340
E8E
330
E93
330
E8E
 94
        0
1001
ACAD
1000
AcRTDxfName
1000
ACAMGRCOMPDEF
1000
AcRTDxfName
1000
ACAMGRCOMPDEF
1000
AcRTDxfName
1000
ACAMGRCOMPDEF
1000
AcRTDxfName
1000
ACAMGRCOMPDEF
1000
AcRTDxfName
1000
ACAMGRCOMPDEF
1000
AcRTDxfName
1000
ACAMGRCOMPDEF
1000
AcRTDxfName
1000
ACAMGRCOMPDEF
1000
AcRTDxfName
1000
ACAMGRCOMPDEF
1000
AcRTDxfName
1000
ACAMGRCOMPDEF
1000
AcRTDxfName
1000
ACAMGRCOMPDEF
  0
ACAD_PROXY_OBJECT
  5
E92
330
DF8
100
AcDbProxyObject
 90
      499
 91
      551
 95
   983063
 70
     0
 93
       18
310
000180
330
DF8
 94
        0
1001
ACAD
1000
AcRTDxfName
1000
ACCMCONTEXT
1000
AcRTDxfName
1000
ACCMCONTEXT
1000
AcRTDxfName
1000
ACCMCONTEXT
1000
AcRTDxfName
1000
ACCMCONTEXT
1000
AcRTDxfName
1000
ACCMCONTEXT
1000
AcRTDxfName
1000
ACCMCONTEXT
1000
AcRTDxfName
1000
ACCMCONTEXT
1000
AcRTDxfName
1000
ACCMCONTEXT
1000
AcRTDxfName
1000
ACCMCONTEXT
1000
AcRTDxfName
1000
ACCMCONTEXT
  0
ACAD_PROXY_OBJECT
  5
E93
330
DF8
100
AcDbProxyObject
 90
      499
 91
      552
 95
   983063
 70
     0
 93
      111
310
0001014155148B504CD050055400
330
DF8
330
E91
330
E92
 94
        0
1001
ACAD
1000
AcRTDxfName
1000
ACAMCOMPDEF
1000
AcRTDxfName
1000
ACAMCOMPDEF
1000
AcRTDxfName
1000
ACAMCOMPDEF
1000
AcRTDxfName
1000
ACAMCOMPDEF
1000
AcRTDxfName
1000
ACAMCOMPDEF
1000
AcRTDxfName
1000
ACAMCOMPDEF
1000
AcRTDxfName
1000
ACAMCOMPDEF
1000
AcRTDxfName
1000
ACAMCOMPDEF
1000
AcRTDxfName
1000
ACAMCOMPDEF
1000
AcRTDxfName
1000
ACAMCOMPDEF
  0
ACAD_PROXY_OBJECT
  5
E94
330
DF8
100
AcDbProxyObject
 90
      499
 91
      553
 95
   983063
 70
     0
 93
       40
310
000100AAAA
330
DF8
330
E93
 94
        0
1001
ACAD
1000
AcRTDxfName
1000
ACAMCOMPDEFMGR
1000
AcRTDxfName
1000
ACAMCOMPDEFMGR
1000
AcRTDxfName
1000
ACAMCOMPDEFMGR
1000
AcRTDxfName
1000
ACAMCOMPDEFMGR
1000
AcRTDxfName
1000
ACAMCOMPDEFMGR
1000
AcRTDxfName
1000
ACAMCOMPDEFMGR
1000
AcRTDxfName
1000
ACAMCOMPDEFMGR
1000
AcRTDxfName
1000
ACAMCOMPDEFMGR
1000
AcRTDxfName
1000
ACAMCOMPDEFMGR
1000
AcRTDxfName
1000
ACAMCOMPDEFMGR
  0
ACAD_PROXY_OBJECT
  5
E95
330
DF8
100
AcDbProxyObject
 90
      499
 91
      554
 95
   983063
 70
     0
 93
       96
310
0001901422000000000000AA
330
DF8
330
E96
330
E96
330
E96
330
E96
330
E96
330
0
 94
        0
1001
ACAD
1000
AcRTDxfName
1000
AMCONTEXTMGR
1000
AcRTDxfName
1000
AMCONTEXTMGR
1000
AcRTDxfName
1000
AMCONTEXTMGR
1000
AcRTDxfName
1000
AMCONTEXTMGR
1000
AcRTDxfName
1000
AMCONTEXTMGR
1000
AcRTDxfName
1000
AMCONTEXTMGR
1000
AcRTDxfName
1000
AMCONTEXTMGR
1000
AcRTDxfName
1000
AMCONTEXTMGR
1000
AcRTDxfName
1000
AMCONTEXTMGR
1000
AcRTDxfName
1000
AMCONTEXTMGR
  0
ACAD_PROXY_OBJECT
  5
E96
330
DF8
100
AcDbProxyObject
 90
      499
 91
      555
 95
   983063
 70
     0
 93
      141
310
00010000406AAAAAAAAAAAAAA9A9806AAAA0
330
DF8
330
E95
330
E93
 94
        0
1001
ACAD
1000
AcRTDxfName
1000
ACAMCONTEXTMODELER
1000
AcRTDxfName
1000
ACAMCONTEXTMODELER
1000
AcRTDxfName
1000
ACAMCONTEXTMODELER
1000
AcRTDxfName
1000
ACAMCONTEXTMODELER
1000
AcRTDxfName
1000
ACAMCONTEXTMODELER
1000
AcRTDxfName
1000
ACAMCONTEXTMODELER
1000
AcRTDxfName
1000
ACAMCONTEXTMODELER
1000
AcRTDxfName
1000
ACAMCONTEXTMODELER
1000
AcRTDxfName
1000
ACAMCONTEXTMODELER
1000
AcRTDxfName
1000
ACAMCONTEXTMODELER
  0
DICTIONARY
  5
DF1
102
{ACAD_REACTORS
330
DF0
102
}
330
DF0
100
AcDbDictionary
281
     1
  3
DWGSETTINGS
350
DF2
  3
TRANSSETTINGS
350
DF6
  0
ACAD_PROXY_OBJECT
  5
EA5
102
{ACAD_REACTORS
330
DF0
102
}
330
DF0
100
AcDbProxyObject
 90
      499
 91
      564
 95
   983063
 70
     0
 93
    16352
310
40903491013041105357CC10747A404C504414D5F314391E9013241105357CC90547A404CD04414D5F334190F9013441105357CD10343E404D504414D5F3540D0F9013641105357CD90247A404DD04414D5F374110F9013841105357CE10143E404E504414D5F397F641102324141505357CC4C10747A408D10505414D5F31
310
3140D0F902495041505357CC4C90747902408C13905414D5F304E41D1E902314E41505357CC5390E47A408C93905414D5F324E4151E902334E41505357CCD390643E408D13905414D5F344E40D0F902354E41505357CD5390343E408D93905414D5F364E4091E902374E41505357CDD390443E408E13905414D5F384E4050F
310
902394E41505357CE539FD90440CC9053906414D5F31304E41D1E90334414E41905357CC4C5390343E40D25413906414D5F31324E41D1E409044B4C494E41505357D0D310143D094112539193D08414D5F50415245464110F42D055241484D3541905357D093D4907479094115925155D08414D5F56494557534050F42D064
310
24548494E4441905357D253959FD90D415514905253105414D5F545240D0F4250348494441905357D2125110743D0940D59254D06414D5F56495341D1E4250650415244494D42505357D4105491125350343D0941949151911253509414D5F52454644494D4110F4257641105315149013441D1E411091531250134CFFFFFF
310
FF411092139590139CFFFFFFFF415092139594D06424548494E44CFFFFFFFF41109312511023441CFFFFFFFF411093D0541023441CFFFFFFFF411093D48C9055241484D354050F411093D48CD055241484D354091E411093D48D5055241484D35CFFFFFFFF411093D48DD055241484D354793C41109410541023441CFFFFFF
310
FF41109411561023441CFFFFFFFF411095111250135CFFFFFFFF4110D0530C90134CFFFFFFFF4110D0530CD01344091E4110D0530D5013441D1E4110D0530DD01344793C4110D1539390137CFFFFFFFF4110D15395D0137CFFFFFFFF4110D312539044B4C494ECFFFFFFFF4110D3D38C50130CFFFFFFFF4110D3D38C90131C
310
FFFFFFFF4110D3D38CD0132CFFFFFFFF4110D3D38D10132CFFFFFFFF411111549410134CFFFFFFFF411111551050134CFFFFFFFF4111125051D0135CFFFFFFFF411112531250135CFFFFFFFF411112535410650415244494DCFFFFFFFF411112535490652454644494DCFFFFFFFF41115613541023441CFFFFFFFF41119153
310
5390138CFFFFFFFF4151915354139013840CFFFFFFFF4151915354D41023441CFFFFFFFF4151915354D5102344140D0F41519153559390132CFFFFFFFF4151915355951013240D0F411193105510130CFFFFFFFF41119490549023441CFFFFFFFF4111D4931250135CFFFFFFFF4111D593125023441CFFFFFFFF4112105510
310
D0138CFFFFFFFF411212511390133CFFFFFFFF4112125115D0133CFFFFFFFF411213125390134CFFFFFFFF411213D0D390137CFFFFFFFF411213D0D5D0137CFFFFFFFF4112539193D04494E464FCFFFFFFFF411310511250134CFFFFFFFF411311505110135CFFFFFFFF419397D0921395902394ECFFFFFFFF419397D0D3D3
310
8C502304ECFFFFFFFF419397D0D3D38C902314ECFFFFFFFF419397D0D3D38CD02324ECFFFFFFFF419397D0D3D38D102324ECFFFFFFFF419397D0D15393902374ECFFFFFFFF419397D0D15395D02374ECFFFFFFFF419397D1125312502354ECFFFFFFFF419397D2105510D02384ECFFFFFFFF419397D2125113902334ECFFFF
310
FFFF419397D2125115D02334ECFFFFFFFF419397D3115051102354ECFFFFFFFF419397D391D25410349504ECFFFFFFFF419397D412105390334414ECFFFFFFFF419397D510D3D3902304ECFFFFFFFF419397D5121312502344ECFFFFFFFF419397D5131153902304ECFFFFFFFF419397D516150CD02364ECFFFFFFFF419397
310
D594131250332414ECFFFFFFFF411391D2541024950CFFFFFFFF411410530C9055241484D354050F411410530CD055241484D354091E411410530D5055241484D35CFFFFFFFF411410530DD055241484D354793C41141210539023441CFFFFFFFF411413D4D39013641D1E419413D4D49151901364151E411413D4D610136C
310
FFFFFFFF411414D150D023441CFFFFFFFF411490D1D390137CFFFFFFFF411490D1D5D0137CFFFFFFFF411491911250134CFFFFFFFF41149455149013441D1E411494D093D0130CFFFFFFFF4114D09492D013441D1E4114D0D15390137CFFFFFFFF4114D150D510134CFFFFFFFF4114D1531390137CFFFFFFFF4114D15315D0
310
137CFFFFFFFF4114D4D654D0130CFFFFFFFF4114D513125013441D1E4114D6508C50135CFFFFFFFF4114D6508C90135CFFFFFFFF4114D6508CD01354091E4114D6508D5013541D1E4114D6535390137CFFFFFFFF4114D65355D0137CFFFFFFFF411510D3D390130CFFFFFFFF411512131250134CFFFFFFFF411512550C9055
310
241484D354050F411512550CD055241484D354091E411512550D5055241484D35CFFFFFFFF411512550DD055241484D354793C411513115390130CFFFFFFFF415514905253105545241494CCFFFFFFFF41151492D390137CFFFFFFFF41151492D5D0137CFFFFFFFF411514931250134CFFFFFFFF411516150C5013640D0F41
310
1516150C9013640D0F411516150CD0136CFFFFFFFF411516150D5013641D1E411516150DD01364793C4115925155D0456494557CFFFFFFFF4115915112103484944CFFFFFFFF4115915115903564953CFFFFFFFF41159413125023241CFFFFFFFF411692569050134CFFFFFFFFAA7F5013F90A4391E41D1E4190F4151E4110
310
F40D0F4091E4050F4793C7F6
340
13
340
13
340
13
340
E15
340
13
340
13
340
13
340
E17
340
13
340
13
340
E17
340
E16
340
13
340
13
340
13
340
13
340
E15
340
13
340
13
340
13
340
E17
340
13
340
13
340
E17
340
E16
340
13
340
EA9
340
13
340
13
340
13
340
13
340
13
340
E15
340
13
340
13
340
13
340
EAF
340
12
340
12
340
12
340
12
340
12
340
12
340
12
340
12
340
12
340
12
340
12
340
12
340
12
340
12
340
12
340
12
340
EB0
340
12
340
12
340
12
340
12
340
12
340
12
340
E16
340
12
340
12
340
12
340
12
340
12
340
12
340
12
340
12
340
13
340
12
340
12
340
12
340
12
340
12
340
12
340
12
340
12
340
EAF
340
12
340
12
340
EB0
340
12
340
12
340
12
340
12
340
12
340
12
340
12
340
12
340
12
340
EB0
340
12
340
12
340
12
340
EAF
340
12
340
12
340
12
340
12
340
12
340
EAF
340
12
340
12
340
E16
340
12
340
12
340
12
340
12
340
12
340
12
340
12
340
12
340
12
340
12
340
EB0
340
12
340
12
340
EB0
340
12
340
12
340
13
340
12
340
EB0
340
12
340
12
340
EAF
340
12
340
12
340
13
340
12
340
EB0
340
12
340
12
340
EAF
340
12
340
12
340
12
340
12
340
12
340
12
340
EB0
340
12
340
12
340
12
340
12
340
12
340
12
340
12
340
12
340
12
340
12
340
E16
340
EB1
 94
        0
1001
ACAD
1000
AcRTDxfName
1000
AMGOBJPROPCFG
1000
AcRTDxfName
1000
AMGOBJPROPCFG
1000
AcRTDxfName
1000
AMGOBJPROPCFG
1000
AcRTDxfName
1000
AMGOBJPROPCFG
1000
AcRTDxfName
1000
AMGOBJPROPCFG
1000
AcRTDxfName
1000
AMGOBJPROPCFG
1000
AcRTDxfName
1000
AMGOBJPROPCFG
1000
AcRTDxfName
1000
AMGOBJPROPCFG
1000
AcRTDxfName
1000
AMGOBJPROPCFG
1000
AcRTDxfName
1000
AMGOBJPROPCFG
  0
ACAD_PROXY_OBJECT
  5
EB8
102
{ACAD_REACTORS
330
EB3
102
}
330
EB3
100
AcDbProxyObject
 90
      499
 91
      565
 95
   983063
 70
     0
 93
      253
310
43D1444494D454E53494F4E2C414D44545F2A5F44494D404A9012A404A9012A8
1001
ACAD
1000
AcRTDxfName
1000
ACAMGFILTERDAT
1000
AcRTDxfName
1000
ACAMGFILTERDAT
1000
AcRTDxfName
1000
ACAMGFILTERDAT
1000
AcRTDxfName
1000
ACAMGFILTERDAT
1000
AcRTDxfName
1000
ACAMGFILTERDAT
1000
AcRTDxfName
1000
ACAMGFILTERDAT
1000
AcRTDxfName
1000
ACAMGFILTERDAT
1000
AcRTDxfName
1000
ACAMGFILTERDAT
1000
AcRTDxfName
1000
ACAMGFILTERDAT
1000
AcRTDxfName
1000
ACAMGFILTERDAT
  0
ACAD_PROXY_OBJECT
  5
EB7
102
{ACAD_REACTORS
330
EB3
102
}
330
EB3
100
AcDbProxyObject
 90
      499
 91
      565
 95
   983063
 70
     0
 93
      181
310
43D012A42D05357D191504B505357CA9012A404A9012A8
1001
ACAD
1000
AcRTDxfName
1000
ACAMGFILTERDAT
1000
AcRTDxfName
1000
ACAMGFILTERDAT
1000
AcRTDxfName
1000
ACAMGFILTERDAT
1000
AcRTDxfName
1000
ACAMGFILTERDAT
1000
AcRTDxfName
1000
ACAMGFILTERDAT
1000
AcRTDxfName
1000
ACAMGFILTERDAT
1000
AcRTDxfName
1000
ACAMGFILTERDAT
1000
AcRTDxfName
1000
ACAMGFILTERDAT
1000
AcRTDxfName
1000
ACAMGFILTERDAT
1000
AcRTDxfName
1000
ACAMGFILTERDAT
  0
ACAD_PROXY_OBJECT
  5
EB4
102
{ACAD_REACTORS
330
EB3
102
}
330
EB3
100
AcDbProxyObject
 90
      499
 91
      565
 95
   983063
 70
     0
 93
      133
310
43D054841544348404A9012A404A9012A8
1001
ACAD
1000
AcRTDxfName
1000
ACAMGFILTERDAT
1000
AcRTDxfName
1000
ACAMGFILTERDAT
1000
AcRTDxfName
1000
ACAMGFILTERDAT
1000
AcRTDxfName
1000
ACAMGFILTERDAT
1000
AcRTDxfName
1000
ACAMGFILTERDAT
1000
AcRTDxfName
1000
ACAMGFILTERDAT
1000
AcRTDxfName
1000
ACAMGFILTERDAT
1000
AcRTDxfName
1000
ACAMGFILTERDAT
1000
AcRTDxfName
1000
ACAMGFILTERDAT
1000
AcRTDxfName
1000
ACAMGFILTERDAT
  0
ACAD_PROXY_OBJECT
  5
EB5
102
{ACAD_REACTORS
330
EB3
102
}
330
EB3
100
AcDbProxyObject
 90
      499
 91
      565
 95
   983063
 70
     0
 93
      549
310
43D044C494E4549CE0B0E138B0A8B4E0B0A8B4E138B105357CE0B105357CE138B0A8B505357CE0B0A8B505357CE139012A404A910494E534552542C5354445041525432448
1001
ACAD
1000
AcRTDxfName
1000
ACAMGFILTERDAT
1000
AcRTDxfName
1000
ACAMGFILTERDAT
1000
AcRTDxfName
1000
ACAMGFILTERDAT
1000
AcRTDxfName
1000
ACAMGFILTERDAT
1000
AcRTDxfName
1000
ACAMGFILTERDAT
1000
AcRTDxfName
1000
ACAMGFILTERDAT
1000
AcRTDxfName
1000
ACAMGFILTERDAT
1000
AcRTDxfName
1000
ACAMGFILTERDAT
1000
AcRTDxfName
1000
ACAMGFILTERDAT
1000
AcRTDxfName
1000
ACAMGFILTERDAT
  0
ACAD_PROXY_OBJECT
  5
EB6
102
{ACAD_REACTORS
330
EB3
102
}
330
EB3
100
AcDbProxyObject
 90
      499
 91
      565
 95
   983063
 70
     0
 93
      909
310
43D6641434D46434652414D452C41434D444154554D5441524745542C41434D444154554D49442C41434D57454C4453594D2C41434D5355524653594D2C41434D4645415449442C41434D504152545245462C41434D42414C4C4F4F4E2C414D44544544474553594D404A9012A404A9012A8
1001
ACAD
1000
AcRTDxfName
1000
ACAMGFILTERDAT
1000
AcRTDxfName
1000
ACAMGFILTERDAT
1000
AcRTDxfName
1000
ACAMGFILTERDAT
1000
AcRTDxfName
1000
ACAMGFILTERDAT
1000
AcRTDxfName
1000
ACAMGFILTERDAT
1000
AcRTDxfName
1000
ACAMGFILTERDAT
1000
AcRTDxfName
1000
ACAMGFILTERDAT
1000
AcRTDxfName
1000
ACAMGFILTERDAT
1000
AcRTDxfName
1000
ACAMGFILTERDAT
1000
AcRTDxfName
1000
ACAMGFILTERDAT
  0
XRECORD
  5
DC1
102
{ACAD_REACTORS
330
DBF
102
}
330
DBF
100
AcDbXrecord
280
     1
330
0
330
0
330
395
330
396
330
3A8
330
3A9
  0
XRECORD
  5
13E1
102
{ACAD_REACTORS
330
3AE
102
}
330
3AE
100
AcDbXrecord
280
     1
300
ASK2000BIKOU>>A3横 1/20       <<                                                                                                                                                                                                                                                                                
  0
XRECORD
  5
3AF
102
{ACAD_REACTORS
330
3AE
102
}
330
3AE
100
AcDbXrecord
280
     1
  1
DwgScale
  0
LAYER_INDEX
  5
16ED
102
{ACAD_REACTORS
330
16EC
102
}
330
16EC
100
AcDbIndex
 40
2457088.28311684
100
AcDbLayerIndex
  8
0
360
16EE
 90
      258
  8
3
360
16EF
 90
        3
  8
HATCHING_0
360
16F0
 90
        0
  8
SUNPO_0
360
16F1
 90
        0
  8
Defpoints
360
16F2
 90
        0
  8
TEXT_0
360
16F3
 90
        8
  8
1
360
16F4
 90
        1
  8
ASKPAPERSIZE
360
16F5
 90
        1
  8
9図面枠
360
16F6
 90
       27
  8
9図面文字
360
16F7
 90
       50
  8
非表示破線
360
16F8
 90
        8
  0
ACAD_PROXY_OBJECT
  5
E9B
102
{ACAD_REACTORS
330
E9A
102
}
330
E9A
100
AcDbProxyObject
 90
      499
 91
      558
 95
   983063
 70
     0
 93
      139
310
057356C1D35406406AA8FFFFFFFF09AA4040
330
17
330
0
330
0
 94
        0
1001
ACAD
1000
AcRTDxfName
1000
ACMDATAENTRYBLOCK
1000
AcRTDxfName
1000
ACMDATAENTRYBLOCK
1000
AcRTDxfName
1000
ACMDATAENTRYBLOCK
1000
AcRTDxfName
1000
ACMDATAENTRYBLOCK
1000
AcRTDxfName
1000
ACMDATAENTRYBLOCK
1000
AcRTDxfName
1000
ACMDATAENTRYBLOCK
1000
AcRTDxfName
1000
ACMDATAENTRYBLOCK
1000
AcRTDxfName
1000
ACMDATAENTRYBLOCK
1000
AcRTDxfName
1000
ACMDATAENTRYBLOCK
1000
AcRTDxfName
1000
ACMDATAENTRYBLOCK
  0
ACAD_PROXY_OBJECT
  5
DF2
102
{ACAD_REACTORS
330
DF1
102
}
330
DF1
100
AcDbProxyObject
 90
      499
 91
      506
 95
   983063
 70
     0
 93
     2627
310
4050B44574753455454494E4753A0E8482A68AA6A88882A08829CA69284A1A0A723A0A92920ACA0A8419983E1A1ABE1B1820C868A9C829C8E82A12686AF87260F862666A8321A2A72224A0A50000000000000701FA0E868A9C889282A682A16605C6AF8625C60F8625C6A83A1A2A72224A9AA250000000000000601FA0C868
310
A9C988A9C940000000000001C07E8321A2A727A323250000000000000701FA128698929C82A4A482B282A1C605C62646AF8605C646AF8605C6A8421A624A722AA2CA820A82AC2624A722A1288AE8EAAA68682988A94283A620A9AA27A12520A80982109A82968AAC928AAE9FA04832922AB24A9A4A0A809820AA68682988A8
310
2A08627464608429AA20A72220A92220A8220A729A4A12A8929A8AA6A8829AA0941FB41F0C48434E68283AB22A929A4A7A720A82989A971818220F688AE8EA68AA8A8929C8EA68A9C88FA0
1001
ACAD
1000
AcRTDxfName
1000
AMGSETTINGSOBJ
1000
AcRTDxfName
1000
AMGSETTINGSOBJ
1000
AcRTDxfName
1000
AMGSETTINGSOBJ
1000
AcRTDxfName
1000
AMGSETTINGSOBJ
1000
AcRTDxfName
1000
AMGSETTINGSOBJ
1000
AcRTDxfName
1000
AMGSETTINGSOBJ
1000
AcRTDxfName
1000
AMGSETTINGSOBJ
1000
AcRTDxfName
1000
AMGSETTINGSOBJ
1000
AcRTDxfName
1000
AMGSETTINGSOBJ
1000
AcRTDxfName
1000
AMGSETTINGSOBJ
  0
ACAD_PROXY_OBJECT
  5
DF6
102
{ACAD_REACTORS
330
DF1
102
}
330
DF1
100
AcDbProxyObject
 90
      499
 91
      506
 95
   983063
 70
     0
 93
      852
310
4050D5452414E5353455454494E4753A2488A482AE929C8EA8A4829CA69882A8929E9C0C00800050D4F524947494E414C4C595F4F4E0600400008529A7AAA921A2A620A723A0A81A52827212AAA0A48AA68AA4AC8A0C0080001107B44574753455454494E4753454E447D0
1001
ACAD
1000
AcRTDxfName
1000
AMGSETTINGSOBJ
1000
AcRTDxfName
1000
AMGSETTINGSOBJ
1000
AcRTDxfName
1000
AMGSETTINGSOBJ
1000
AcRTDxfName
1000
AMGSETTINGSOBJ
1000
AcRTDxfName
1000
AMGSETTINGSOBJ
1000
AcRTDxfName
1000
AMGSETTINGSOBJ
1000
AcRTDxfName
1000
AMGSETTINGSOBJ
1000
AcRTDxfName
1000
AMGSETTINGSOBJ
1000
AcRTDxfName
1000
AMGSETTINGSOBJ
1000
AcRTDxfName
1000
AMGSETTINGSOBJ
  0
IDBUFFER
  5
16EE
330
16ED
100
AcDbIdBuffer
330
222
330
223
330
224
330
225
330
226
330
227
330
228
330
229
330
22A
330
22B
330
22C
330
22D
330
22E
330
22F
330
230
330
231
330
232
330
233
330
234
330
235
330
236
330
237
330
238
330
239
330
23A
330
23B
330
23C
330
23D
330
23E
330
240
330
241
330
242
330
243
330
244
330
245
330
246
330
247
330
248
330
249
330
24A
330
24B
330
24C
330
24D
330
24E
330
24F
330
250
330
251
330
252
330
253
330
254
330
255
330
256
330
257
330
258
330
259
330
25A
330
25B
330
25C
330
25D
330
25E
330
25F
330
260
330
261
330
262
330
263
330
264
330
265
330
266
330
267
330
268
330
269
330
26A
330
26B
330
26C
330
26D
330
26E
330
26F
330
270
330
271
330
272
330
273
330
274
330
275
330
276
330
277
330
278
330
279
330
27A
330
27B
330
27C
330
27D
330
27E
330
27F
330
280
330
281
330
2A7
330
2C6
330
2C7
330
2EA
330
2EB
330
2EC
330
2ED
330
2EF
330
2F0
330
2F1
330
2F2
330
2FC
330
2FD
330
2FE
330
30C
330
30D
330
372
330
373
330
395
330
396
330
3A8
330
3A9
330
3DE
330
BC3
330
BDA
330
BEF
330
C04
330
C1B
330
C6A
330
C6B
330
C6F
330
C70
330
C85
330
C86
330
C87
330
C91
330
C92
330
C93
330
C99
330
C9A
330
C9E
330
C9F
330
CE7
330
CE8
330
CFD
330
D14
330
D3C
330
D3D
330
D5A
330
D86
330
D87
330
D8B
330
D8C
330
D8D
330
D91
330
D92
330
D99
330
DD8
330
DE5
330
F36
330
F37
330
F38
330
F39
330
F3A
330
F3B
330
F41
330
F42
330
F45
330
F4C
330
F4D
330
F4E
330
F4F
330
F5B
330
F5C
330
F5D
330
F5E
330
F68
330
F69
330
F6A
330
F6B
330
F6C
330
F6D
330
F6E
330
F72
330
F73
330
F74
330
F75
330
F76
330
F77
330
F78
330
F79
330
F7A
330
F7B
330
F7C
330
F7D
330
F7E
330
F7F
330
F80
330
F81
330
F87
330
F89
330
F8E
330
F94
330
F95
330
F98
330
F99
330
F9A
330
F9B
330
F9C
330
F9D
330
F9E
330
F9F
330
FA0
330
FA1
330
FA2
330
FA3
330
FA4
330
FA5
330
FA6
330
FA7
330
FA8
330
FA9
330
FAA
330
FAB
330
FAC
330
FAD
330
FAE
330
FAF
330
FB0
330
FB1
330
FB2
330
FB3
330
FB4
330
FB5
330
FB6
330
FB7
330
FB8
330
FB9
330
FBA
330
FBB
330
FBC
330
FBD
330
FBE
330
FBF
330
FC0
330
FC1
330
FC2
330
FC3
330
FC4
330
1009
330
1020
330
103D
330
1054
330
10E0
330
10F8
330
10FB
330
1112
330
1129
330
1140
330
1250
330
12CE
330
134F
330
13E0
  0
IDBUFFER
  5
16EF
330
16ED
100
AcDbIdBuffer
330
21D
330
15D3
330
1635
  0
IDBUFFER
  5
16F0
330
16ED
100
AcDbIdBuffer
  0
IDBUFFER
  5
16F1
330
16ED
100
AcDbIdBuffer
  0
IDBUFFER
  5
16F2
330
16ED
100
AcDbIdBuffer
  0
IDBUFFER
  5
16F3
330
16ED
100
AcDbIdBuffer
330
303
330
304
330
308
330
309
330
30A
330
30B
330
10F7
330
117C
  0
IDBUFFER
  5
16F4
330
16ED
100
AcDbIdBuffer
330
315
  0
IDBUFFER
  5
16F5
330
16ED
100
AcDbIdBuffer
330
33B
  0
IDBUFFER
  5
16F6
330
16ED
100
AcDbIdBuffer
330
9A0
330
9A1
330
9A6
330
9A8
330
9A9
330
9AF
330
9B0
330
9B1
330
9B2
330
9B3
330
9B4
330
9B5
330
9B7
330
9BD
330
9BE
330
9BF
330
9C0
330
9C1
330
9C3
330
9C5
330
9CF
330
9D6
330
9DA
330
A61
330
A64
330
A65
330
A66
  0
IDBUFFER
  5
16F7
330
16ED
100
AcDbIdBuffer
330
307
330
334
330
98C
330
98D
330
98E
330
98F
330
990
330
991
330
992
330
993
330
994
330
995
330
996
330
997
330
998
330
999
330
99A
330
99B
330
99C
330
9A2
330
9A3
330
9A4
330
9A5
330
9A7
330
9AA
330
9AB
330
9AC
330
9AD
330
9AE
330
9B6
330
9B8
330
9BC
330
9C2
330
9C6
330
9C7
330
9C8
330
9C9
330
9CA
330
9CB
330
9CC
330
9CD
330
9D7
330
9D8
330
9D9
330
A62
330
A63
330
A67
330
A68
330
A69
330
A6A
  0
IDBUFFER
  5
16F8
330
16ED
100
AcDbIdBuffer
330
9BB
330
9C4
330
9CE
330
9D0
330
9D1
330
9D3
330
9D4
330
9D5
  0
ENDSEC
  0
EOF
