  0
SECTION
  2
HEADER
  9
$ACADVER
  1
AC1015
  9
$ACADMAINTVER
 70
     6
  9
$DWGCODEPAGE
  3
ANSI_932
  9
$INSBASE
 10
0.0
 20
0.0
 30
0.0
  9
$EXTMIN
 10
-117.0102164391756
 20
-747.7072255267002
 30
0.0
  9
$EXTMAX
 10
8282.989783560823
 20
5993.216560509552
 30
0.0
  9
$LIMMIN
 10
0.0
 20
0.0
  9
$LIMMAX
 10
8400.0
 20
5940.0
  9
$ORTHOMODE
 70
     1
  9
$REGENMODE
 70
     0
  9
$FILLMODE
 70
     1
  9
$QTEXTMODE
 70
     0
  9
$MIRRTEXT
 70
     1
  9
$LTSCALE
 40
23.29539777382546
  9
$ATTMODE
 70
     1
  9
$TEXTSIZE
 40
40.0
  9
$TRACEWID
 40
0.05
  9
$TEXTSTYLE
  7
STD
  9
$CLAYER
  8
0
  9
$CELTYPE
  6
CONTINUOUS
  9
$CECOLOR
 62
     7
  9
$CELTSCALE
 40
1.0
  9
$DISPSILH
 70
     0
  9
$DIMSCALE
 40
20.0
  9
$DIMASZ
 40
2.3
  9
$DIMEXO
 40
1.0
  9
$DIMDLI
 40
8.0
  9
$DIMRND
 40
0.0
  9
$DIMDLE
 40
2.0
  9
$DIMEXE
 40
1.0
  9
$DIMTP
 40
0.0
  9
$DIMTM
 40
0.0
  9
$DIMTXT
 40
2.0
  9
$DIMCEN
 40
0.0
  9
$DIMTSZ
 40
0.0
  9
$DIMTOL
 70
     0
  9
$DIMLIM
 70
     0
  9
$DIMTIH
 70
     0
  9
$DIMTOH
 70
     0
  9
$DIMSE1
 70
     0
  9
$DIMSE2
 70
     0
  9
$DIMTAD
 70
     0
  9
$DIMZIN
 70
     8
  9
$DIMBLK
  1
ARRI
  9
$DIMASO
 70
     1
  9
$DIMSHO
 70
     0
  9
$DIMPOST
  1

  9
$DIMAPOST
  1

  9
$DIMALT
 70
     0
  9
$DIMALTD
 70
     2
  9
$DIMALTF
 40
25.4
  9
$DIMLFAC
 40
1.0
  9
$DIMTOFL
 70
     1
  9
$DIMTVP
 40
1.0
  9
$DIMTIX
 70
     0
  9
$DIMSOXD
 70
     0
  9
$DIMSAH
 70
     1
  9
$DIMBLK1
  1
ARRI
  9
$DIMBLK2
  1
ARRI
  9
$DIMSTYLE
  2
ASKSTANDARD
  9
$DIMCLRD
 70
     3
  9
$DIMCLRE
 70
     3
  9
$DIMCLRT
 70
     3
  9
$DIMTFAC
 40
0.7
  9
$DIMGAP
 40
0.09
  9
$DIMJUST
 70
     0
  9
$DIMSD1
 70
     0
  9
$DIMSD2
 70
     0
  9
$DIMTOLJ
 70
     1
  9
$DIMTZIN
 70
     0
  9
$DIMALTZ
 70
     0
  9
$DIMALTTZ
 70
     0
  9
$DIMUPT
 70
     0
  9
$DIMDEC
 70
     2
  9
$DIMTDEC
 70
     2
  9
$DIMALTU
 70
     2
  9
$DIMALTTD
 70
     2
  9
$DIMTXSTY
  7
STANDARD
  9
$DIMAUNIT
 70
     0
  9
$DIMADEC
 70
     0
  9
$DIMALTRND
 40
0.0
  9
$DIMAZIN
 70
     0
  9
$DIMDSEP
 70
    46
  9
$DIMATFIT
 70
     3
  9
$DIMFRAC
 70
     0
  9
$DIMLDRBLK
  1
ARRI
  9
$DIMLUNIT
 70
     2
  9
$DIMLWD
 70
    -2
  9
$DIMLWE
 70
    -2
  9
$DIMTMOVE
 70
     2
  9
$LUNITS
 70
     2
  9
$LUPREC
 70
     2
  9
$SKETCHINC
 40
0.1
  9
$FILLETRAD
 40
0.0
  9
$AUNITS
 70
     0
  9
$AUPREC
 70
     2
  9
$MENU
  1
sk
  9
$ELEVATION
 40
0.0
  9
$PELEVATION
 40
0.0
  9
$THICKNESS
 40
0.0
  9
$LIMCHECK
 70
     0
  9
$CHAMFERA
 40
0.0
  9
$CHAMFERB
 40
0.0
  9
$CHAMFERC
 40
0.0
  9
$CHAMFERD
 40
0.0
  9
$SKPOLY
 70
     0
  9
$TDCREATE
 40
2449288.634768519
  9
$TDUCREATE
 40
2449288.259768519
  9
$TDUPDATE
 40
2458697.611542662
  9
$TDUUPDATE
 40
2458697.236542662
  9
$TDINDWG
 40
0.2181321412
  9
$TDUSRTIMER
 40
0.0005789352
  9
$USRTIMER
 70
     1
  9
$ANGBASE
 50
0.0
  9
$ANGDIR
 70
     0
  9
$PDMODE
 70
     0
  9
$PDSIZE
 40
0.0
  9
$PLINEWID
 40
0.0
  9
$SPLFRAME
 70
     0
  9
$SPLINETYPE
 70
     6
  9
$SPLINESEGS
 70
     8
  9
$HANDSEED
  5
2E48
  9
$SURFTAB1
 70
     6
  9
$SURFTAB2
 70
     6
  9
$SURFTYPE
 70
     6
  9
$SURFU
 70
     6
  9
$SURFV
 70
     6
  9
$UCSBASE
  2

  9
$UCSNAME
  2
DIM_LEADER
  9
$UCSORG
 10
0.0
 20
0.0
 30
0.0
  9
$UCSXDIR
 10
1.0
 20
0.0
 30
0.0
  9
$UCSYDIR
 10
0.0
 20
1.0
 30
0.0
  9
$UCSORTHOREF
  2

  9
$UCSORTHOVIEW
 70
     0
  9
$UCSORGTOP
 10
0.0
 20
0.0
 30
0.0
  9
$UCSORGBOTTOM
 10
0.0
 20
0.0
 30
0.0
  9
$UCSORGLEFT
 10
0.0
 20
0.0
 30
0.0
  9
$UCSORGRIGHT
 10
0.0
 20
0.0
 30
0.0
  9
$UCSORGFRONT
 10
0.0
 20
0.0
 30
0.0
  9
$UCSORGBACK
 10
0.0
 20
0.0
 30
0.0
  9
$PUCSBASE
  2

  9
$PUCSNAME
  2

  9
$PUCSORG
 10
0.0
 20
0.0
 30
0.0
  9
$PUCSXDIR
 10
1.0
 20
0.0
 30
0.0
  9
$PUCSYDIR
 10
0.0
 20
1.0
 30
0.0
  9
$PUCSORTHOREF
  2

  9
$PUCSORTHOVIEW
 70
     0
  9
$PUCSORGTOP
 10
0.0
 20
0.0
 30
0.0
  9
$PUCSORGBOTTOM
 10
0.0
 20
0.0
 30
0.0
  9
$PUCSORGLEFT
 10
0.0
 20
0.0
 30
0.0
  9
$PUCSORGRIGHT
 10
0.0
 20
0.0
 30
0.0
  9
$PUCSORGFRONT
 10
0.0
 20
0.0
 30
0.0
  9
$PUCSORGBACK
 10
0.0
 20
0.0
 30
0.0
  9
$USERI1
 70
     0
  9
$USERI2
 70
     0
  9
$USERI3
 70
     0
  9
$USERI4
 70
     0
  9
$USERI5
 70
    15
  9
$USERR1
 40
0.0
  9
$USERR2
 40
0.0
  9
$USERR3
 40
0.0
  9
$USERR4
 40
0.0
  9
$USERR5
 40
0.0
  9
$WORLDVIEW
 70
     1
  9
$SHADEDGE
 70
     3
  9
$SHADEDIF
 70
    70
  9
$TILEMODE
 70
     1
  9
$MAXACTVP
 70
    16
  9
$PINSBASE
 10
0.0
 20
0.0
 30
0.0
  9
$PLIMCHECK
 70
     0
  9
$PEXTMIN
 10
1.000000000000000E+20
 20
1.000000000000000E+20
 30
1.000000000000000E+20
  9
$PEXTMAX
 10
-1.000000000000000E+20
 20
-1.000000000000000E+20
 30
-1.000000000000000E+20
  9
$PLIMMIN
 10
0.0
 20
0.0
  9
$PLIMMAX
 10
0.0
 20
0.0
  9
$UNITMODE
 70
     0
  9
$VISRETAIN
 70
     0
  9
$PLINEGEN
 70
     0
  9
$PSLTSCALE
 70
     0
  9
$TREEDEPTH
 70
     0
  9
$CMLSTYLE
  2
Standard
  9
$CMLJUST
 70
     0
  9
$CMLSCALE
 40
1.0
  9
$PROXYGRAPHICS
 70
     1
  9
$MEASUREMENT
 70
     0
  9
$CELWEIGHT
370
    -1
  9
$ENDCAPS
280
     0
  9
$JOINSTYLE
280
     0
  9
$LWDISPLAY
290
     0
  9
$INSUNITS
 70
     0
  9
$HYPERLINKBASE
  1

  9
$STYLESHEET
  1
モノクロ.ctb
  9
$XEDIT
290
     1
  9
$CEPSNTYPE
380
     0
  9
$PSTYLEMODE
290
     1
  9
$FINGERPRINTGUID
  2
{30A4B5F3-6082-11D5-BED5-00909909B0EE}
  9
$VERSIONGUID
  2
{40D4228B-1A26-46A4-BDE7-75D4DBC45E91}
  9
$EXTNAMES
290
     1
  9
$PSVPSCALE
 40
0.0
  9
$OLESTARTUP
290
     0
  0
ENDSEC
  0
SECTION
  2
CLASSES
  0
CLASS
  1
ACDBDICTIONARYWDFLT
  2
AcDbDictionaryWithDefault
  3
ObjectDBX Classes
 90
        0
280
     0
281
     0
  0
CLASS
  1
ACDBPLACEHOLDER
  2
AcDbPlaceHolder
  3
ObjectDBX Classes
 90
        0
280
     0
281
     0
  0
CLASS
  1
LAYOUT
  2
AcDbLayout
  3
ObjectDBX Classes
 90
        0
280
     0
281
     0
  0
CLASS
  1
ACME_DOCUMENT
  2
AcMeDbDoc
  3
AcMeServices
 90
   -65536
280
     1
281
     0
  0
CLASS
  1
ACMESCOPE
  2
AcMeScope
  3
AcMeServices
 90
        0
280
     1
281
     0
  0
CLASS
  1
ACMECOMMANDHISTORY
  2
AcMeCommandHistory
  3
AcMeServices
 90
        0
280
     1
281
     0
  0
CLASS
  1
DICTIONARYVAR
  2
AcDbDictionaryVar
  3
ObjectDBX Classes
 90
        0
280
     0
281
     0
  0
CLASS
  1
ACIMSYSVARMAN
  2
AcImSysVarManager
  3
AcMeServices
 90
        0
280
     1
281
     0
  0
CLASS
  1
ACIMREALSYSVAR
  2
AcImRealSysVar
  3
AcMeServices
 90
        0
280
     1
281
     0
  0
CLASS
  1
ACIMINTSYSVAR
  2
AcImIntSysVar
  3
AcMeServices
 90
        0
280
     1
281
     0
  0
CLASS
  1
ACMEDRAWINGMAN
  2
AcMeDrawingMan
  3
AcMeServices
 90
        0
280
     1
281
     0
  0
CLASS
  1
ACMEVIEW
  2
AcMeView
  3
AcMeServices
 90
        0
280
     1
281
     0
  0
CLASS
  1
ACDBENTITYCACHE
  2
AcMeEntityCache
  3
AcMeServices
 90
   -65536
280
     1
281
     0
  0
CLASS
  1
GSMANAGER
  2
AcMeGSManager
  3
AcMeServices
 90
   -65536
280
     1
281
     0
  0
CLASS
  1
AmdtInternalReactor
  2
AmdtInternalReactor
  3
AcMeServices
 90
   -65536
280
     1
281
     0
  0
CLASS
  1
ACMESTATEMGR
  2
AcMeStateMgr
  3
AcMeServices
 90
        0
280
     1
281
     0
  0
CLASS
  1
ACGREFMASTER
  2
AcGrefMaster
  3
AcAttribServices
 90
        0
280
     1
281
     0
  0
CLASS
  1
AM_DRAWING_MGR
  2
AcDmDwgMgr
  3
AcMechDwgViewMgmt
 90
        0
280
     1
281
     0
  0
CLASS
  1
AM_DWG_DOCUMENT
  2
AcDmDwgDocument
  3
AcMechDwgViewMgmt
 90
        0
280
     1
281
     0
  0
CLASS
  1
AM_DWG_SHEET
  2
AcDmSheet
  3
AcMechDwgViewMgmt
 90
        0
280
     1
281
     0
  0
CLASS
  1
AM_VIEWDIMPARMAP
  2
AcDmViewDimParMap
  3
AcMechDwgViewMgmt
 90
        0
280
     1
281
     0
  0
CLASS
  1
AM_DWGMGR_NAME
  2
AcDmDwgMgrName
  3
AcMechDwgViewMgmt
 90
        0
280
     1
281
     0
  0
CLASS
  1
ACME_DATABASE
  2
AcMeDbDatabase
  3
AcMeServices
 90
   -65536
280
     1
281
     0
  0
CLASS
  1
ACRFINSADJUSTERMGR
  2
AcRfInsAdjusterMgr
  3
AcMeServices
 90
   -65536
280
     1
281
     0
  0
CLASS
  1
ACGREFMASTER
  2
AcGrefacadMaster
  3
AcGrefServices
 90
        0
280
     1
281
     0
  0
CLASS
  1
AMDTMENUSTATEMGR
  2
AmdtMenuStateMgr
  3
McadcomServices
 90
   -65536
280
     1
281
     0
  0
CLASS
  1
AMDTMCOMMENUSTATE
  2
AmdtMcomMenuState
  3
McadcomServices
 90
   -65536
280
     1
281
     0
  0
CLASS
  1
ASAPP
  2
AcAsAppObject
  3
AutoSurfServices
 90
        0
280
     1
281
     0
  0
CLASS
  1
IM_STATIC_MAN
  2
AcImStaticVarManager
  3
AcMeServices
 90
        0
280
     1
281
     0
  0
CLASS
  1
ACIMSTRSYSVAR
  2
AcImStrSysVar
  3
AcMeServices
 90
        0
280
     1
281
     0
  0
CLASS
  1
ACIMDBLSTATICVAR
  2
AcImDblStaticVar
  3
AcMeServices
 90
        0
280
     1
281
     0
  0
CLASS
  1
ACIMSTRSTATICVAR
  2
AcImStrStaticVar
  3
AcMeServices
 90
        0
280
     1
281
     0
  0
CLASS
  1
ACIMINTSTATICVAR
  2
AcImIntStaticVar
  3
AcMeServices
 90
        0
280
     1
281
     0
  0
CLASS
  1
ACADGREFMODULE
  2
AcAdGrefModule
  3
AdGrefServices
 90
        0
280
     1
281
     0
  0
CLASS
  1
AMIMASTER
  2
AmiMaster
  3
AmiServices
 90
        0
280
     1
281
     0
  0
CLASS
  1
ACASGREFMASTER
  2
AcAsGrefMaster
  3
AutoSurfResolverServices
 90
        0
280
     1
281
     0
  0
CLASS
  1
MAPIAMMOUDLE
  2
MApiAmModule
  3
MApiAmServices
 90
        0
280
     1
281
     0
  0
CLASS
  1
AMGSETTINGSOBJ
  2
AmgSettingsObj
  3
"AcadM|Product Description: AutoCAD Mechanical 2000|Company: Autodesk"
 90
        0
280
     1
281
     0
  0
CLASS
  1
AMDTDMMENUSTATE
  2
AmdtDmMenuState
  3
AcMechDwgViewMgmt
 90
   -65536
280
     1
281
     0
  0
CLASS
  1
AMDTADMENUSTATE
  2
AmdtAdMenuState
  3
DesignerServices
 90
   -65536
280
     1
281
     0
  0
CLASS
  1
ADAPPL
  2
AcAdAppl
  3
DesignerServices
 90
        0
280
     1
281
     0
  0
CLASS
  1
DEPMGR
  2
AcAdDepMgr
  3
DesignerServices
 90
        0
280
     1
281
     0
  0
CLASS
  1
PARAMMGR
  2
AcAdParamMgr
  3
DesignerServices
 90
        0
280
     1
281
     0
  0
CLASS
  1
PARAMSCOPE
  2
AcAdParamScope
  3
DesignerServices
 90
        0
280
     1
281
     0
  0
CLASS
  1
NAMEDAPPL
  2
AcAdNamedAppl
  3
DesignerServices
 90
        0
280
     1
281
     0
  0
CLASS
  1
ADHNTMPLT
  2
AdHoleNoteTemplateMgr
  3
DesignerServices
 90
        0
280
     1
281
     0
  0
CLASS
  1
AM_HNTEMPLATE_MGR_NAME
  2
AdHoleNoteTemplateMgrName
  3
DesignerServices
 90
        0
280
     1
281
     0
  0
CLASS
  1
AMDTAMMENUSTATE
  2
AmdtAmMenuState
  3
DesignerAssemblies
 90
   -65536
280
     1
281
     0
  0
CLASS
  1
ACAMPROJECT
  2
AcAmProject
  3
DesignerAssemblies
 90
        0
280
     1
281
     0
  0
CLASS
  1
ACAMGRCOMPDEF
  2
AcAmGrCompDef
  3
DesignerAssemblies
 90
        0
280
     1
281
     0
  0
CLASS
  1
ACCMCONTEXT
  2
AcCmContext
  3
DesignerAssemblies
 90
        0
280
     1
281
     0
  0
CLASS
  1
ACAMCOMPDEF
  2
AcAmCompDef
  3
DesignerAssemblies
 90
        0
280
     1
281
     0
  0
CLASS
  1
ACAMCOMPDEFMGR
  2
AcAmCompDefMgr
  3
DesignerAssemblies
 90
        0
280
     1
281
     0
  0
CLASS
  1
AMCONTEXTMGR
  2
AcAmContextMgr
  3
DesignerAssemblies
 90
        0
280
     1
281
     0
  0
CLASS
  1
ACAMCONTEXTMODELER
  2
AcAmContextModeler
  3
DesignerAssemblies
 90
        0
280
     1
281
     0
  0
CLASS
  1
MAPIADMODULE
  2
MApiAdModule
  3
MApiAdServices
 90
        0
280
     1
281
     0
  0
CLASS
  1
ACMDATADICTIONARY
  2
AcmDataDictionary
  3
"AcmSymBB|Product Description: AutoCAD Mechanical 2000|Company: Autodesk"
 90
        0
280
     1
281
     0
  0
CLASS
  1
ACMDATAENTRYBLOCK
  2
AcmDataEntryBlock
  3
"AcmSymBB|Product Description: AutoCAD Mechanical 2000|Company: Autodesk"
 90
        0
280
     1
281
     0
  0
CLASS
  1
AMDTBROWSERDBTAB
  2
AmdtBrowserDbTab
  3
McadcomServices
 90
   -65536
280
     1
281
     0
  0
CLASS
  1
CBROWSERAPPOBJECT
  2
CBrowserAppObject
  3
McadcomServices
 90
   -65536
280
     1
281
     0
  0
CLASS
  1
DM_PLACEHOLDER
  2
AcDmSelsetPlaceholder
  3
AcMechDwgViewMgmt
 90
   -65536
280
     1
281
     0
  0
CLASS
  1
CATALOGSTATE
  2
AcAmCatalogState
  3
DesignerAssemblies
 90
        0
280
     1
281
     0
  0
CLASS
  1
ACAMGRCOMPDEFSET
  2
AcAmGrCompDefSet
  3
DesignerAssemblies
 90
   -65536
280
     1
281
     0
  0
CLASS
  1
AMGOBJPROPCFG
  2
AmgObjPropCfg
  3
"AmgLay|Product Description: AutoCAD Mechanical 2000|Company: Autodesk"
 90
        1
280
     1
281
     0
  0
CLASS
  1
ACAMGFILTERDAT
  2
AcAmgFilterDat
  3
"AcadM|Product Description: AutoCAD Mechanical 2000|Company: Autodesk"
 90
        0
280
     1
281
     0
  0
CLASS
  1
LAYER_INDEX
  2
AcDbLayerIndex
  3
ObjectDBX Classes
 90
        0
280
     0
281
     0
  0
CLASS
  1
IDBUFFER
  2
AcDbIdBuffer
  3
ObjectDBX Classes
 90
        0
280
     0
281
     0
  0
CLASS
  1
TABLESTYLE
  2
AcDbTableStyle
  3
ObjectDBX Classes
 90
     4095
280
     0
281
     0
  0
CLASS
  1
SORTENTSTABLE
  2
AcDbSortentsTable
  3
ObjectDBX Classes
 90
        0
280
     0
281
     0
  0
CLASS
  1
MATERIAL
  2
AcDbMaterial
  3
ObjectDBX Classes
 90
     1153
280
     0
281
     0
  0
CLASS
  1
VISUALSTYLE
  2
AcDbVisualStyle
  3
ObjectDBX Classes
 90
     4095
280
     0
281
     0
  0
CLASS
  1
SCALE
  2
AcDbScale
  3
ObjectDBX Classes
 90
     1153
280
     0
281
     0
  0
CLASS
  1
MLEADERSTYLE
  2
AcDbMLeaderStyle
  3
ACDB_MLEADERSTYLE_CLASS
 90
     4095
280
     0
281
     0
  0
CLASS
  1
CELLSTYLEMAP
  2
AcDbCellStyleMap
  3
ObjectDBX Classes
 90
     1152
280
     0
281
     0
  0
ENDSEC
  0
SECTION
  2
TABLES
  0
TABLE
  2
VPORT
  5
8
330
0
100
AcDbSymbolTable
 70
     1
  0
VPORT
  5
2BB0
330
8
100
AcDbSymbolTableRecord
100
AcDbViewportTableRecord
  2
*Active
 70
     0
 10
0.0
 20
0.0
 11
1.0
 21
1.0
 12
4082.989783560824
 22
2622.754667491426
 13
0.0
 23
0.0
 14
1.0
 24
1.0
 15
0.0
 25
0.0
 16
0.0
 26
0.0
 36
1.0
 17
0.0
 27
0.0
 37
0.0
 40
6875.742261756978
 41
1.246120007676174
 42
50.0
 43
0.0
 44
0.0
 50
0.0
 51
0.0
 71
    16
 72
   100
 73
     1
 74
     1
 75
     0
 76
     0
 77
     0
 78
     0
281
     0
 65
     0
110
0.0
120
0.0
130
0.0
111
1.0
121
0.0
131
0.0
112
0.0
122
1.0
132
0.0
 79
     0
146
0.0
  0
ENDTAB
  0
TABLE
  2
LTYPE
  5
5
330
0
100
AcDbSymbolTable
 70
    13
  0
LTYPE
  5
13
330
5
100
AcDbSymbolTableRecord
100
AcDbLinetypeTableRecord
  2
ByBlock
 70
     0
  3

 72
    65
 73
     0
 40
0.0
  0
LTYPE
  5
14
330
5
100
AcDbSymbolTableRecord
100
AcDbLinetypeTableRecord
  2
ByLayer
 70
     0
  3

 72
    65
 73
     0
 40
0.0
  0
LTYPE
  5
15
330
5
100
AcDbSymbolTableRecord
100
AcDbLinetypeTableRecord
  2
CONTINUOUS
 70
     0
  3
Solid line
 72
    65
 73
     0
 40
0.0
  0
LTYPE
  5
3B
330
5
100
AcDbSymbolTableRecord
100
AcDbLinetypeTableRecord
  2
HIDS
 70
     0
  3
(破線１)- - - - - - - - - - - - - - - - - - - -
 72
    65
 73
     2
 40
2.5
 49
1.5
 74
     0
 49
-1.0
 74
     0
  0
LTYPE
  5
3C
330
5
100
AcDbSymbolTableRecord
100
AcDbLinetypeTableRecord
  2
CENL
 70
     0
  3
(一点鎖線２)------ - ------ - ------ - ------ -
 72
    65
 73
     4
 40
19.5
 49
15.0
 74
     0
 49
-1.5
 74
     0
 49
1.5
 74
     0
 49
-1.5
 74
     0
  0
LTYPE
  5
BEA
330
5
100
AcDbSymbolTableRecord
100
AcDbLinetypeTableRecord
  2
DIMENSION
 70
     0
  3

 72
    65
 73
     2
 40
0.000000000000002
 49
0.000000000000001
 74
     0
 49
0.000000000000001
 74
     0
  0
LTYPE
  5
285F
330
5
100
AcDbSymbolTableRecord
100
AcDbLinetypeTableRecord
  2
HIDDEN
 70
     0
  3
Hidden __ __ __ __ __ __ __ __ __ __ __ __ __ _
 72
    65
 73
     2
 40
0.375
 49
0.25
 74
     0
 49
-0.125
 74
     0
  0
LTYPE
  5
2860
330
5
100
AcDbSymbolTableRecord
100
AcDbLinetypeTableRecord
  2
PHANTOM2
 70
     0
  3
Phantom (.5x) ___ _ _ ___ _ _ ___ _ _ ___ _ _
 72
    65
 73
     6
 40
1.25
 49
0.625
 74
     0
 49
-0.125
 74
     0
 49
0.125
 74
     0
 49
-0.125
 74
     0
 49
0.125
 74
     0
 49
-0.125
 74
     0
  0
LTYPE
  5
2861
330
5
100
AcDbSymbolTableRecord
100
AcDbLinetypeTableRecord
  2
CENTER
 70
     0
  3
Center ____ _ ____ _ ____ _ ____ _ ____ _ ____
 72
    65
 73
     4
 40
2.0
 49
1.25
 74
     0
 49
-0.25
 74
     0
 49
0.25
 74
     0
 49
-0.25
 74
     0
  0
LTYPE
  5
28FA
330
5
100
AcDbSymbolTableRecord
100
AcDbLinetypeTableRecord
  2
Amconstr
 70
     0
  3
_______________________
 72
    65
 73
     2
 40
9999.0
 49
9999.0
 74
     0
 49
0.0
 74
     0
  0
LTYPE
  5
2900
330
5
100
AcDbSymbolTableRecord
100
AcDbLinetypeTableRecord
  2
HIDDEN2
 70
     0
  3
Hidden (.5x) _ _ _ _ _ _ _ _ _ _ _ _ _ _ _ _ _
 72
    65
 73
     2
 40
0.1875
 49
0.125
 74
     0
 49
-0.0625
 74
     0
  0
LTYPE
  5
2901
330
5
100
AcDbSymbolTableRecord
100
AcDbLinetypeTableRecord
  2
CENTER2
 70
     0
  3
Center (.5x) ___ _ ___ _ ___ _ ___ _ ___ _ ___
 72
    65
 73
     4
 40
1.125
 49
0.75
 74
     0
 49
-0.125
 74
     0
 49
0.125
 74
     0
 49
-0.125
 74
     0
  0
LTYPE
  5
2902
330
5
100
AcDbSymbolTableRecord
100
AcDbLinetypeTableRecord
  2
Amzigzag2
 70
     0
  3
/\/-/\/-/\/-/\/-/\/-/\/
 72
    65
 73
     2
 40
0.4401
 49
0.0001
 74
     4
 75
   135
340
28FE
 46
0.0016
 50
0.0
 44
0.0
 45
0.0
 49
-0.44
 74
     0
  0
LTYPE
  5
2AAD
330
5
100
AcDbSymbolTableRecord
100
AcDbLinetypeTableRecord
  2
HIDDENX2
 70
     0
  3
____ ____ ____ ____ ____ ____ ____ ____ ____ __
 72
    65
 73
     2
 40
0.75
 49
0.5
 74
     0
 49
-0.25
 74
     0
  0
LTYPE
  5
2B70
330
5
100
AcDbSymbolTableRecord
100
AcDbLinetypeTableRecord
  2
DRAFT
 70
     0
  3
_______________________________________________
 72
    65
 73
     2
 40
0.000000000000002
 49
0.000000000000001
 74
     0
 49
0.000000000000001
 74
     0
  0
ENDTAB
  0
TABLE
  2
LAYER
  5
2
102
{ACAD_XDICTIONARY
360
2A91
102
}
330
0
100
AcDbSymbolTable
 70
    11
  0
LAYER
  5
10
102
{ACAD_XDICTIONARY
360
2C07
102
}
330
2
100
AcDbSymbolTableRecord
100
AcDbLayerTableRecord
  2
0
 70
     0
 62
     3
  6
CONTINUOUS
370
    -3
390
F
  0
LAYER
  5
40
102
{ACAD_XDICTIONARY
360
2C09
102
}
330
2
100
AcDbSymbolTableRecord
100
AcDbLayerTableRecord
  2
1
 70
     0
 62
     7
  6
CONTINUOUS
370
    -3
390
F
  0
LAYER
  5
41
102
{ACAD_XDICTIONARY
360
2C0B
102
}
330
2
100
AcDbSymbolTableRecord
100
AcDbLayerTableRecord
  2
3
 70
     0
 62
     4
  6
CONTINUOUS
370
    -3
390
F
  0
LAYER
  5
42
102
{ACAD_XDICTIONARY
360
2C0D
102
}
330
2
100
AcDbSymbolTableRecord
100
AcDbLayerTableRecord
  2
SUNPO_0
 70
     0
 62
     7
  6
CONTINUOUS
370
    -3
390
F
  0
LAYER
  5
43
330
2
100
AcDbSymbolTableRecord
100
AcDbLayerTableRecord
  2
DEFPOINTS
 70
     0
 62
    -7
  6
CONTINUOUS
290
     0
370
    -3
390
F
  0
LAYER
  5
44
102
{ACAD_XDICTIONARY
360
2C0F
102
}
330
2
100
AcDbSymbolTableRecord
100
AcDbLayerTableRecord
  2
HATCHING_0
 70
     0
 62
     7
  6
CONTINUOUS
370
    -3
390
F
  0
LAYER
  5
45
102
{ACAD_XDICTIONARY
360
2C11
102
}
330
2
100
AcDbSymbolTableRecord
100
AcDbLayerTableRecord
  2
TEXT_0
 70
     0
 62
     7
  6
CONTINUOUS
370
    -3
390
F
  0
LAYER
  5
517
102
{ACAD_XDICTIONARY
360
2C13
102
}
330
2
100
AcDbSymbolTableRecord
100
AcDbLayerTableRecord
  2
ASKPAPERSIZE
 70
     0
 62
     7
  6
CONTINUOUS
290
     0
370
    -3
390
F
  0
LAYER
  5
518
102
{ACAD_XDICTIONARY
360
2C15
102
}
330
2
100
AcDbSymbolTableRecord
100
AcDbLayerTableRecord
  2
9図面枠
 70
     0
 62
     5
  6
CONTINUOUS
370
    -3
390
F
  0
LAYER
  5
519
102
{ACAD_XDICTIONARY
360
2C17
102
}
330
2
100
AcDbSymbolTableRecord
100
AcDbLayerTableRecord
  2
9図面文字
 70
     0
 62
     7
  6
CONTINUOUS
370
    -3
390
F
  0
LAYER
  5
51A
102
{ACAD_XDICTIONARY
360
2C19
102
}
330
2
100
AcDbSymbolTableRecord
100
AcDbLayerTableRecord
  2
非表示破線
 70
     0
 62
     7
  6
CONTINUOUS
290
     0
370
    -3
390
F
  0
ENDTAB
  0
TABLE
  2
STYLE
  5
3
330
0
100
AcDbSymbolTable
 70
     6
  0
STYLE
  5
11
330
3
100
AcDbSymbolTableRecord
100
AcDbTextStyleTableRecord
  2
STANDARD
 70
     0
 40
0.0
 41
1.0
 50
0.0
 71
     0
 42
4.0
  3
TXT
  4
BIGFONT
  0
STYLE
  5
3A
330
3
100
AcDbSymbolTableRecord
100
AcDbTextStyleTableRecord
  2
STD
 70
     0
 40
0.0
 41
1.0
 50
0.0
 71
     0
 42
40.0
  3
TXT
  4
BIGFONT
  0
STYLE
  5
51B
330
3
100
AcDbSymbolTableRecord
100
AcDbTextStyleTableRecord
  2
STYLE1
 70
     0
 40
0.0
 41
1.0
 50
0.0
 71
     0
 42
64.0
  3

  4

1001
ACAD
1000
MS PGothic
1071
    32818
  0
STYLE
  5
51C
330
3
100
AcDbSymbolTableRecord
100
AcDbTextStyleTableRecord
  2
STYLE3
 70
     0
 40
0.0
 41
1.5
 50
0.0
 71
     0
 42
64.0
  3

  4

1001
ACAD
1000
MS PGothic
1071
    32818
  0
STYLE
  5
2821
330
3
100
AcDbSymbolTableRecord
100
AcDbTextStyleTableRecord
  2
ｽﾀｲﾙ1
 70
     0
 40
0.0
 41
1.0
 50
0.0
 71
     0
 42
64.0
  3

  4

1001
ACAD
1000
HGGyoshotai
1071
    32833
1001
ASKOBJSC
1000
1/5
1001
ASKDWGSC
1040
20.0
  0
STYLE
  5
28FE
330
3
100
AcDbSymbolTableRecord
100
AcDbTextStyleTableRecord
  2

 70
     1
 40
0.0
 41
1.0
 50
0.0
 71
     0
 42
40.0
  3
ltypeshp.shx
  4

  0
ENDTAB
  0
TABLE
  2
VIEW
  5
6
330
0
100
AcDbSymbolTable
 70
     1
  0
VIEW
  5
3D
330
6
100
AcDbSymbolTableRecord
100
AcDbViewTableRecord
  2
V0
 70
     0
 40
5940.0
 10
4200.0
 20
2970.0
 41
8400.0
 11
0.0
 21
0.0
 31
1.0
 12
0.0
 22
0.0
 32
0.0
 42
50.0
 43
0.0
 44
0.0
 50
0.0
 71
     0
281
     0
 72
     0
  0
ENDTAB
  0
TABLE
  2
UCS
  5
7
330
0
100
AcDbSymbolTable
 70
     1
  0
UCS
  5
2AD6
330
7
100
AcDbSymbolTableRecord
100
AcDbUCSTableRecord
  2
DIM_LEADER
 70
     0
 10
0.0
 20
0.0
 30
0.0
 11
1.0
 21
0.0
 31
0.0
 12
0.0
 22
1.0
 32
0.0
 79
     0
146
0.0
  0
ENDTAB
  0
TABLE
  2
APPID
  5
9
330
0
100
AcDbSymbolTable
 70
    19
  0
APPID
  5
12
330
9
100
AcDbSymbolTableRecord
100
AcDbRegAppTableRecord
  2
ACAD
 70
     0
  0
APPID
  5
51F
330
9
100
AcDbSymbolTableRecord
100
AcDbRegAppTableRecord
  2
AUTO_SEKKEIYA
 70
     0
  0
APPID
  5
1502
330
9
100
AcDbSymbolTableRecord
100
AcDbRegAppTableRecord
  2
ASKOBJSC
 70
     0
  0
APPID
  5
1503
330
9
100
AcDbSymbolTableRecord
100
AcDbRegAppTableRecord
  2
ASKDWGSC
 70
     0
  0
APPID
  5
283F
330
9
100
AcDbSymbolTableRecord
100
AcDbRegAppTableRecord
  2
MCAD_NO_VIS
 70
     0
  0
APPID
  5
2840
330
9
100
AcDbSymbolTableRecord
100
AcDbRegAppTableRecord
  2
ACAD_TEMP_GRAPHIC
 70
     0
  0
APPID
  5
2875
330
9
100
AcDbSymbolTableRecord
100
AcDbRegAppTableRecord
  2
AD_DRAW
 70
     0
  0
APPID
  5
2878
330
9
100
AcDbSymbolTableRecord
100
AcDbRegAppTableRecord
  2
ACATTRIBSERVICES
 70
     0
  0
APPID
  5
28B0
330
9
100
AcDbSymbolTableRecord
100
AcDbRegAppTableRecord
  2
ASURF_PCURVE_APPNAME
 70
     0
  0
APPID
  5
28B8
330
9
100
AcDbSymbolTableRecord
100
AcDbRegAppTableRecord
  2
GENIUS_GENDIM_13
 70
     0
  0
APPID
  5
28B9
330
9
100
AcDbSymbolTableRecord
100
AcDbRegAppTableRecord
  2
GENIUS_GENDTOL_13
 70
     0
  0
APPID
  5
28BA
330
9
100
AcDbSymbolTableRecord
100
AcDbRegAppTableRecord
  2
GENIUS_GE3DTOL_13
 70
     0
  0
APPID
  5
28E8
330
9
100
AcDbSymbolTableRecord
100
AcDbRegAppTableRecord
  2
DESIGNERASSEMBLIES
 70
     0
  0
APPID
  5
28F1
330
9
100
AcDbSymbolTableRecord
100
AcDbRegAppTableRecord
  2
ACADM_DIM_EDIT
 70
     0
  0
APPID
  5
2C05
330
9
100
AcDbSymbolTableRecord
100
AcDbRegAppTableRecord
  2
ACAD_EXEMPT_FROM_CAD_STANDARDS
 70
     0
  0
APPID
  5
2C5B
330
9
100
AcDbSymbolTableRecord
100
AcDbRegAppTableRecord
  2
ACAD_MLEADERVER
 70
     0
  0
APPID
  5
2CBE
330
9
100
AcDbSymbolTableRecord
100
AcDbRegAppTableRecord
  2
GradientColor1ACI
 70
     0
  0
APPID
  5
2CBF
330
9
100
AcDbSymbolTableRecord
100
AcDbRegAppTableRecord
  2
GradientColor2ACI
 70
     0
  0
APPID
  5
2E46
330
9
100
AcDbSymbolTableRecord
100
AcDbRegAppTableRecord
  2
PLOTTRANSPARENCY
 70
     0
  0
ENDTAB
  0
TABLE
  2
DIMSTYLE
  5
A
330
0
100
AcDbSymbolTable
 70
     2
100
AcDbDimStyleTable
  0
DIMSTYLE
105
510
102
{ACAD_REACTORS
330
23FF
102
}
330
A
100
AcDbSymbolTableRecord
100
AcDbDimStyleTableRecord
  2
Standard
 70
     0
178
     0
340
11
  0
DIMSTYLE
105
51E
102
{ACAD_REACTORS
330
2509
330
250A
330
250B
330
250C
330
250D
330
250E
330
250F
330
2510
330
2511
330
2512
330
2513
330
2514
330
2515
330
2527
330
2528
330
2529
330
2AD8
102
}
330
A
100
AcDbSymbolTableRecord
100
AcDbDimStyleTableRecord
  2
ASKSTANDARD
 70
     0
 40
20.0
 41
1.5
 42
1.0
 43
8.0
 44
1.0
 73
     0
 74
     0
 78
     8
140
2.0
141
0.0
145
1.0
146
0.7
147
1.0
172
     1
174
     1
176
     3
177
     3
271
     1
178
     3
271
     1
272
     1
340
3A
  0
ENDTAB
  0
TABLE
  2
BLOCK_RECORD
  5
1
330
0
100
AcDbSymbolTable
 70
    22
  0
BLOCK_RECORD
  5
1E
102
{ACAD_XDICTIONARY
360
290C
102
}
330
1
100
AcDbSymbolTableRecord
100
AcDbBlockTableRecord
  2
*Model_Space
340
21
  0
BLOCK_RECORD
  5
1A
330
1
100
AcDbSymbolTableRecord
100
AcDbBlockTableRecord
  2
*Paper_Space
340
1D
  0
BLOCK_RECORD
  5
22
330
1
100
AcDbSymbolTableRecord
100
AcDbBlockTableRecord
  2
ARRI
340
0
  0
BLOCK_RECORD
  5
2573
330
1
100
AcDbSymbolTableRecord
100
AcDbBlockTableRecord
  2
*D1
340
0
  0
BLOCK_RECORD
  5
257F
330
1
100
AcDbSymbolTableRecord
100
AcDbBlockTableRecord
  2
*D2
340
0
  0
BLOCK_RECORD
  5
258B
330
1
100
AcDbSymbolTableRecord
100
AcDbBlockTableRecord
  2
*D3
340
0
  0
BLOCK_RECORD
  5
2597
330
1
100
AcDbSymbolTableRecord
100
AcDbBlockTableRecord
  2
*D4
340
0
  0
BLOCK_RECORD
  5
25A3
330
1
100
AcDbSymbolTableRecord
100
AcDbBlockTableRecord
  2
*D5
340
0
  0
BLOCK_RECORD
  5
25AF
330
1
100
AcDbSymbolTableRecord
100
AcDbBlockTableRecord
  2
*D6
340
0
  0
BLOCK_RECORD
  5
25BB
330
1
100
AcDbSymbolTableRecord
100
AcDbBlockTableRecord
  2
*D7
340
0
  0
BLOCK_RECORD
  5
25C7
330
1
100
AcDbSymbolTableRecord
100
AcDbBlockTableRecord
  2
*D8
340
0
  0
BLOCK_RECORD
  5
25D3
330
1
100
AcDbSymbolTableRecord
100
AcDbBlockTableRecord
  2
*D9
340
0
  0
BLOCK_RECORD
  5
25DF
330
1
100
AcDbSymbolTableRecord
100
AcDbBlockTableRecord
  2
*D10
340
0
  0
BLOCK_RECORD
  5
25ED
330
1
100
AcDbSymbolTableRecord
100
AcDbBlockTableRecord
  2
*D11
340
0
  0
BLOCK_RECORD
  5
25F9
330
1
100
AcDbSymbolTableRecord
100
AcDbBlockTableRecord
  2
*D12
340
0
  0
BLOCK_RECORD
  5
2605
330
1
100
AcDbSymbolTableRecord
100
AcDbBlockTableRecord
  2
*D13
340
0
  0
BLOCK_RECORD
  5
2611
330
1
100
AcDbSymbolTableRecord
100
AcDbBlockTableRecord
  2
*D14
340
0
  0
BLOCK_RECORD
  5
261F
330
1
100
AcDbSymbolTableRecord
100
AcDbBlockTableRecord
  2
*D15
340
0
  0
BLOCK_RECORD
  5
262B
330
1
100
AcDbSymbolTableRecord
100
AcDbBlockTableRecord
  2
*D16
340
0
  0
BLOCK_RECORD
  5
26E3
330
1
100
AcDbSymbolTableRecord
100
AcDbBlockTableRecord
  2
*D17
340
0
  0
BLOCK_RECORD
  5
2812
330
1
100
AcDbSymbolTableRecord
100
AcDbBlockTableRecord
  2
kami
340
0
102
{BLKREFS
331
2833
102
}
1001
ASKOBJSC
1000
1/5
1001
ASKDWGSC
1040
20.0
  0
BLOCK_RECORD
  5
2819
330
1
100
AcDbSymbolTableRecord
100
AcDbBlockTableRecord
  2
marutomo
340
0
102
{BLKREFS
331
2834
102
}
1001
ASKOBJSC
1000
1/5
1001
ASKDWGSC
1040
20.0
  0
BLOCK_RECORD
  5
28DF
330
1
100
AcDbSymbolTableRecord
100
AcDbBlockTableRecord
  2
*U20
340
0
  0
BLOCK_RECORD
  5
2A8C
330
1
100
AcDbSymbolTableRecord
100
AcDbBlockTableRecord
  2
DOT
340
0
  0
ENDTAB
  0
ENDSEC
  0
SECTION
  2
BLOCKS
  0
BLOCK
  5
48
330
1E
100
AcDbEntity
  8
0
 62
     7
100
AcDbBlockBegin
  2
*Model_Space
 70
     0
 10
0.0
 20
0.0
 30
0.0
  3
*Model_Space
  1

  0
ENDBLK
  5
49
330
1E
100
AcDbEntity
  8
0
 62
     7
100
AcDbBlockEnd
  0
BLOCK
  5
46
330
1A
100
AcDbEntity
 67
     1
  8
0
 62
     7
100
AcDbBlockBegin
  2
*Paper_Space
 70
     0
 10
0.0
 20
0.0
 30
0.0
  3
*Paper_Space
  1

  0
ENDBLK
  5
47
330
1A
100
AcDbEntity
 67
     1
  8
0
 62
     7
100
AcDbBlockEnd
  0
BLOCK
  5
4A
330
22
100
AcDbEntity
  8
0
100
AcDbBlockBegin
  2
ARRI
 70
     0
 10
0.0
 20
0.0
 30
0.0
  3
ARRI
  1

  0
LINE
  5
4B
330
22
100
AcDbEntity
  8
0
  6
ByBlock
 62
     0
100
AcDbLine
 10
-0.9999999999995168
 20
-0.2125565616699987
 30
0.0
 11
0.0000000000005826
 21
0.0000000000000142
 31
0.0
  0
LINE
  5
4C
330
22
100
AcDbEntity
  8
0
  6
ByBlock
 62
     0
100
AcDbLine
 10
0.0000000000005826
 20
0.0000000000000142
 30
0.0
 11
-0.9999999999995168
 21
0.2125565616699276
 31
0.0
  0
LINE
  5
4D
330
22
100
AcDbEntity
  8
0
  6
ByBlock
 62
     0
100
AcDbLine
 10
0.0000000000004832
 20
0.0
 30
0.0
 11
-0.9999999999995168
 21
0.0000000000000284
 31
0.0
  0
ENDBLK
  5
4E
330
22
100
AcDbEntity
  8
0
100
AcDbBlockEnd
  0
BLOCK
  5
257D
330
2573
100
AcDbEntity
  8
0
 62
     7
100
AcDbBlockBegin
  2
*D1
 70
     1
 10
0.0
 20
0.0
 30
0.0
  3
*D1
  1

  0
LINE
  5
2D14
330
2573
100
AcDbEntity
  8
0
  6
DIMENSION
 62
     3
370
    -2
100
AcDbLine
 10
2127.161993520815
 20
4834.047141599243
 30
0.0
 11
2127.161993520815
 21
5064.629585621784
 31
0.0
  0
LINE
  5
2D15
330
2573
100
AcDbEntity
  8
0
  6
DIMENSION
 62
     3
370
    -2
100
AcDbLine
 10
2327.161993520815
 20
4810.047141599243
 30
0.0
 11
2327.161993520815
 21
5064.629585621784
 31
0.0
  0
LINE
  5
2D16
330
2573
100
AcDbEntity
  8
0
  6
DIMENSION
 62
     3
370
    -2
100
AcDbLine
 10
2163.161993520815
 20
5044.629585621784
 30
0.0
 11
2291.161993520815
 21
5044.629585621784
 31
0.0
  0
SOLID
  5
2D17
330
2573
100
AcDbEntity
  8
0
  6
DIMENSION
 62
     3
100
AcDbTrace
 10
2163.161993520815
 20
5050.629585621784
 30
0.0
 11
2163.161993520815
 21
5038.629585621784
 31
0.0
 12
2127.161993520815
 22
5044.629585621784
 32
0.0
 13
2127.161993520815
 23
5044.629585621784
 33
0.0
  0
SOLID
  5
2D18
330
2573
100
AcDbEntity
  8
0
  6
DIMENSION
 62
     3
100
AcDbTrace
 10
2291.161993520815
 20
5050.629585621784
 30
0.0
 11
2291.161993520815
 21
5038.629585621784
 31
0.0
 12
2327.161993520815
 22
5044.629585621784
 32
0.0
 13
2327.161993520815
 23
5044.629585621784
 33
0.0
  0
MTEXT
  5
2D19
330
2573
100
AcDbEntity
  8
0
  6
DIMENSION
 62
     3
100
AcDbMText
 10
2227.161993520815
 20
5084.629585621784
 30
0.0
 40
40.0
 41
0.0
 71
     5
 72
     1
  1
\A1;200
  7
STD
 73
     1
 44
1.0
  0
POINT
  5
2D1A
330
2573
100
AcDbEntity
  8
DEFPOINTS
  6
DIMENSION
 62
     0
100
AcDbPoint
 10
2127.161993520815
 20
4814.047141599243
 30
0.0
  0
POINT
  5
2D1B
330
2573
100
AcDbEntity
  8
DEFPOINTS
  6
DIMENSION
 62
     0
100
AcDbPoint
 10
2327.161993520815
 20
4790.047141599243
 30
0.0
  0
POINT
  5
2D1C
330
2573
100
AcDbEntity
  8
DEFPOINTS
  6
DIMENSION
 62
     0
100
AcDbPoint
 10
2327.161993520815
 20
5044.629585621784
 30
0.0
  0
ENDBLK
  5
257E
330
2573
100
AcDbEntity
  8
0
 62
     7
100
AcDbBlockEnd
  0
BLOCK
  5
2589
330
257F
100
AcDbEntity
  8
0
 62
     7
100
AcDbBlockBegin
  2
*D2
 70
     1
 10
0.0
 20
0.0
 30
0.0
  3
*D2
  1

  0
LINE
  5
2D1D
330
257F
100
AcDbEntity
  8
0
  6
DIMENSION
 62
     3
370
    -2
100
AcDbLine
 10
2327.161993520815
 20
4830.047141599243
 30
0.0
 11
2327.161993520815
 21
5064.629585621784
 31
0.0
  0
LINE
  5
2D1E
330
257F
100
AcDbEntity
  8
0
  6
DIMENSION
 62
     3
370
    -2
100
AcDbLine
 10
3327.161993520815
 20
4810.047141599243
 30
0.0
 11
3327.161993520815
 21
5064.629585621784
 31
0.0
  0
LINE
  5
2D1F
330
257F
100
AcDbEntity
  8
0
  6
DIMENSION
 62
     3
370
    -2
100
AcDbLine
 10
2363.161993520815
 20
5044.629585621784
 30
0.0
 11
3291.161993520815
 21
5044.629585621784
 31
0.0
  0
SOLID
  5
2D20
330
257F
100
AcDbEntity
  8
0
  6
DIMENSION
 62
     3
100
AcDbTrace
 10
2363.161993520815
 20
5050.629585621784
 30
0.0
 11
2363.161993520815
 21
5038.629585621784
 31
0.0
 12
2327.161993520815
 22
5044.629585621784
 32
0.0
 13
2327.161993520815
 23
5044.629585621784
 33
0.0
  0
SOLID
  5
2D21
330
257F
100
AcDbEntity
  8
0
  6
DIMENSION
 62
     3
100
AcDbTrace
 10
3291.161993520815
 20
5050.629585621784
 30
0.0
 11
3291.161993520815
 21
5038.629585621784
 31
0.0
 12
3327.161993520815
 22
5044.629585621784
 32
0.0
 13
3327.161993520815
 23
5044.629585621784
 33
0.0
  0
MTEXT
  5
2D22
330
257F
100
AcDbEntity
  8
0
  6
DIMENSION
 62
     3
100
AcDbMText
 10
2827.161993520815
 20
5084.629585621784
 30
0.0
 40
40.0
 41
0.0
 71
     5
 72
     1
  1
\A1;1000
  7
STD
 73
     1
 44
1.0
  0
POINT
  5
2D23
330
257F
100
AcDbEntity
  8
DEFPOINTS
  6
DIMENSION
 62
     0
100
AcDbPoint
 10
2327.161993520815
 20
4810.047141599243
 30
0.0
  0
POINT
  5
2D24
330
257F
100
AcDbEntity
  8
DEFPOINTS
  6
DIMENSION
 62
     0
100
AcDbPoint
 10
3327.161993520815
 20
4790.047141599243
 30
0.0
  0
POINT
  5
2D25
330
257F
100
AcDbEntity
  8
DEFPOINTS
  6
DIMENSION
 62
     0
100
AcDbPoint
 10
3327.161993520815
 20
5044.629585621784
 30
0.0
  0
ENDBLK
  5
258A
330
257F
100
AcDbEntity
  8
0
 62
     7
100
AcDbBlockEnd
  0
BLOCK
  5
2595
330
258B
100
AcDbEntity
  8
0
 62
     7
100
AcDbBlockBegin
  2
*D3
 70
     1
 10
0.0
 20
0.0
 30
0.0
  3
*D3
  1

  0
LINE
  5
2D26
330
258B
100
AcDbEntity
  8
0
  6
DIMENSION
 62
     3
370
    -2
100
AcDbLine
 10
3327.161993520815
 20
4830.047141599243
 30
0.0
 11
3327.161993520815
 21
5064.629585621784
 31
0.0
  0
LINE
  5
2D27
330
258B
100
AcDbEntity
  8
0
  6
DIMENSION
 62
     3
370
    -2
100
AcDbLine
 10
3527.161993520815
 20
4834.047141599243
 30
0.0
 11
3527.161993520815
 21
5064.629585621784
 31
0.0
  0
LINE
  5
2D28
330
258B
100
AcDbEntity
  8
0
  6
DIMENSION
 62
     3
370
    -2
100
AcDbLine
 10
3363.161993520815
 20
5044.629585621784
 30
0.0
 11
3491.161993520815
 21
5044.629585621784
 31
0.0
  0
SOLID
  5
2D29
330
258B
100
AcDbEntity
  8
0
  6
DIMENSION
 62
     3
100
AcDbTrace
 10
3363.161993520815
 20
5050.629585621784
 30
0.0
 11
3363.161993520815
 21
5038.629585621784
 31
0.0
 12
3327.161993520815
 22
5044.629585621784
 32
0.0
 13
3327.161993520815
 23
5044.629585621784
 33
0.0
  0
SOLID
  5
2D2A
330
258B
100
AcDbEntity
  8
0
  6
DIMENSION
 62
     3
100
AcDbTrace
 10
3491.161993520815
 20
5050.629585621784
 30
0.0
 11
3491.161993520815
 21
5038.629585621784
 31
0.0
 12
3527.161993520815
 22
5044.629585621784
 32
0.0
 13
3527.161993520815
 23
5044.629585621784
 33
0.0
  0
MTEXT
  5
2D2B
330
258B
100
AcDbEntity
  8
0
  6
DIMENSION
 62
     3
100
AcDbMText
 10
3427.161993520815
 20
5084.629585621784
 30
0.0
 40
40.0
 41
0.0
 71
     5
 72
     1
  1
\A1;200
  7
STD
 73
     1
 44
1.0
  0
POINT
  5
2D2C
330
258B
100
AcDbEntity
  8
DEFPOINTS
  6
DIMENSION
 62
     0
100
AcDbPoint
 10
3327.161993520815
 20
4810.047141599243
 30
0.0
  0
POINT
  5
2D2D
330
258B
100
AcDbEntity
  8
DEFPOINTS
  6
DIMENSION
 62
     0
100
AcDbPoint
 10
3527.161993520815
 20
4814.047141599243
 30
0.0
  0
POINT
  5
2D2E
330
258B
100
AcDbEntity
  8
DEFPOINTS
  6
DIMENSION
 62
     0
100
AcDbPoint
 10
3527.161993520815
 20
5044.629585621784
 30
0.0
  0
ENDBLK
  5
2596
330
258B
100
AcDbEntity
  8
0
 62
     7
100
AcDbBlockEnd
  0
BLOCK
  5
25A1
330
2597
100
AcDbEntity
  8
0
 62
     7
100
AcDbBlockBegin
  2
*D4
 70
     1
 10
0.0
 20
0.0
 30
0.0
  3
*D4
  1

  0
LINE
  5
2D2F
330
2597
100
AcDbEntity
  8
0
  6
DIMENSION
 62
     3
370
    -2
100
AcDbLine
 10
3527.161993520815
 20
4854.047141599243
 30
0.0
 11
3527.161993520815
 21
5160.834949440279
 31
0.0
  0
LINE
  5
2D30
330
2597
100
AcDbEntity
  8
0
  6
DIMENSION
 62
     3
370
    -2
100
AcDbLine
 10
2127.161993520815
 20
4854.047141599243
 30
0.0
 11
2127.161993520815
 21
5160.834949440279
 31
0.0
  0
LINE
  5
2D31
330
2597
100
AcDbEntity
  8
0
  6
DIMENSION
 62
     3
370
    -2
100
AcDbLine
 10
3491.161993520815
 20
5140.834949440279
 30
0.0
 11
2163.161993520815
 21
5140.834949440279
 31
0.0
  0
SOLID
  5
2D32
330
2597
100
AcDbEntity
  8
0
  6
DIMENSION
 62
     3
100
AcDbTrace
 10
3491.161993520815
 20
5146.834949440279
 30
0.0
 11
3491.161993520815
 21
5134.834949440279
 31
0.0
 12
3527.161993520815
 22
5140.834949440279
 32
0.0
 13
3527.161993520815
 23
5140.834949440279
 33
0.0
  0
SOLID
  5
2D33
330
2597
100
AcDbEntity
  8
0
  6
DIMENSION
 62
     3
100
AcDbTrace
 10
2163.161993520815
 20
5146.834949440279
 30
0.0
 11
2163.161993520815
 21
5134.834949440279
 31
0.0
 12
2127.161993520815
 22
5140.834949440279
 32
0.0
 13
2127.161993520815
 23
5140.834949440279
 33
0.0
  0
MTEXT
  5
2D34
330
2597
100
AcDbEntity
  8
0
  6
DIMENSION
 62
     3
100
AcDbMText
 10
2827.161993520815
 20
5180.834949440279
 30
0.0
 40
40.0
 41
0.0
 71
     5
 72
     1
  1
\A1;1400
  7
STD
 73
     1
 44
1.0
  0
POINT
  5
2D35
330
2597
100
AcDbEntity
  8
DEFPOINTS
  6
DIMENSION
 62
     0
100
AcDbPoint
 10
3527.161993520815
 20
4834.047141599243
 30
0.0
  0
POINT
  5
2D36
330
2597
100
AcDbEntity
  8
DEFPOINTS
  6
DIMENSION
 62
     0
100
AcDbPoint
 10
2127.161993520815
 20
4834.047141599243
 30
0.0
  0
POINT
  5
2D37
330
2597
100
AcDbEntity
  8
DEFPOINTS
  6
DIMENSION
 62
     0
100
AcDbPoint
 10
2127.161993520815
 20
5140.834949440279
 30
0.0
  0
ENDBLK
  5
25A2
330
2597
100
AcDbEntity
  8
0
 62
     7
100
AcDbBlockEnd
  0
BLOCK
  5
25AD
330
25A3
100
AcDbEntity
  8
0
 62
     7
100
AcDbBlockBegin
  2
*D5
 70
     1
 10
0.0
 20
0.0
 30
0.0
  3
*D5
  1

  0
LINE
  5
2D38
330
25A3
100
AcDbEntity
  8
0
  6
DIMENSION
 62
     3
370
    -2
100
AcDbLine
 10
2057.099493520815
 20
4739.984641599243
 30
0.0
 11
1887.835345070614
 21
4739.984641599244
 31
0.0
  0
LINE
  5
2D39
330
25A3
100
AcDbEntity
  8
0
  6
DIMENSION
 62
     3
370
    -2
100
AcDbLine
 10
2057.099493520815
 20
4589.984641599243
 30
0.0
 11
1887.835345070614
 21
4589.984641599244
 31
0.0
  0
LINE
  5
2D3A
330
25A3
100
AcDbEntity
  8
0
  6
DIMENSION
 62
     3
370
    -2
100
AcDbLine
 10
1907.835345070614
 20
4703.984641599244
 30
0.0
 11
1907.835345070614
 21
4625.984641599244
 31
0.0
  0
SOLID
  5
2D3B
330
25A3
100
AcDbEntity
  8
0
  6
DIMENSION
 62
     3
100
AcDbTrace
 10
1901.835345070614
 20
4703.984641599244
 30
0.0
 11
1913.835345070614
 21
4703.984641599244
 31
0.0
 12
1907.835345070614
 22
4739.984641599244
 32
0.0
 13
1907.835345070614
 23
4739.984641599244
 33
0.0
  0
SOLID
  5
2D3C
330
25A3
100
AcDbEntity
  8
0
  6
DIMENSION
 62
     3
100
AcDbTrace
 10
1901.835345070614
 20
4625.984641599244
 30
0.0
 11
1913.835345070614
 21
4625.984641599244
 31
0.0
 12
1907.835345070614
 22
4589.984641599244
 32
0.0
 13
1907.835345070614
 23
4589.984641599244
 33
0.0
  0
MTEXT
  5
2D3D
330
25A3
100
AcDbEntity
  8
0
  6
DIMENSION
 62
     3
100
AcDbMText
 10
1867.835345070613
 20
4664.984641599244
 30
0.0
 40
40.0
 41
0.0
 71
     5
 72
     1
  1
\A1;150
  7
STD
 11
6.123233995736766E-17
 21
1.0
 31
0.0
 73
     1
 44
1.0
  0
POINT
  5
2D3E
330
25A3
100
AcDbEntity
  8
DEFPOINTS
  6
DIMENSION
 62
     0
100
AcDbPoint
 10
2077.099493520815
 20
4739.984641599243
 30
0.0
  0
POINT
  5
2D3F
330
25A3
100
AcDbEntity
  8
DEFPOINTS
  6
DIMENSION
 62
     0
100
AcDbPoint
 10
2077.099493520815
 20
4589.984641599243
 30
0.0
  0
POINT
  5
2D40
330
25A3
100
AcDbEntity
  8
DEFPOINTS
  6
DIMENSION
 62
     0
100
AcDbPoint
 10
1907.835345070614
 20
4589.984641599244
 30
0.0
  0
ENDBLK
  5
25AE
330
25A3
100
AcDbEntity
  8
0
 62
     7
100
AcDbBlockEnd
  0
BLOCK
  5
25B9
330
25AF
100
AcDbEntity
  8
0
 62
     7
100
AcDbBlockBegin
  2
*D6
 70
     1
 10
0.0
 20
0.0
 30
0.0
  3
*D6
  1

  0
LINE
  5
2D41
330
25AF
100
AcDbEntity
  8
0
  6
DIMENSION
 62
     3
370
    -2
100
AcDbLine
 10
2057.161993520815
 20
4589.984641599243
 30
0.0
 11
1887.835345070614
 21
4589.984641599244
 31
0.0
  0
LINE
  5
2D42
330
25AF
100
AcDbEntity
  8
0
  6
DIMENSION
 62
     3
370
    -2
100
AcDbLine
 10
2057.099493520815
 20
4439.984641599243
 30
0.0
 11
1887.835345070614
 21
4439.984641599244
 31
0.0
  0
LINE
  5
2D43
330
25AF
100
AcDbEntity
  8
0
  6
DIMENSION
 62
     3
370
    -2
100
AcDbLine
 10
1907.835345070614
 20
4553.984641599244
 30
0.0
 11
1907.835345070614
 21
4475.984641599244
 31
0.0
  0
SOLID
  5
2D44
330
25AF
100
AcDbEntity
  8
0
  6
DIMENSION
 62
     3
100
AcDbTrace
 10
1901.835345070614
 20
4553.984641599244
 30
0.0
 11
1913.835345070614
 21
4553.984641599244
 31
0.0
 12
1907.835345070614
 22
4589.984641599244
 32
0.0
 13
1907.835345070614
 23
4589.984641599244
 33
0.0
  0
SOLID
  5
2D45
330
25AF
100
AcDbEntity
  8
0
  6
DIMENSION
 62
     3
100
AcDbTrace
 10
1901.835345070614
 20
4475.984641599244
 30
0.0
 11
1913.835345070614
 21
4475.984641599244
 31
0.0
 12
1907.835345070614
 22
4439.984641599244
 32
0.0
 13
1907.835345070614
 23
4439.984641599244
 33
0.0
  0
MTEXT
  5
2D46
330
25AF
100
AcDbEntity
  8
0
  6
DIMENSION
 62
     3
100
AcDbMText
 10
1867.835345070613
 20
4514.984641599244
 30
0.0
 40
40.0
 41
0.0
 71
     5
 72
     1
  1
\A1;150
  7
STD
 11
6.123233995736766E-17
 21
1.0
 31
0.0
 73
     1
 44
1.0
  0
POINT
  5
2D47
330
25AF
100
AcDbEntity
  8
DEFPOINTS
  6
DIMENSION
 62
     0
100
AcDbPoint
 10
2077.161993520815
 20
4589.984641599243
 30
0.0
  0
POINT
  5
2D48
330
25AF
100
AcDbEntity
  8
DEFPOINTS
  6
DIMENSION
 62
     0
100
AcDbPoint
 10
2077.099493520815
 20
4439.984641599243
 30
0.0
  0
POINT
  5
2D49
330
25AF
100
AcDbEntity
  8
DEFPOINTS
  6
DIMENSION
 62
     0
100
AcDbPoint
 10
1907.835345070614
 20
4439.984641599244
 30
0.0
  0
ENDBLK
  5
25BA
330
25AF
100
AcDbEntity
  8
0
 62
     7
100
AcDbBlockEnd
  0
BLOCK
  5
25C5
330
25BB
100
AcDbEntity
  8
0
 62
     7
100
AcDbBlockBegin
  2
*D7
 70
     1
 10
0.0
 20
0.0
 30
0.0
  3
*D7
  1

  0
LINE
  5
2D4A
330
25BB
100
AcDbEntity
  8
0
  6
DIMENSION
 62
     3
370
    -2
100
AcDbLine
 10
2037.099493520815
 20
4439.984641599244
 30
0.0
 11
1784.711072522533
 21
4439.984641599244
 31
0.0
  0
LINE
  5
2D4B
330
25BB
100
AcDbEntity
  8
0
  6
DIMENSION
 62
     3
370
    -2
100
AcDbLine
 10
2037.099493520816
 20
4739.984641599244
 30
0.0
 11
1784.711072522533
 21
4739.984641599244
 31
0.0
  0
LINE
  5
2D4C
330
25BB
100
AcDbEntity
  8
0
  6
DIMENSION
 62
     3
370
    -2
100
AcDbLine
 10
1804.711072522533
 20
4475.984641599244
 30
0.0
 11
1804.711072522533
 21
4703.984641599244
 31
0.0
  0
SOLID
  5
2D4D
330
25BB
100
AcDbEntity
  8
0
  6
DIMENSION
 62
     3
100
AcDbTrace
 10
1798.711072522533
 20
4475.984641599244
 30
0.0
 11
1810.711072522533
 21
4475.984641599244
 31
0.0
 12
1804.711072522533
 22
4439.984641599244
 32
0.0
 13
1804.711072522533
 23
4439.984641599244
 33
0.0
  0
SOLID
  5
2D4E
330
25BB
100
AcDbEntity
  8
0
  6
DIMENSION
 62
     3
100
AcDbTrace
 10
1798.711072522533
 20
4703.984641599244
 30
0.0
 11
1810.711072522533
 21
4703.984641599244
 31
0.0
 12
1804.711072522533
 22
4739.984641599244
 32
0.0
 13
1804.711072522533
 23
4739.984641599244
 33
0.0
  0
MTEXT
  5
2D4F
330
25BB
100
AcDbEntity
  8
0
  6
DIMENSION
 62
     3
100
AcDbMText
 10
1764.711072522532
 20
4589.984641599244
 30
0.0
 40
40.0
 41
0.0
 71
     5
 72
     1
  1
\A1;300
  7
STD
 11
6.123233995736766E-17
 21
1.0
 31
0.0
 73
     1
 44
1.0
  0
POINT
  5
2D50
330
25BB
100
AcDbEntity
  8
DEFPOINTS
  6
DIMENSION
 62
     0
100
AcDbPoint
 10
2057.099493520815
 20
4439.984641599243
 30
0.0
  0
POINT
  5
2D51
330
25BB
100
AcDbEntity
  8
DEFPOINTS
  6
DIMENSION
 62
     0
100
AcDbPoint
 10
2057.099493520815
 20
4739.984641599243
 30
0.0
  0
POINT
  5
2D52
330
25BB
100
AcDbEntity
  8
DEFPOINTS
  6
DIMENSION
 62
     0
100
AcDbPoint
 10
1804.711072522533
 20
4739.984641599244
 30
0.0
  0
ENDBLK
  5
25C6
330
25BB
100
AcDbEntity
  8
0
 62
     7
100
AcDbBlockEnd
  0
BLOCK
  5
25D1
330
25C7
100
AcDbEntity
  8
0
 62
     7
100
AcDbBlockBegin
  2
*D8
 70
     1
 10
0.0
 20
0.0
 30
0.0
  3
*D8
  1

  0
LINE
  5
2D53
330
25C7
100
AcDbEntity
  8
0
  6
DIMENSION
 62
     3
370
    -2
100
AcDbLine
 10
2127.161993520815
 20
2302.37776863657
 30
0.0
 11
2127.161993520815
 21
2137.541890139764
 31
0.0
  0
LINE
  5
2D54
330
25C7
100
AcDbEntity
  8
0
  6
DIMENSION
 62
     3
370
    -2
100
AcDbLine
 10
3527.161993520815
 20
2302.37776863657
 30
0.0
 11
3527.161993520815
 21
2137.541890139764
 31
0.0
  0
LINE
  5
2D55
330
25C7
100
AcDbEntity
  8
0
  6
DIMENSION
 62
     3
370
    -2
100
AcDbLine
 10
2163.161993520815
 20
2157.541890139764
 30
0.0
 11
3491.161993520815
 21
2157.541890139764
 31
0.0
  0
SOLID
  5
2D56
330
25C7
100
AcDbEntity
  8
0
  6
DIMENSION
 62
     3
100
AcDbTrace
 10
2163.161993520815
 20
2163.541890139764
 30
0.0
 11
2163.161993520815
 21
2151.541890139764
 31
0.0
 12
2127.161993520815
 22
2157.541890139764
 32
0.0
 13
2127.161993520815
 23
2157.541890139764
 33
0.0
  0
SOLID
  5
2D57
330
25C7
100
AcDbEntity
  8
0
  6
DIMENSION
 62
     3
100
AcDbTrace
 10
3491.161993520815
 20
2163.541890139764
 30
0.0
 11
3491.161993520815
 21
2151.541890139764
 31
0.0
 12
3527.161993520815
 22
2157.541890139764
 32
0.0
 13
3527.161993520815
 23
2157.541890139764
 33
0.0
  0
MTEXT
  5
2D58
330
25C7
100
AcDbEntity
  8
0
  6
DIMENSION
 62
     3
100
AcDbMText
 10
2827.161993520815
 20
2197.541890139764
 30
0.0
 40
40.0
 41
0.0
 71
     5
 72
     1
  1
\A1;1400
  7
STD
 73
     1
 44
1.0
  0
POINT
  5
2D59
330
25C7
100
AcDbEntity
  8
DEFPOINTS
  6
DIMENSION
 62
     0
100
AcDbPoint
 10
2127.161993520815
 20
2322.37776863657
 30
0.0
  0
POINT
  5
2D5A
330
25C7
100
AcDbEntity
  8
DEFPOINTS
  6
DIMENSION
 62
     0
100
AcDbPoint
 10
3527.161993520815
 20
2322.37776863657
 30
0.0
  0
POINT
  5
2D5B
330
25C7
100
AcDbEntity
  8
DEFPOINTS
  6
DIMENSION
 62
     0
100
AcDbPoint
 10
3527.161993520815
 20
2157.541890139764
 30
0.0
  0
ENDBLK
  5
25D2
330
25C7
100
AcDbEntity
  8
0
 62
     7
100
AcDbBlockEnd
  0
BLOCK
  5
25DD
330
25D3
100
AcDbEntity
  8
0
 62
     7
100
AcDbBlockBegin
  2
*D9
 70
     1
 10
0.0
 20
0.0
 30
0.0
  3
*D9
  1

  0
LINE
  5
2D5C
330
25D3
100
AcDbEntity
  8
0
  6
DIMENSION
 62
     3
370
    -2
100
AcDbLine
 10
2077.161993520815
 20
2304.31614655882
 30
0.0
 11
2077.161993520815
 21
2027.390790360816
 31
0.0
  0
LINE
  5
2D5D
330
25D3
100
AcDbEntity
  8
0
  6
DIMENSION
 62
     3
370
    -2
100
AcDbLine
 10
3577.161993520815
 20
2304.31614655882
 30
0.0
 11
3577.161993520815
 21
2027.390790360816
 31
0.0
  0
LINE
  5
2D5E
330
25D3
100
AcDbEntity
  8
0
  6
DIMENSION
 62
     3
370
    -2
100
AcDbLine
 10
2113.161993520815
 20
2047.390790360816
 30
0.0
 11
3541.161993520815
 21
2047.390790360816
 31
0.0
  0
SOLID
  5
2D5F
330
25D3
100
AcDbEntity
  8
0
  6
DIMENSION
 62
     3
100
AcDbTrace
 10
2113.161993520815
 20
2053.390790360816
 30
0.0
 11
2113.161993520815
 21
2041.390790360816
 31
0.0
 12
2077.161993520815
 22
2047.390790360816
 32
0.0
 13
2077.161993520815
 23
2047.390790360816
 33
0.0
  0
SOLID
  5
2D60
330
25D3
100
AcDbEntity
  8
0
  6
DIMENSION
 62
     3
100
AcDbTrace
 10
3541.161993520815
 20
2053.390790360816
 30
0.0
 11
3541.161993520815
 21
2041.390790360816
 31
0.0
 12
3577.161993520815
 22
2047.390790360816
 32
0.0
 13
3577.161993520815
 23
2047.390790360816
 33
0.0
  0
MTEXT
  5
2D61
330
25D3
100
AcDbEntity
  8
0
  6
DIMENSION
 62
     3
100
AcDbMText
 10
2827.161993520815
 20
2087.390790360816
 30
0.0
 40
40.0
 41
0.0
 71
     5
 72
     1
  1
\A1;1500
  7
STD
 73
     1
 44
1.0
  0
POINT
  5
2D62
330
25D3
100
AcDbEntity
  8
DEFPOINTS
  6
DIMENSION
 62
     0
100
AcDbPoint
 10
2077.161993520815
 20
2324.31614655882
 30
0.0
  0
POINT
  5
2D63
330
25D3
100
AcDbEntity
  8
DEFPOINTS
  6
DIMENSION
 62
     0
100
AcDbPoint
 10
3577.161993520815
 20
2324.31614655882
 30
0.0
  0
POINT
  5
2D64
330
25D3
100
AcDbEntity
  8
DEFPOINTS
  6
DIMENSION
 62
     0
100
AcDbPoint
 10
3577.161993520815
 20
2047.390790360816
 30
0.0
  0
ENDBLK
  5
25DE
330
25D3
100
AcDbEntity
  8
0
 62
     7
100
AcDbBlockEnd
  0
BLOCK
  5
25EB
330
25DF
100
AcDbEntity
  8
0
 62
     7
100
AcDbBlockBegin
  2
*D10
 70
     1
 10
0.0
 20
0.0
 30
0.0
  3
*D10
  1

  0
LINE
  5
2D65
330
25DF
100
AcDbEntity
  8
0
  6
DIMENSION
 62
     3
370
    -2
100
AcDbLine
 10
2033.099493520815
 20
2324.37864655882
 30
0.0
 11
1867.56736174374
 21
2324.37864655882
 31
0.0
  0
LINE
  5
2D66
330
25DF
100
AcDbEntity
  8
0
  6
DIMENSION
 62
     3
370
    -2
100
AcDbLine
 10
2057.099493520815
 20
2424.37864655882
 30
0.0
 11
1867.56736174374
 21
2424.37864655882
 31
0.0
  0
LINE
  5
2D67
330
25DF
100
AcDbEntity
  8
0
  6
DIMENSION
 62
     3
370
    -2
100
AcDbLine
 10
1887.56736174374
 20
2288.37864655882
 30
0.0
 11
1887.56736174374
 21
2252.37864655882
 31
0.0
  0
LINE
  5
2D68
330
25DF
100
AcDbEntity
  8
0
  6
DIMENSION
 62
     3
370
    -2
100
AcDbLine
 10
1887.56736174374
 20
2460.37864655882
 30
0.0
 11
1887.56736174374
 21
2496.37864655882
 31
0.0
  0
LINE
  5
2D69
330
25DF
100
AcDbEntity
  8
0
  6
DIMENSION
 62
     3
370
    -2
100
AcDbLine
 10
1887.56736174374
 20
2324.37864655882
 30
0.0
 11
1887.56736174374
 21
2424.37864655882
 31
0.0
  0
SOLID
  5
2D6A
330
25DF
100
AcDbEntity
  8
0
  6
DIMENSION
 62
     3
100
AcDbTrace
 10
1881.56736174374
 20
2288.37864655882
 30
0.0
 11
1893.56736174374
 21
2288.37864655882
 31
0.0
 12
1887.56736174374
 22
2324.37864655882
 32
0.0
 13
1887.56736174374
 23
2324.37864655882
 33
0.0
  0
SOLID
  5
2D6B
330
25DF
100
AcDbEntity
  8
0
  6
DIMENSION
 62
     3
100
AcDbTrace
 10
1881.56736174374
 20
2460.37864655882
 30
0.0
 11
1893.56736174374
 21
2460.37864655882
 31
0.0
 12
1887.56736174374
 22
2424.37864655882
 32
0.0
 13
1887.56736174374
 23
2424.37864655882
 33
0.0
  0
MTEXT
  5
2D6C
330
25DF
100
AcDbEntity
  8
0
  6
DIMENSION
 62
     3
100
AcDbMText
 10
1847.567361743739
 20
2374.37864655882
 30
0.0
 40
40.0
 41
0.0
 71
     5
 72
     1
  1
\A1;100
  7
STD
 11
6.123233995736766E-17
 21
1.0
 31
0.0
 73
     1
 44
1.0
  0
POINT
  5
2D6D
330
25DF
100
AcDbEntity
  8
DEFPOINTS
  6
DIMENSION
 62
     0
100
AcDbPoint
 10
2053.099493520815
 20
2324.37864655882
 30
0.0
  0
POINT
  5
2D6E
330
25DF
100
AcDbEntity
  8
DEFPOINTS
  6
DIMENSION
 62
     0
100
AcDbPoint
 10
2077.099493520815
 20
2424.37864655882
 30
0.0
  0
POINT
  5
2D6F
330
25DF
100
AcDbEntity
  8
DEFPOINTS
  6
DIMENSION
 62
     0
100
AcDbPoint
 10
1887.56736174374
 20
2424.37864655882
 30
0.0
  0
ENDBLK
  5
25EC
330
25DF
100
AcDbEntity
  8
0
 62
     7
100
AcDbBlockEnd
  0
BLOCK
  5
25F7
330
25ED
100
AcDbEntity
  8
0
 62
     7
100
AcDbBlockBegin
  2
*D11
 70
     1
 10
0.0
 20
0.0
 30
0.0
  3
*D11
  1

  0
LINE
  5
2D70
330
25ED
100
AcDbEntity
  8
0
  6
DIMENSION
 62
     3
370
    -2
100
AcDbLine
 10
2037.099493520815
 20
2424.37864655882
 30
0.0
 11
1867.567361743739
 21
2424.37864655882
 31
0.0
  0
LINE
  5
2D71
330
25ED
100
AcDbEntity
  8
0
  6
DIMENSION
 62
     3
370
    -2
100
AcDbLine
 10
2057.099493520815
 20
2824.37864655882
 30
0.0
 11
1867.56736174374
 21
2824.37864655882
 31
0.0
  0
LINE
  5
2D72
330
25ED
100
AcDbEntity
  8
0
  6
DIMENSION
 62
     3
370
    -2
100
AcDbLine
 10
1887.567361743739
 20
2460.37864655882
 30
0.0
 11
1887.56736174374
 21
2788.37864655882
 31
0.0
  0
SOLID
  5
2D73
330
25ED
100
AcDbEntity
  8
0
  6
DIMENSION
 62
     3
100
AcDbTrace
 10
1881.567361743739
 20
2460.37864655882
 30
0.0
 11
1893.567361743739
 21
2460.37864655882
 31
0.0
 12
1887.567361743739
 22
2424.37864655882
 32
0.0
 13
1887.567361743739
 23
2424.37864655882
 33
0.0
  0
SOLID
  5
2D74
330
25ED
100
AcDbEntity
  8
0
  6
DIMENSION
 62
     3
100
AcDbTrace
 10
1881.56736174374
 20
2788.37864655882
 30
0.0
 11
1893.56736174374
 21
2788.37864655882
 31
0.0
 12
1887.56736174374
 22
2824.37864655882
 32
0.0
 13
1887.56736174374
 23
2824.37864655882
 33
0.0
  0
MTEXT
  5
2D75
330
25ED
100
AcDbEntity
  8
0
  6
DIMENSION
 62
     3
100
AcDbMText
 10
1847.567361743739
 20
2624.37864655882
 30
0.0
 40
40.0
 41
0.0
 71
     5
 72
     1
  1
\A1;400
  7
STD
 11
6.123233995736766E-17
 21
1.0
 31
0.0
 73
     1
 44
1.0
  0
POINT
  5
2D76
330
25ED
100
AcDbEntity
  8
DEFPOINTS
  6
DIMENSION
 62
     0
100
AcDbPoint
 10
2057.099493520815
 20
2424.37864655882
 30
0.0
  0
POINT
  5
2D77
330
25ED
100
AcDbEntity
  8
DEFPOINTS
  6
DIMENSION
 62
     0
100
AcDbPoint
 10
2077.099493520815
 20
2824.37864655882
 30
0.0
  0
POINT
  5
2D78
330
25ED
100
AcDbEntity
  8
DEFPOINTS
  6
DIMENSION
 62
     0
100
AcDbPoint
 10
1887.56736174374
 20
2824.37864655882
 30
0.0
  0
ENDBLK
  5
25F8
330
25ED
100
AcDbEntity
  8
0
 62
     7
100
AcDbBlockEnd
  0
BLOCK
  5
2603
330
25F9
100
AcDbEntity
  8
0
 62
     7
100
AcDbBlockBegin
  2
*D12
 70
     1
 10
0.0
 20
0.0
 30
0.0
  3
*D12
  1

  0
LINE
  5
2D79
330
25F9
100
AcDbEntity
  8
0
  6
DIMENSION
 62
     3
370
    -2
100
AcDbLine
 10
2013.099493520815
 20
2324.37864655882
 30
0.0
 11
1774.319997192259
 21
2324.37864655882
 31
0.0
  0
LINE
  5
2D7A
330
25F9
100
AcDbEntity
  8
0
  6
DIMENSION
 62
     3
370
    -2
100
AcDbLine
 10
2057.099493520815
 20
2824.37864655882
 30
0.0
 11
1774.31999719226
 21
2824.37864655882
 31
0.0
  0
LINE
  5
2D7B
330
25F9
100
AcDbEntity
  8
0
  6
DIMENSION
 62
     3
370
    -2
100
AcDbLine
 10
1794.319997192259
 20
2360.37864655882
 30
0.0
 11
1794.31999719226
 21
2788.37864655882
 31
0.0
  0
SOLID
  5
2D7C
330
25F9
100
AcDbEntity
  8
0
  6
DIMENSION
 62
     3
100
AcDbTrace
 10
1788.319997192259
 20
2360.37864655882
 30
0.0
 11
1800.319997192259
 21
2360.37864655882
 31
0.0
 12
1794.319997192259
 22
2324.37864655882
 32
0.0
 13
1794.319997192259
 23
2324.37864655882
 33
0.0
  0
SOLID
  5
2D7D
330
25F9
100
AcDbEntity
  8
0
  6
DIMENSION
 62
     3
100
AcDbTrace
 10
1788.31999719226
 20
2788.37864655882
 30
0.0
 11
1800.31999719226
 21
2788.37864655882
 31
0.0
 12
1794.31999719226
 22
2824.37864655882
 32
0.0
 13
1794.31999719226
 23
2824.37864655882
 33
0.0
  0
MTEXT
  5
2D7E
330
25F9
100
AcDbEntity
  8
0
  6
DIMENSION
 62
     3
100
AcDbMText
 10
1754.319997192259
 20
2574.37864655882
 30
0.0
 40
40.0
 41
0.0
 71
     5
 72
     1
  1
\A1;500
  7
STD
 11
6.123233995736766E-17
 21
1.0
 31
0.0
 73
     1
 44
1.0
  0
POINT
  5
2D7F
330
25F9
100
AcDbEntity
  8
DEFPOINTS
  6
DIMENSION
 62
     0
100
AcDbPoint
 10
2033.099493520815
 20
2324.37864655882
 30
0.0
  0
POINT
  5
2D80
330
25F9
100
AcDbEntity
  8
DEFPOINTS
  6
DIMENSION
 62
     0
100
AcDbPoint
 10
2077.099493520815
 20
2824.37864655882
 30
0.0
  0
POINT
  5
2D81
330
25F9
100
AcDbEntity
  8
DEFPOINTS
  6
DIMENSION
 62
     0
100
AcDbPoint
 10
1794.31999719226
 20
2824.37864655882
 30
0.0
  0
ENDBLK
  5
2604
330
25F9
100
AcDbEntity
  8
0
 62
     7
100
AcDbBlockEnd
  0
BLOCK
  5
260F
330
2605
100
AcDbEntity
  8
0
 62
     7
100
AcDbBlockBegin
  2
*D13
 70
     1
 10
0.0
 20
0.0
 30
0.0
  3
*D13
  1

  0
LINE
  5
2D82
330
2605
100
AcDbEntity
  8
0
  6
DIMENSION
 62
     3
370
    -2
100
AcDbLine
 10
2232.099493520815
 20
3424.37864655882
 30
0.0
 11
1774.31999719226
 21
3424.37864655882
 31
0.0
  0
LINE
  5
2D83
330
2605
100
AcDbEntity
  8
0
  6
DIMENSION
 62
     3
370
    -2
100
AcDbLine
 10
2057.099493520815
 20
2824.37864655882
 30
0.0
 11
1774.31999719226
 21
2824.37864655882
 31
0.0
  0
LINE
  5
2D84
330
2605
100
AcDbEntity
  8
0
  6
DIMENSION
 62
     3
370
    -2
100
AcDbLine
 10
1794.31999719226
 20
3388.37864655882
 30
0.0
 11
1794.31999719226
 21
2860.37864655882
 31
0.0
  0
SOLID
  5
2D85
330
2605
100
AcDbEntity
  8
0
  6
DIMENSION
 62
     3
100
AcDbTrace
 10
1788.31999719226
 20
3388.37864655882
 30
0.0
 11
1800.31999719226
 21
3388.37864655882
 31
0.0
 12
1794.31999719226
 22
3424.37864655882
 32
0.0
 13
1794.31999719226
 23
3424.37864655882
 33
0.0
  0
SOLID
  5
2D86
330
2605
100
AcDbEntity
  8
0
  6
DIMENSION
 62
     3
100
AcDbTrace
 10
1788.31999719226
 20
2860.37864655882
 30
0.0
 11
1800.31999719226
 21
2860.37864655882
 31
0.0
 12
1794.31999719226
 22
2824.37864655882
 32
0.0
 13
1794.31999719226
 23
2824.37864655882
 33
0.0
  0
MTEXT
  5
2D87
330
2605
100
AcDbEntity
  8
0
  6
DIMENSION
 62
     3
100
AcDbMText
 10
1754.319997192259
 20
3124.37864655882
 30
0.0
 40
40.0
 41
0.0
 71
     5
 72
     1
  1
\A1;600
  7
STD
 11
6.123233995736766E-17
 21
1.0
 31
0.0
 73
     1
 44
1.0
  0
POINT
  5
2D88
330
2605
100
AcDbEntity
  8
DEFPOINTS
  6
DIMENSION
 62
     0
100
AcDbPoint
 10
2252.099493520815
 20
3424.37864655882
 30
0.0
  0
POINT
  5
2D89
330
2605
100
AcDbEntity
  8
DEFPOINTS
  6
DIMENSION
 62
     0
100
AcDbPoint
 10
2077.099493520815
 20
2824.37864655882
 30
0.0
  0
POINT
  5
2D8A
330
2605
100
AcDbEntity
  8
DEFPOINTS
  6
DIMENSION
 62
     0
100
AcDbPoint
 10
1794.31999719226
 20
2824.37864655882
 30
0.0
  0
ENDBLK
  5
2610
330
2605
100
AcDbEntity
  8
0
 62
     7
100
AcDbBlockEnd
  0
BLOCK
  5
261D
330
2611
100
AcDbEntity
  8
0
 62
     7
100
AcDbBlockBegin
  2
*D14
 70
     1
 10
0.0
 20
0.0
 30
0.0
  3
*D14
  1

  0
LINE
  5
2D8B
330
2611
100
AcDbEntity
  8
0
  6
DIMENSION
 62
     3
370
    -2
100
AcDbLine
 10
5921.82308060889
 20
2884.378646558764
 30
0.0
 11
6145.592370338517
 21
2884.378646558764
 31
0.0
  0
LINE
  5
2D8C
330
2611
100
AcDbEntity
  8
0
  6
DIMENSION
 62
     3
370
    -2
100
AcDbLine
 10
5985.823080608888
 20
2824.37864655882
 30
0.0
 11
6145.592370338517
 21
2824.37864655882
 31
0.0
  0
LINE
  5
2D8D
330
2611
100
AcDbEntity
  8
0
  6
DIMENSION
 62
     3
370
    -2
100
AcDbLine
 10
6125.592370338517
 20
2920.378646558764
 30
0.0
 11
6125.592370338517
 21
2956.378646558764
 31
0.0
  0
LINE
  5
2D8E
330
2611
100
AcDbEntity
  8
0
  6
DIMENSION
 62
     3
370
    -2
100
AcDbLine
 10
6125.592370338517
 20
2788.37864655882
 30
0.0
 11
6125.592370338517
 21
2752.37864655882
 31
0.0
  0
LINE
  5
2D8F
330
2611
100
AcDbEntity
  8
0
  6
DIMENSION
 62
     3
370
    -2
100
AcDbLine
 10
6125.592370338517
 20
2884.378646558764
 30
0.0
 11
6125.592370338517
 21
2824.37864655882
 31
0.0
  0
SOLID
  5
2D90
330
2611
100
AcDbEntity
  8
0
  6
DIMENSION
 62
     3
100
AcDbTrace
 10
6119.592370338517
 20
2920.378646558764
 30
0.0
 11
6131.592370338517
 21
2920.378646558764
 31
0.0
 12
6125.592370338517
 22
2884.378646558764
 32
0.0
 13
6125.592370338517
 23
2884.378646558764
 33
0.0
  0
SOLID
  5
2D91
330
2611
100
AcDbEntity
  8
0
  6
DIMENSION
 62
     3
100
AcDbTrace
 10
6119.592370338517
 20
2788.37864655882
 30
0.0
 11
6131.592370338517
 21
2788.37864655882
 31
0.0
 12
6125.592370338517
 22
2824.37864655882
 32
0.0
 13
6125.592370338517
 23
2824.37864655882
 33
0.0
  0
MTEXT
  5
2D92
330
2611
100
AcDbEntity
  8
0
  6
DIMENSION
 62
     3
100
AcDbMText
 10
6085.592370338516
 20
2854.378646558793
 30
0.0
 40
40.0
 41
0.0
 71
     5
 72
     1
  1
\A1;30
  7
STD
 11
6.123233995736766E-17
 21
1.0
 31
0.0
 73
     1
 44
1.0
  0
POINT
  5
2D93
330
2611
100
AcDbEntity
  8
DEFPOINTS
  6
DIMENSION
 62
     0
100
AcDbPoint
 10
5901.82308060889
 20
2884.378646558764
 30
0.0
  0
POINT
  5
2D94
330
2611
100
AcDbEntity
  8
DEFPOINTS
  6
DIMENSION
 62
     0
100
AcDbPoint
 10
5965.823080608888
 20
2824.37864655882
 30
0.0
  0
POINT
  5
2D95
330
2611
100
AcDbEntity
  8
DEFPOINTS
  6
DIMENSION
 62
     0
100
AcDbPoint
 10
6125.592370338517
 20
2824.37864655882
 30
0.0
  0
ENDBLK
  5
261E
330
2611
100
AcDbEntity
  8
0
 62
     7
100
AcDbBlockEnd
  0
BLOCK
  5
2629
330
261F
100
AcDbEntity
  8
0
 62
     7
100
AcDbBlockBegin
  2
*D15
 70
     1
 10
0.0
 20
0.0
 30
0.0
  3
*D15
  1

  0
LINE
  5
2D96
330
261F
100
AcDbEntity
  8
0
  6
DIMENSION
 62
     3
370
    -2
100
AcDbLine
 10
6009.998193135291
 20
2824.37864655882
 30
0.0
 11
6145.592370338517
 21
2824.37864655882
 31
0.0
  0
LINE
  5
2D97
330
261F
100
AcDbEntity
  8
0
  6
DIMENSION
 62
     3
370
    -2
100
AcDbLine
 10
6003.76058060889
 20
2484.378646558764
 30
0.0
 11
6145.592370338517
 21
2484.378646558764
 31
0.0
  0
LINE
  5
2D98
330
261F
100
AcDbEntity
  8
0
  6
DIMENSION
 62
     3
370
    -2
100
AcDbLine
 10
6125.592370338517
 20
2788.37864655882
 30
0.0
 11
6125.592370338517
 21
2520.378646558764
 31
0.0
  0
SOLID
  5
2D99
330
261F
100
AcDbEntity
  8
0
  6
DIMENSION
 62
     3
100
AcDbTrace
 10
6119.592370338517
 20
2788.37864655882
 30
0.0
 11
6131.592370338517
 21
2788.37864655882
 31
0.0
 12
6125.592370338517
 22
2824.37864655882
 32
0.0
 13
6125.592370338517
 23
2824.37864655882
 33
0.0
  0
SOLID
  5
2D9A
330
261F
100
AcDbEntity
  8
0
  6
DIMENSION
 62
     3
100
AcDbTrace
 10
6119.592370338517
 20
2520.378646558764
 30
0.0
 11
6131.592370338517
 21
2520.378646558764
 31
0.0
 12
6125.592370338517
 22
2484.378646558764
 32
0.0
 13
6125.592370338517
 23
2484.378646558764
 33
0.0
  0
MTEXT
  5
2D9B
330
261F
100
AcDbEntity
  8
0
  6
DIMENSION
 62
     3
100
AcDbMText
 10
6085.592370338516
 20
2654.378646558793
 30
0.0
 40
40.0
 41
0.0
 71
     5
 72
     1
  1
\A1;170
  7
STD
 11
6.123233995736766E-17
 21
1.0
 31
0.0
 73
     1
 44
1.0
  0
POINT
  5
2D9C
330
261F
100
AcDbEntity
  8
DEFPOINTS
  6
DIMENSION
 62
     0
100
AcDbPoint
 10
5989.998193135291
 20
2824.37864655882
 30
0.0
  0
POINT
  5
2D9D
330
261F
100
AcDbEntity
  8
DEFPOINTS
  6
DIMENSION
 62
     0
100
AcDbPoint
 10
5983.76058060889
 20
2484.378646558764
 30
0.0
  0
POINT
  5
2D9E
330
261F
100
AcDbEntity
  8
DEFPOINTS
  6
DIMENSION
 62
     0
100
AcDbPoint
 10
6125.592370338517
 20
2484.378646558764
 30
0.0
  0
ENDBLK
  5
262A
330
261F
100
AcDbEntity
  8
0
 62
     7
100
AcDbBlockEnd
  0
BLOCK
  5
2635
330
262B
100
AcDbEntity
  8
0
 62
     7
100
AcDbBlockBegin
  2
*D16
 70
     1
 10
0.0
 20
0.0
 30
0.0
  3
*D16
  1

  0
LINE
  5
2D9F
330
262B
100
AcDbEntity
  8
0
  6
DIMENSION
 62
     3
370
    -2
100
AcDbLine
 10
5435.297857960995
 20
3024.37864655882
 30
0.0
 11
5260.168084232236
 21
3024.37864655882
 31
0.0
  0
LINE
  5
2DA0
330
262B
100
AcDbEntity
  8
0
  6
DIMENSION
 62
     3
370
    -2
100
AcDbLine
 10
5328.627509613001
 20
2824.37864655882
 30
0.0
 11
5260.168084232236
 21
2824.37864655882
 31
0.0
  0
LINE
  5
2DA1
330
262B
100
AcDbEntity
  8
0
  6
DIMENSION
 62
     3
370
    -2
100
AcDbLine
 10
5280.168084232236
 20
2988.37864655882
 30
0.0
 11
5280.168084232236
 21
2860.37864655882
 31
0.0
  0
SOLID
  5
2DA2
330
262B
100
AcDbEntity
  8
0
  6
DIMENSION
 62
     3
100
AcDbTrace
 10
5274.168084232236
 20
2988.37864655882
 30
0.0
 11
5286.168084232236
 21
2988.37864655882
 31
0.0
 12
5280.168084232236
 22
3024.37864655882
 32
0.0
 13
5280.168084232236
 23
3024.37864655882
 33
0.0
  0
SOLID
  5
2DA3
330
262B
100
AcDbEntity
  8
0
  6
DIMENSION
 62
     3
100
AcDbTrace
 10
5274.168084232236
 20
2860.37864655882
 30
0.0
 11
5286.168084232236
 21
2860.37864655882
 31
0.0
 12
5280.168084232236
 22
2824.37864655882
 32
0.0
 13
5280.168084232236
 23
2824.37864655882
 33
0.0
  0
MTEXT
  5
2DA4
330
262B
100
AcDbEntity
  8
0
  6
DIMENSION
 62
     3
100
AcDbMText
 10
5240.168084232235
 20
2924.378646558821
 30
0.0
 40
40.0
 41
0.0
 71
     5
 72
     1
  1
\A1;100
  7
STD
 11
6.123233995736766E-17
 21
1.0
 31
0.0
 73
     1
 44
1.0
  0
POINT
  5
2DA5
330
262B
100
AcDbEntity
  8
DEFPOINTS
  6
DIMENSION
 62
     0
100
AcDbPoint
 10
5455.297857960995
 20
3024.37864655882
 30
0.0
  0
POINT
  5
2DA6
330
262B
100
AcDbEntity
  8
DEFPOINTS
  6
DIMENSION
 62
     0
100
AcDbPoint
 10
5348.627509613001
 20
2824.37864655882
 30
0.0
  0
POINT
  5
2DA7
330
262B
100
AcDbEntity
  8
DEFPOINTS
  6
DIMENSION
 62
     0
100
AcDbPoint
 10
5280.168084232236
 20
2824.37864655882
 30
0.0
  0
ENDBLK
  5
2636
330
262B
100
AcDbEntity
  8
0
 62
     7
100
AcDbBlockEnd
  0
BLOCK
  5
26EF
330
26E3
100
AcDbEntity
  8
0
 62
     7
100
AcDbBlockBegin
  2
*D17
 70
     1
 10
0.0
 20
0.0
 30
0.0
  3
*D17
  1

  0
LINE
  5
2D09
330
26E3
100
AcDbEntity
  8
SUNPO_0
  6
Continuous
 62
     3
370
    -2
100
AcDbLine
 10
2232.161993520815
 20
2854.378646558822
 30
0.0
 11
1998.365180494217
 21
2854.378646558822
 31
0.0
  0
LINE
  5
2D0A
330
26E3
100
AcDbEntity
  8
SUNPO_0
  6
Continuous
 62
     3
370
    -2
100
AcDbLine
 10
2107.161993520817
 20
2824.378646558822
 30
0.0
 11
1998.365180494217
 21
2824.378646558822
 31
0.0
  0
LINE
  5
2D0B
330
26E3
100
AcDbEntity
  8
SUNPO_0
  6
Continuous
 62
     3
370
    -2
100
AcDbLine
 10
2018.365180494217
 20
2874.378646558822
 30
0.0
 11
2018.365180494217
 21
2894.378646558822
 31
0.0
  0
LINE
  5
2D0C
330
26E3
100
AcDbEntity
  8
SUNPO_0
  6
Continuous
 62
     3
370
    -2
100
AcDbLine
 10
2018.365180494217
 20
2804.378646558822
 30
0.0
 11
2018.365180494217
 21
2784.378646558822
 31
0.0
  0
MTEXT
  5
2D0D
330
26E3
100
AcDbEntity
  8
SUNPO_0
  6
Continuous
 62
     3
100
AcDbMText
 10
1972.337675246036
 20
2860.814306536678
 30
0.0
 40
40.0
 41
0.0
 71
     5
 72
     1
  1
\A1;30
  7
STD
 11
6.123233995736766E-17
 21
1.0
 31
0.0
 73
     1
 44
1.0
  0
LINE
  5
2D0E
330
26E3
100
AcDbEntity
  8
SUNPO_0
  6
Continuous
 62
     3
370
    -2
100
AcDbLine
 10
2018.365180494217
 20
2854.378646558822
 30
0.0
 11
2018.365180494217
 21
2824.378646558822
 31
0.0
  0
SOLID
  5
2D0F
330
26E3
100
AcDbEntity
  8
SUNPO_0
  6
Continuous
 62
     3
100
AcDbTrace
 10
2015.031847160884
 20
2874.378646558822
 30
0.0
 11
2021.698513827551
 21
2874.378646558822
 31
0.0
 12
2018.365180494217
 22
2854.378646558822
 32
0.0
 13
2018.365180494217
 23
2854.378646558822
 33
0.0
  0
SOLID
  5
2D10
330
26E3
100
AcDbEntity
  8
SUNPO_0
  6
Continuous
 62
     3
100
AcDbTrace
 10
2015.031847160884
 20
2804.378646558822
 30
0.0
 11
2021.698513827551
 21
2804.378646558822
 31
0.0
 12
2018.365180494217
 22
2824.378646558822
 32
0.0
 13
2018.365180494217
 23
2824.378646558822
 33
0.0
  0
POINT
  5
2D11
330
26E3
100
AcDbEntity
  8
DEFPOINTS
  6
Continuous
 62
     0
100
AcDbPoint
 10
2252.161993520815
 20
2854.378646558822
 30
0.0
  0
POINT
  5
2D12
330
26E3
100
AcDbEntity
  8
DEFPOINTS
  6
Continuous
 62
     0
100
AcDbPoint
 10
2127.161993520817
 20
2824.378646558822
 30
0.0
  0
POINT
  5
2D13
330
26E3
100
AcDbEntity
  8
DEFPOINTS
  6
Continuous
 62
     0
100
AcDbPoint
 10
2018.365180494217
 20
2824.378646558822
 30
0.0
  0
ENDBLK
  5
26F0
330
26E3
100
AcDbEntity
  8
0
 62
     7
100
AcDbBlockEnd
  0
BLOCK
  5
2817
330
2812
100
AcDbEntity
  8
0
 62
     7
100
AcDbBlockBegin
  2
kami
 70
     0
 10
0.0
 20
0.0
 30
0.0
  3
kami
  1

1001
ASKOBJSC
1000
1/5
1001
ASKDWGSC
1040
20.0
  0
HATCH
  5
2813
330
2812
100
AcDbEntity
  8
0
 62
     7
100
AcDbHatch
 10
0.0
 20
0.0
 30
0.0
210
0.0
220
0.0
230
1.0
  2
SOLID
 70
     1
 71
     0
 91
        4
 92
        7
 72
     1
 73
     1
 93
        2
 10
-296.6990962011851
 20
143.6130484268639
 42
1.0
 10
-18.53304944719821
 20
143.6130484268639
 42
1.0
 97
        0
 92
       22
 72
     1
 73
     1
 93
        2
 10
-24.53304944719912
 20
143.6130484268639
 42
-1.0
 10
-290.6990962011851
 20
143.6130484268639
 42
-1.0
 97
        0
 92
      137
 93
        4
 72
     1
 10
-230.6259610516054
 20
-3.941527314732127
 11
-79.52069789371035
 21
-3.941527314732127
 72
     1
 10
-79.52069789371035
 20
-3.941527314732127
 11
-79.52069789371035
 21
129.2395253168468
 72
     1
 10
-79.52069789371035
 20
129.2395253168468
 11
-230.6259610516054
 21
129.2395253168468
 72
     1
 10
-230.6259610516054
 20
129.2395253168468
 11
-230.6259610516054
 21
-3.941527314732127
 97
        0
 92
      137
 93
        4
 72
     1
 10
-331.7457524725041
 20
51.47930738142071
 11
-59.75975247250517
 21
51.47930738142071
 72
     1
 10
-59.75975247250517
 20
51.47930738142071
 11
-59.75975247250517
 21
300.9766758024735
 72
     1
 10
-59.75975247250517
 20
300.9766758024735
 11
-331.7457524725041
 21
300.9766758024735
 72
     1
 10
-331.7457524725041
 20
300.9766758024735
 11
-331.7457524725041
 21
51.47930738142071
 97
        0
 75
     0
 76
     1
 47
0.5709725132640477
 98
        2
 10
-104.4447271322788
 20
269.547503387793
 10
-104.4447271322788
 20
269.547503387793
1001
ASKOBJSC
1000
1/5
1001
ASKDWGSC
1040
20.0
  0
CIRCLE
  5
2814
330
2812
100
AcDbEntity
  8
9図面文字
  6
Continuous
 62
     7
100
AcDbCircle
 10
-157.6160728241921
 20
143.6130484268639
 30
0.0
 40
139.0830233769932
1001
ASKOBJSC
1000
1/5
1001
ASKDWGSC
1040
20.0
  0
TEXT
  5
2815
330
2812
100
AcDbEntity
  8
0
 62
     7
100
AcDbText
 10
-297.8283565562324
 20
80.15415115954897
 30
0.0
 40
143.0
  1
上條
 41
0.7
  7
ｽﾀｲﾙ1
100
AcDbText
1001
ASKOBJSC
1000
1/5
1001
ASKDWGSC
1040
20.0
  0
CIRCLE
  5
2816
330
2812
100
AcDbEntity
  8
9図面文字
  6
Continuous
 62
     7
100
AcDbCircle
 10
-157.6160728241921
 20
143.6130484268639
 30
0.0
 40
133.0830233769932
1001
ASKOBJSC
1000
1/5
1001
ASKDWGSC
1040
20.0
  0
ENDBLK
  5
2818
330
2812
100
AcDbEntity
  8
0
 62
     7
100
AcDbBlockEnd
1001
ASKOBJSC
1000
1/5
1001
ASKDWGSC
1040
20.0
  0
BLOCK
  5
281F
330
2819
100
AcDbEntity
  8
0
 62
     7
100
AcDbBlockBegin
  2
marutomo
 70
     0
 10
0.0
 20
0.0
 30
0.0
  3
marutomo
  1

1001
ASKOBJSC
1000
1/5
1001
ASKDWGSC
1040
20.0
  0
CIRCLE
  5
281A
102
{ACAD_REACTORS
330
281D
102
}
330
2819
100
AcDbEntity
  8
9図面文字
  6
Continuous
 62
     7
100
AcDbCircle
 10
-152.8028011778551
 20
135.2583883224374
 30
0.0
 40
133.0830233769932
1001
ASKOBJSC
1000
1/5
1001
ASKDWGSC
1040
20.0
  0
TEXT
  5
281B
102
{ACAD_REACTORS
330
281D
102
}
330
2819
100
AcDbEntity
  8
0
 62
     7
100
AcDbText
 10
-285.3495860893254
 20
101.2654367506785
 30
0.0
 40
143.0
  1
丸山
 41
0.7
  7
ｽﾀｲﾙ1
100
AcDbText
1001
ASKOBJSC
1000
1/5
1001
ASKDWGSC
1040
20.0
  0
CIRCLE
  5
281C
102
{ACAD_REACTORS
330
281D
102
}
330
2819
100
AcDbEntity
  8
9図面文字
  6
Continuous
 62
     7
100
AcDbCircle
 10
-152.8028011778551
 20
135.2583883224374
 30
0.0
 40
139.0830233769932
1001
ASKOBJSC
1000
1/5
1001
ASKDWGSC
1040
20.0
  0
HATCH
  5
281D
330
2819
100
AcDbEntity
  8
0
 62
     7
100
AcDbHatch
 10
0.0
 20
0.0
 30
0.0
210
0.0
220
0.0
230
1.0
  2
SOLID
 70
     1
 71
     1
 91
        4
 92
        7
 72
     1
 73
     1
 93
        2
 10
-13.71977780086192
 20
135.2583883224374
 42
1.0
 10
-291.8858245548483
 20
135.2583883224374
 42
1.0
 97
        1
330
281C
 92
       22
 72
     1
 73
     1
 93
        2
 10
-19.71977780086192
 20
135.2583883224374
 42
1.0
 10
-285.8858245548483
 20
135.2583883224374
 42
1.0
 97
        1
330
281A
 92
      137
 93
        4
 72
     1
 10
-225.8126894052682
 20
-12.29618741915864
 11
-74.70742624737346
 21
-12.29618741915864
 72
     1
 10
-74.70742624737346
 20
-12.29618741915864
 11
-74.70742624737346
 21
120.8848652124203
 72
     1
 10
-74.70742624737346
 20
120.8848652124203
 11
-225.8126894052682
 21
120.8848652124203
 72
     1
 10
-225.8126894052682
 20
120.8848652124203
 11
-225.8126894052682
 21
-12.29618741915863
 97
        1
330
281E
 92
      137
 93
        4
 72
     1
 10
-317.7127439840622
 20
68.90227885594163
 11
-64.16621766827276
 21
68.90227885594163
 72
     1
 10
-64.16621766827276
 20
68.90227885594163
 11
-64.16621766827276
 21
263.0812262243627
 72
     1
 10
-64.16621766827276
 20
263.0812262243627
 11
-317.7127439840622
 21
263.0812262243627
 72
     1
 10
-317.7127439840622
 20
263.0812262243627
 11
-317.7127439840622
 21
68.90227885594163
 97
        1
330
281B
 75
     0
 76
     1
 47
0.5709725132640477
 98
        2
 10
-99.63145548594184
 20
261.1928432833665
 10
-99.63145548594184
 20
261.1928432833665
1001
ASKOBJSC
1000
1/5
1001
ASKDWGSC
1040
20.0
  0
TEXT
  5
281E
102
{ACAD_REACTORS
330
281D
102
}
330
2819
100
AcDbEntity
  8
0
 62
     7
100
AcDbText
 10
-203.615847300005
 20
16.57012837031505
 30
0.0
 40
79.2
  1
智
  7
ｽﾀｲﾙ1
100
AcDbText
1001
ASKOBJSC
1000
1/5
1001
ASKDWGSC
1040
20.0
  0
ENDBLK
  5
2820
330
2819
100
AcDbEntity
  8
0
 62
     7
100
AcDbBlockEnd
1001
ASKOBJSC
1000
1/5
1001
ASKDWGSC
1040
20.0
  0
BLOCK
  5
28E0
330
28DF
100
AcDbEntity
  8
0
 62
     7
100
AcDbBlockBegin
  2
*U20
 70
     1
 10
0.0
 20
0.0
 30
0.0
  3
*U20
  1

  0
ENDBLK
  5
28E1
330
28DF
100
AcDbEntity
  8
0
 62
     7
100
AcDbBlockEnd
  0
BLOCK
  5
2A8D
330
2A8C
100
AcDbEntity
  8
0
370
    -1
100
AcDbBlockBegin
  2
DOT
 70
     0
 10
0.0
 20
0.0
 30
0.0
  3
DOT
  1

  0
LINE
  5
2A8E
330
2A8C
100
AcDbEntity
  8
0
  6
ByBlock
 62
     0
370
    -1
100
AcDbLine
 10
-0.1643275156578738
 20
0.0
 30
0.0
 11
-1.0
 21
0.0
 31
0.0
  0
LWPOLYLINE
  5
2A8F
330
2A8C
100
AcDbEntity
  8
0
  6
ByBlock
 62
     0
100
AcDbPolyline
 90
        2
 70
     1
 43
0.163
 10
-0.0815000000000055
 20
0.0
 42
1.0
 10
0.0815000000000055
 20
0.0
 42
1.0
  0
ENDBLK
  5
2A90
330
2A8C
100
AcDbEntity
  8
0
370
    -1
100
AcDbBlockEnd
  0
ENDSEC
  0
SECTION
  2
ENTITIES
  0
TEXT
  5
235
330
1E
100
AcDbEntity
  8
1
100
AcDbText
 10
141.5097716105132
 20
92.83361344538211
 30
0.0
 40
100.0
  1
　
100
AcDbText
  0
TEXT
  5
2EA
330
1E
100
AcDbEntity
  8
TEXT_0
  6
Continuous
 62
     7
100
AcDbText
 10
257.9096409166741
 20
640.4311361760849
 30
0.0
 40
60.0
  1
・鋼材は全てステンレス(SUS304)とし、表面見え掛かり部は#400研磨仕上げとする。
  7
STYLE1
100
AcDbText
  0
TEXT
  5
2EC
330
1E
100
AcDbEntity
  8
TEXT_0
  6
Continuous
 62
     3
100
AcDbText
 10
2918.628762541806
 20
595.9866220735785
 30
0.0
 40
100.0
  1

  7
STD
100
AcDbText
  0
TEXT
  5
4E5
330
1E
100
AcDbEntity
  8
3
100
AcDbText
 10
9748.446385837235
 20
741.2510137525596
 30
0.0
 40
59.99999999999999
  1
　
100
AcDbText
  0
LINE
  5
4E9
330
1E
100
AcDbEntity
  8
3
100
AcDbLine
 10
-117.0102164391756
 20
5626.743030972801
 30
0.0
 11
-117.0102164391756
 21
293.2165605095524
 31
0.0
  0
TEXT
  5
4EA
330
1E
100
AcDbEntity
  8
SUNPO_0
  6
Continuous
 62
     3
100
AcDbText
 10
1056.865933479698
 20
542.216591090958
 30
0.0
 40
50.0
  1

  7
STD
100
AcDbText
  0
TEXT
  5
4F2
330
1E
100
AcDbEntity
  8
1
100
AcDbText
 10
141.5097716105132
 20
92.83361344538211
 30
0.0
 40
100.0
  1
　
100
AcDbText
  0
TEXT
  5
57E
330
1E
100
AcDbEntity
  8
9図面文字
 62
     2
100
AcDbText
 10
6759.085061539869
 20
256.738588069518
 30
0.0
 40
56.70000000000003
  1
会社
  7
STYLE1
 72
     1
 11
6841.557788812597
 21
285.088588069518
 31
0.0
100
AcDbText
 73
     2
  0
TEXT
  5
57F
330
1E
100
AcDbEntity
  8
9図面文字
 62
     2
100
AcDbText
 10
6759.085061539869
 20
336.3683461794432
 30
0.0
 40
56.70000000000003
  1
株式
  7
STYLE1
 72
     1
 11
6841.557788812597
 21
364.7183461794432
 31
0.0
100
AcDbText
 73
     2
  0
HATCH
  5
580
330
1E
100
AcDbEntity
  8
9図面文字
  6
Continuous
 62
     3
100
AcDbHatch
 10
0.0
 20
0.0
 30
0.0
210
0.0
220
0.0
230
1.0
  2
SOLID
 70
     1
 71
     0
 91
        2
 92
        7
 72
     1
 73
     1
 93
        2
 10
6542.031600026674
 20
333.1939740489063
 42
1.0
 10
6740.535631195999
 20
333.1939740489063
 42
1.0
 97
        0
 92
        7
 72
     1
 73
     1
 93
       11
 10
6640.675730147321
 20
421.9139071229777
 42
0.0
 10
6641.283615611335
 20
424.3459896335655
 42
0.0
 10
6641.891501075352
 20
421.9139071229777
 42
-0.412208187950293
 10
6730.005631196
 20
333.1939740489063
 42
-0.0773445374705047
 10
6725.809972941894
 20
306.233058526029
 42
0.0
 10
6727.225743349407
 20
302.8189740489063
 42
0.0
 10
6724.644010430489
 20
302.8189740489063
 42
-0.6999368910289298
 10
6557.923220792181
 20
302.8189740489063
 42
0.0
 10
6555.341487873266
 20
302.8189740489063
 42
0.0
 10
6556.757258280777
 20
306.2330585260308
 42
-0.0773445374704989
 10
6552.561600026675
 20
333.1939740489063
 42
-0.4122081879502925
 97
        0
 75
     0
 76
     1
 47
0.6951189523479065
 98
        2
 10
6638.259882322331
 20
422.9176221227319
 10
6638.259882322331
 20
422.9176221227319
  0
HATCH
  5
581
330
1E
100
AcDbEntity
  8
9図面文字
  6
Continuous
 62
     3
100
AcDbHatch
 10
0.0
 20
0.0
 30
0.0
210
0.0
220
0.0
230
1.0
  2
SOLID
 70
     1
 71
     0
 91
        3
 92
        7
 72
     1
 73
     1
 93
        4
 10
6610.908615611334
 20
302.8189740489063
 42
0.0
 10
6671.658615611335
 20
302.8189740489063
 42
0.0
 10
6641.89150107535
 20
421.9139071229777
 42
0.0034258272556783
 10
6640.675730147319
 20
421.9139071229777
 42
0.0
 97
        0
 92
        7
 72
     1
 73
     1
 93
        4
 10
6610.908615611334
 20
302.8189740489063
 42
0.0
 10
6580.533615611334
 20
363.5689740489063
 42
0.0
 10
6556.757258280777
 20
306.2330585260272
 42
0.0101667687972818
 10
6557.923220792181
 20
302.8189740489063
 42
0.0
 97
        0
 92
        7
 72
     1
 73
     1
 93
        4
 10
6671.658615611335
 20
302.8189740489063
 42
0.0
 10
6724.644010430487
 20
302.8189740489063
 42
0.0101667687972915
 10
6725.809972941894
 20
306.2330585260299
 42
0.0
 10
6702.033615611334
 20
363.5689740489063
 42
0.0
 97
        0
 75
     0
 76
     1
 47
0.6951189523479065
 98
        3
 10
6636.569943863076
 20
381.2521715556652
 10
6583.618344098484
 20
319.3170738222118
 10
6690.084844994013
 20
326.0736303459501
  0
CIRCLE
  5
582
330
1E
100
AcDbEntity
  8
9図面文字
  6
Continuous
 62
     7
100
AcDbCircle
 10
6641.283615611334
 20
333.1939740489063
 30
0.0
 40
88.72201558466215
  0
CIRCLE
  5
583
330
1E
100
AcDbEntity
  8
9図面文字
  6
Continuous
 62
     7
100
AcDbCircle
 10
6641.283615611334
 20
333.1939740489063
 30
0.0
 40
99.25201558466215
  0
LINE
  5
584
330
1E
100
AcDbEntity
  8
9図面文字
  6
Continuous
 62
     7
100
AcDbLine
 10
6702.033615611335
 20
363.5689740489063
 30
0.0
 11
6727.225743349403
 21
302.8189740489063
 31
0.0
  0
LINE
  5
585
330
1E
100
AcDbEntity
  8
9図面文字
  6
Continuous
 62
     7
100
AcDbLine
 10
6671.658615611335
 20
302.8189740489063
 30
0.0
 11
6702.033615611335
 21
363.5689740489063
 31
0.0
  0
LINE
  5
586
330
1E
100
AcDbEntity
  8
9図面文字
  6
Continuous
 62
     7
100
AcDbLine
 10
6641.283615611335
 20
424.3459896335692
 30
0.0
 11
6671.658615611335
 21
302.8189740489063
 31
0.0
  0
LINE
  5
587
330
1E
100
AcDbEntity
  8
9図面文字
  6
Continuous
 62
     7
100
AcDbLine
 10
6610.908615611334
 20
302.8189740489063
 30
0.0
 11
6641.283615611335
 21
424.3459896335692
 31
0.0
  0
LINE
  5
588
330
1E
100
AcDbEntity
  8
9図面文字
  6
Continuous
 62
     7
100
AcDbLine
 10
6580.533615611334
 20
363.5689740489063
 30
0.0
 11
6610.908615611334
 21
302.8189740489063
 31
0.0
  0
LINE
  5
589
330
1E
100
AcDbEntity
  8
9図面文字
  6
Continuous
 62
     7
100
AcDbLine
 10
6555.341487873266
 20
302.8189740489063
 30
0.0
 11
6580.533615611334
 21
363.5689740489063
 31
0.0
  0
LINE
  5
58A
330
1E
100
AcDbEntity
  8
9図面文字
  6
Continuous
 62
     7
100
AcDbLine
 10
6555.341487873266
 20
302.8189740489063
 30
0.0
 11
6727.225743349403
 21
302.8189740489063
 31
0.0
  0
TEXT
  5
58B
330
1E
100
AcDbEntity
  8
9図面文字
100
AcDbText
 10
3739.226976376227
 20
256.7672561426573
 30
0.0
 40
60.0
  1
当
  7
STYLE1
 72
     1
 11
3782.863340012591
 21
286.7672561426573
 31
0.0
100
AcDbText
 73
     2
  0
TEXT
  5
58C
330
1E
100
AcDbEntity
  8
9図面文字
100
AcDbText
 10
3739.226976376227
 20
359.0313281440551
 30
0.0
 40
60.0
  1
担
  7
STYLE1
 72
     1
 11
3782.863340012591
 21
389.0313281440551
 31
0.0
100
AcDbText
 73
     2
  0
TEXT
  5
58D
330
1E
100
AcDbEntity
  8
9図面文字
100
AcDbText
 10
4104.730420886595
 20
256.7672561426582
 30
0.0
 40
60.0
  1
認
  7
STYLE1
 72
     1
 11
4148.366784522959
 21
286.7672561426582
 31
0.0
100
AcDbText
 73
     2
  0
TEXT
  5
58E
330
1E
100
AcDbEntity
  8
9図面文字
100
AcDbText
 10
4104.730420886595
 20
359.0313281440551
 30
0.0
 40
60.0
  1
承
  7
STYLE1
 72
     1
 11
4148.366784522959
 21
389.0313281440551
 31
0.0
100
AcDbText
 73
     2
  0
TEXT
  5
58F
330
1E
100
AcDbEntity
  8
9図面文字
100
AcDbText
 10
3739.226976376227
 20
513.946095778557
 30
0.0
 40
60.0
  1
別
  7
STYLE1
 72
     1
 11
3782.863340012591
 21
543.946095778557
 31
0.0
100
AcDbText
 73
     2
  0
TEXT
  5
590
330
1E
100
AcDbEntity
  8
9図面文字
100
AcDbText
 10
3739.226976376227
 20
619.247487044767
 30
0.0
 40
60.0
  1
類
  7
STYLE1
 72
     1
 11
3782.863340012591
 21
649.247487044767
 31
0.0
100
AcDbText
 73
     2
  0
LINE
  5
591
330
1E
100
AcDbEntity
  8
9図面枠
  6
Continuous
 62
     4
100
AcDbLine
 10
3844.994306188271
 20
461.7165605095527
 30
0.0
 11
3844.994306188271
 21
721.7165605095527
 31
0.0
  0
LINE
  5
592
330
1E
100
AcDbEntity
  8
9図面枠
  6
Continuous
 62
     4
100
AcDbLine
 10
92.98978356082443
 20
721.7165605095527
 30
0.0
 11
8072.989783560824
 21
721.7165605095527
 31
0.0
  0
LINE
  5
593
330
1E
100
AcDbEntity
  8
9図面枠
  6
Continuous
 62
     4
100
AcDbLine
 10
254.9897835608244
 20
201.7165605095527
 30
0.0
 11
254.9897835608244
 21
721.7165605095527
 31
0.0
  0
TEXT
  5
594
330
1E
100
AcDbEntity
  8
9図面文字
100
AcDbText
 10
132.1162973201994
 20
287.6301248052462
 30
0.0
 40
60.0
  1
様
  7
STYLE1
 72
     1
 11
175.752660956563
 21
317.6301248052462
 31
0.0
100
AcDbText
 73
     2
  0
TEXT
  5
595
330
1E
100
AcDbEntity
  8
9図面文字
100
AcDbText
 10
130.96170722559
 20
486.6175851729015
 30
0.0
 40
60.0
  1
記
  7
STYLE1
 72
     1
 11
174.5980708619536
 21
516.6175851729015
 31
0.0
100
AcDbText
 73
     2
  0
TEXT
  5
596
330
1E
100
AcDbEntity
  8
9図面文字
100
AcDbText
 10
132.1162973201994
 20
388.9867129257502
 30
0.0
 40
60.0
  1
仕
  7
STYLE1
 72
     1
 11
175.752660956563
 21
418.9867129257502
 31
0.0
100
AcDbText
 73
     2
  0
TEXT
  5
597
330
1E
100
AcDbEntity
  8
9図面文字
100
AcDbText
 10
130.3534199244608
 20
588.1756903167518
 30
0.0
 40
60.0
  1
特
  7
STYLE1
 72
     1
 11
173.9897835608244
 21
618.1756903167518
 31
0.0
100
AcDbText
 73
     2
  0
LINE
  5
598
330
1E
100
AcDbEntity
  8
9図面枠
  6
Continuous
 62
     4
100
AcDbLine
 10
3714.994306188271
 20
461.7165605095527
 30
0.0
 11
8072.989783560824
 21
461.7165605095527
 31
0.0
  0
TEXT
  5
599
330
1E
100
AcDbEntity
  8
9図面文字
 62
     2
100
AcDbText
 10
6932.478883507205
 20
275.0203111316559
 30
0.0
 40
113.4000000000001
  1
丸山製作所
 41
1.3
  7
STYLE3
 72
     1
 11
7468.551610779932
 21
331.720311131656
 31
0.0
100
AcDbText
 73
     2
  0
LINE
  5
59A
330
1E
100
AcDbEntity
  8
9図面枠
  6
Continuous
 62
     4
100
AcDbLine
 10
3714.994306188271
 20
201.7165605095527
 30
0.0
 11
3714.994306188271
 21
721.7165605095527
 31
0.0
  0
LINE
  5
59B
330
1E
100
AcDbEntity
  8
9図面枠
  6
Continuous
 62
     4
100
AcDbLine
 10
3714.994306188271
 20
201.7165605095527
 30
0.0
 11
3714.994306188271
 21
525.7165605095527
 31
0.0
  0
TEXT
  5
59C
330
1E
100
AcDbEntity
  8
9図面文字
100
AcDbText
 10
5709.847732455732
 20
642.7560111137748
 30
0.0
 40
60.0
  1
図
  7
STYLE1
 72
     1
 11
5753.484096092096
 21
672.7560111137748
 31
0.0
100
AcDbText
 73
     2
  0
TEXT
  5
59D
330
1E
100
AcDbEntity
  8
9図面文字
100
AcDbText
 10
5707.251588323943
 20
482.367946430327
 30
0.0
 40
60.0
  1
名
  7
STYLE1
 72
     1
 11
5750.887951960307
 21
512.367946430327
 31
0.0
100
AcDbText
 73
     2
  0
TEXT
  5
59E
330
1E
100
AcDbEntity
  8
9図面文字
100
AcDbText
 10
5709.847732455732
 20
561.0641002516188
 30
0.0
 40
60.0
  1
面
  7
STYLE1
 72
     1
 11
5753.484096092096
 21
591.0641002516188
 31
0.0
100
AcDbText
 73
     2
  0
TEXT
  5
59F
330
1E
100
AcDbEntity
  8
9図面文字
100
AcDbText
 10
5709.847732455732
 20
256.7672561426573
 30
0.0
 40
60.0
  1
尺
  7
STYLE1
 72
     1
 11
5753.484096092096
 21
286.7672561426573
 31
0.0
100
AcDbText
 73
     2
  0
TEXT
  5
5A0
330
1E
100
AcDbEntity
  8
9図面文字
100
AcDbText
 10
5709.847732455732
 20
359.0313281440551
 30
0.0
 40
60.0
  1
縮
  7
STYLE1
 72
     1
 11
5753.484096092096
 21
389.0313281440551
 31
0.0
100
AcDbText
 73
     2
  0
LINE
  5
5A1
330
1E
100
AcDbEntity
  8
9図面枠
  6
Continuous
 62
     4
100
AcDbLine
 10
5672.484096092099
 20
201.7165605095527
 30
0.0
 11
5672.484096092099
 21
721.7165605095527
 31
0.0
  0
LINE
  5
5A2
330
1E
100
AcDbEntity
  8
9図面枠
  6
Continuous
 62
     4
100
AcDbLine
 10
4472.484096092099
 20
201.7165605095527
 30
0.0
 11
4472.484096092099
 21
461.7165605095527
 31
0.0
  0
LINE
  5
5A3
330
1E
100
AcDbEntity
  8
9図面枠
  6
Continuous
 62
     4
100
AcDbLine
 10
4212.484096092097
 20
201.7165605095527
 30
0.0
 11
4212.484096092097
 21
461.7165605095527
 31
0.0
  0
LINE
  5
5A4
330
1E
100
AcDbEntity
  8
9図面枠
  6
Continuous
 62
     4
100
AcDbLine
 10
4082.484096092097
 20
201.7165605095527
 30
0.0
 11
4082.484096092097
 21
461.7165605095527
 31
0.0
  0
LINE
  5
5A5
330
1E
100
AcDbEntity
  8
9図面枠
  6
Continuous
 62
     4
100
AcDbLine
 10
3844.994306188271
 20
201.7165605095527
 30
0.0
 11
3844.994306188271
 21
461.7165605095527
 31
0.0
  0
LINE
  5
5A6
330
1E
100
AcDbEntity
  8
9図面枠
  6
Continuous
 62
     4
100
AcDbLine
 10
5834.484096092096
 20
201.7165605095527
 30
0.0
 11
5834.484096092096
 21
525.7165605095527
 31
0.0
  0
LINE
  5
5A7
330
1E
100
AcDbEntity
  8
9図面枠
  6
Continuous
 62
     4
100
AcDbLine
 10
6417.684096092096
 20
201.7165605095527
 30
0.0
 11
6417.684096092096
 21
461.7165605095527
 31
0.0
  0
TEXT
  5
5A8
330
1E
100
AcDbEntity
  8
9図面文字
100
AcDbText
 10
5971.084096092098
 20
283.3676349871359
 30
0.0
 40
80.0
  1
図　示
  7
STYLE1
 72
     1
 11
6126.084096092098
 21
323.3676349871359
 31
0.0
100
AcDbText
 73
     2
  0
LINE
  5
5A9
330
1E
100
AcDbEntity
  8
9図面枠
  6
Continuous
 62
     4
100
AcDbLine
 10
5834.484096092096
 20
525.7165605095527
 30
0.0
 11
5834.484096092096
 21
721.7165605095527
 31
0.0
  0
TEXT
  5
5AA
330
1E
100
AcDbEntity
  8
9図面文字
 62
     7
100
AcDbText
 10
4969.517048878646
 20
397.0699315176955
 30
0.0
 40
50.0
  1
file name：
  7
STYLE1
 11
4969.517048878646
 21
422.0699315176955
 31
0.0
100
AcDbText
 73
     2
  0
TEXT
  5
5AB
330
1E
100
AcDbEntity
  8
9図面文字
100
AcDbText
 10
5869.356060600446
 20
502.0415636868103
 30
0.0
 40
80.0
  1
ステンレス車止可動式（アンカー、チェーン付）
  7
STYLE1
 72
     4
 11
6980.265151509537
 21
543.6324727777194
 31
0.0
100
AcDbText
  0
LINE
  5
5AC
330
1E
100
AcDbEntity
  8
非表示破線
  6
HIDS
 62
     5
100
AcDbLine
 10
254.9897835608244
 20
617.7165605095527
 30
0.0
 11
3714.994306188271
 21
617.7165605095527
 31
0.0
  0
TEXT
  5
5AD
330
1E
100
AcDbEntity
  8
9図面文字
 62
     7
100
AcDbText
 10
4977.312039365003
 20
260.2879853674015
 30
0.0
 40
70.0
  1
ＪＳＨ
  7
STYLE1
 72
     4
 11
5085.096130274094
 21
295.2879853674015
 31
0.0
100
AcDbText
  0
LINE
  5
5AE
330
1E
100
AcDbEntity
  8
9図面枠
  6
Continuous
 62
     4
100
AcDbLine
 10
8072.989783560824
 20
201.7165605095527
 30
0.0
 11
92.98978356082443
 21
201.7165605095527
 31
0.0
  0
LINE
  5
5AF
330
1E
100
AcDbEntity
  8
9図面枠
  6
Continuous
 62
     4
100
AcDbLine
 10
4472.484096092097
 20
381.7165605095527
 30
0.0
 11
5672.484096092097
 21
381.7165605095527
 31
0.0
  0
LINE
  5
5B0
330
1E
100
AcDbEntity
  8
非表示破線
  6
HIDS
 62
     5
100
AcDbLine
 10
254.9897835608244
 20
513.7165605095527
 30
0.0
 11
3714.994306188271
 21
513.7165605095527
 31
0.0
  0
LINE
  5
5B1
330
1E
100
AcDbEntity
  8
非表示破線
  6
HIDS
 62
     5
100
AcDbLine
 10
254.9897835608244
 20
409.7165605095527
 30
0.0
 11
3714.994306188271
 21
409.7165605095527
 31
0.0
  0
LINE
  5
5B2
330
1E
100
AcDbEntity
  8
非表示破線
  6
HIDS
 62
     5
100
AcDbLine
 10
254.9897835608244
 20
305.7165605095527
 30
0.0
 11
3714.994306188271
 21
305.7165605095527
 31
0.0
  0
LINE
  5
5B3
330
1E
100
AcDbEntity
  8
9図面枠
  6
Continuous
 62
     4
100
AcDbLine
 10
4823.739201140184
 20
461.7165605095527
 30
0.0
 11
4823.739201140184
 21
721.7165605095527
 31
0.0
  0
TEXT
  5
5B4
330
1E
100
AcDbEntity
  8
9図面文字
100
AcDbText
 10
4717.97187132814
 20
619.247487044767
 30
0.0
 40
60.0
  1
図
  7
STYLE1
 72
     1
 11
4761.608234964504
 21
649.247487044767
 31
0.0
100
AcDbText
 73
     2
  0
TEXT
  5
5B5
330
1E
100
AcDbEntity
  8
9図面文字
100
AcDbText
 10
4717.97187132814
 20
513.946095778557
 30
0.0
 40
60.0
  1
種
  7
STYLE1
 72
     1
 11
4761.608234964504
 21
543.946095778557
 31
0.0
100
AcDbText
 73
     2
  0
LINE
  5
5B6
330
1E
100
AcDbEntity
  8
9図面枠
  6
Continuous
 62
     4
100
AcDbLine
 10
4693.739201140186
 20
461.7165605095527
 30
0.0
 11
4693.739201140184
 21
721.7165605095527
 31
0.0
  0
TEXT
  5
5B7
330
1E
100
AcDbEntity
  8
9図面文字
100
AcDbText
 10
5018.362679548791
 20
556.2384438888814
 30
0.0
 40
70.0
  1
承諾願図
  7
STYLE1
 72
     1
 11
5221.999043185155
 21
591.2384438888814
 31
0.0
100
AcDbText
 73
     2
  0
TEXT
  5
5B8
330
1E
100
AcDbEntity
  8
9図面文字
100
AcDbText
 10
4112.178473062376
 20
556.2384438888814
 30
0.0
 40
70.0
  1
標準品
  7
STYLE1
 72
     1
 11
4264.905745789649
 21
591.2384438888814
 31
0.0
100
AcDbText
 73
     2
  0
LINE
  5
5B9
330
1E
100
AcDbEntity
  8
9図面枠
  6
Continuous
 62
     7
100
AcDbLine
 10
422.3743498723743
 20
-747.7072255267002
 30
0.0
 11
422.3743498723743
 21
-227.7072255267001
 31
0.0
  0
TEXT
  5
5BA
330
1E
100
AcDbEntity
  8
9図面文字
  6
Continuous
 62
     7
100
AcDbText
 10
2846.691650319473
 20
-711.6615774960552
 30
0.0
 40
54.67500000000008
  1
    /  /  
  7
STYLE1
100
AcDbText
  0
TEXT
  5
5BB
330
1E
100
AcDbEntity
  8
9図面文字
  6
Continuous
 62
     7
100
AcDbText
 10
2846.691650319473
 20
-581.6615774960553
 30
0.0
 40
54.67500000000008
  1
    /  /  
  7
STYLE1
100
AcDbText
  0
TEXT
  5
5BC
330
1E
100
AcDbEntity
  8
9図面文字
  6
Continuous
 62
     7
100
AcDbText
 10
2846.691650319473
 20
-451.6615774960553
 30
0.0
 40
54.67500000000008
  1
    /  /  
  7
STYLE1
100
AcDbText
  0
LINE
  5
5BD
330
1E
100
AcDbEntity
  8
9図面枠
  6
Continuous
 62
     7
100
AcDbLine
 10
3203.583650417178
 20
-747.7072255267
 30
0.0
 11
260.3743498723743
 21
-747.7072255267002
 31
0.0
  0
LINE
  5
5BE
330
1E
100
AcDbEntity
  8
非表示破線
  6
HIDS
 62
     5
 48
2.0
100
AcDbLine
 10
422.3743498723743
 20
-617.7072255267001
 30
0.0
 11
3203.583650417178
 21
-617.7072255267001
 31
0.0
  0
LINE
  5
5BF
330
1E
100
AcDbEntity
  8
非表示破線
  6
HIDS
 62
     5
 48
2.0
100
AcDbLine
 10
422.3743498723743
 20
-357.7072255267001
 30
0.0
 11
3203.583650417178
 21
-357.7072255267001
 31
0.0
  0
LINE
  5
5C0
330
1E
100
AcDbEntity
  8
9図面枠
  6
Continuous
 62
     7
100
AcDbLine
 10
260.3743498723743
 20
-227.7072255267001
 30
0.0
 11
3203.583650417178
 21
-227.7072255267002
 31
0.0
  0
LINE
  5
5C1
330
1E
100
AcDbEntity
  8
非表示破線
  6
HIDS
 62
     5
 48
2.0
100
AcDbLine
 10
422.3743498723743
 20
-487.7072255267001
 30
0.0
 11
3203.583650417178
 21
-487.7072255267001
 31
0.0
  0
TEXT
  5
5C2
330
1E
100
AcDbEntity
  8
9図面文字
  6
Continuous
 62
     7
100
AcDbText
 10
441.7932655971017
 20
-712.2034227204488
 30
0.0
 40
54.67500000000008
  1
４：
  7
STYLE1
100
AcDbText
  0
TEXT
  5
5C3
330
1E
100
AcDbEntity
  8
9図面文字
  6
Continuous
 62
     7
100
AcDbText
 10
441.7932655971017
 20
-584.0850859006002
 30
0.0
 40
54.67500000000008
  1
３：
  7
STYLE1
100
AcDbText
  0
TEXT
  5
5C4
330
1E
100
AcDbEntity
  8
9図面文字
  6
Continuous
 62
     7
100
AcDbText
 10
441.7932655971017
 20
-449.8957281602974
 30
0.0
 40
54.67500000000008
  1
２：
  7
STYLE1
100
AcDbText
  0
TEXT
  5
5C5
330
1E
100
AcDbEntity
  8
9図面文字
  6
Continuous
 62
     7
100
AcDbText
 10
441.7932655971017
 20
-321.2124848062842
 30
0.0
 40
54.67500000000008
  1
１：
  7
STYLE1
100
AcDbText
  0
TEXT
  5
5C6
330
1E
100
AcDbEntity
  8
9図面文字
100
AcDbText
 10
297.5401297750907
 20
-701.1809733987377
 30
0.0
 40
60.00000000000007
  1
歴
  7
STYLE1
 72
     1
 11
341.1764934114544
 21
-671.1809733987377
 31
0.0
100
AcDbText
 73
     2
  0
TEXT
  5
5C7
330
1E
100
AcDbEntity
  8
9図面文字
100
AcDbText
 10
297.5401297750907
 20
-455.1139767603439
 30
0.0
 40
60.00000000000007
  1
更
  7
STYLE1
 72
     1
 11
341.1764934114544
 21
-425.1139767603438
 31
0.0
100
AcDbText
 73
     2
  0
TEXT
  5
5C8
330
1E
100
AcDbEntity
  8
9図面文字
100
AcDbText
 10
297.5401297750907
 20
-576.9217333050476
 30
0.0
 40
60.00000000000007
  1
履
  7
STYLE1
 72
     1
 11
341.1764934114544
 21
-546.9217333050476
 31
0.0
100
AcDbText
 73
     2
  0
TEXT
  5
5C9
330
1E
100
AcDbEntity
  8
9図面文字
100
AcDbText
 10
297.5401297750907
 20
-335.7577355284469
 30
0.0
 40
60.00000000000007
  1
変
  7
STYLE1
 72
     1
 11
341.1764934114544
 21
-305.7577355284468
 31
0.0
100
AcDbText
 73
     2
  0
LINE
  5
5CA
330
1E
100
AcDbEntity
  8
9図面枠
  6
Continuous
 62
     7
100
AcDbLine
 10
260.3743498723743
 20
-227.7072255267001
 30
0.0
 11
260.3743498723743
 21
-747.7072255267002
 31
0.0
  0
LINE
  5
5CB
330
1E
100
AcDbEntity
  8
非表示破線
  6
HIDS
 62
     5
100
AcDbLine
 10
2746.792950961983
 20
-227.7072255267001
 30
0.0
 11
2746.792950961983
 21
-747.7072255267
 31
0.0
  0
LINE
  5
5CC
330
1E
100
AcDbEntity
  8
9図面枠
  6
Continuous
 62
     7
100
AcDbLine
 10
3203.583650417178
 20
-227.7072255267001
 30
0.0
 11
3203.583650417178
 21
-747.7072255267
 31
0.0
  0
TEXT
  5
5CD
330
1E
100
AcDbEntity
  8
9図面文字
  6
Continuous
 62
     7
100
AcDbText
 10
2846.691650319473
 20
-321.6615774960553
 30
0.0
 40
54.67500000000008
  1
    /  /  
  7
STYLE1
100
AcDbText
  0
LINE
  5
5CE
330
1E
100
AcDbEntity
  8
9図面枠
  6
Continuous
 62
     4
100
AcDbLine
 10
92.98978356082443
 20
5844.716560509552
 30
0.0
 11
92.98978356082443
 21
201.7165605095527
 31
0.0
  0
LINE
  5
5CF
330
1E
100
AcDbEntity
  8
9図面枠
  6
Continuous
 62
     4
100
AcDbLine
 10
8072.989783560826
 20
5844.716560509552
 30
0.0
 11
8072.989783560826
 21
201.7165605095527
 31
0.0
  0
LINE
  5
5D0
330
1E
100
AcDbEntity
  8
9図面枠
  6
Continuous
 62
     4
100
AcDbLine
 10
92.98978356082443
 20
5844.716560509552
 30
0.0
 11
8072.989783560826
 21
5844.716560509552
 31
0.0
  0
LWPOLYLINE
  5
5D2
330
1E
100
AcDbEntity
  8
ASKPAPERSIZE
  6
Continuous
 62
     4
100
AcDbPolyline
 90
        4
 70
     1
 43
0.0
 10
-117.0102164391756
 20
53.21656050955266
 10
-117.0102164391756
 20
5993.216560509552
 10
8282.989783560823
 20
5993.216560509552
 10
8282.989783560823
 20
53.21656050955266
1001
AUTO_SEKKEIYA
1002
{
1000
NONE
1002
}
  0
TEXT
  5
C98
330
1E
100
AcDbEntity
  8
9図面文字
100
AcDbText
 10
6752.647056461974
 20
611.6845001227778
 30
0.0
 40
80.0
  1
ＪＳＨ
  7
STYLE1
 72
     4
 11
6875.828874643792
 21
651.6845001227778
 31
0.0
100
AcDbText
  0
LINE
  5
23F7
330
1E
100
AcDbEntity
  8
0
  6
Continuous
 62
     7
100
AcDbLine
 10
3387.161993520832
 20
4544.984641599263
 30
0.0
 11
3527.161993520815
 21
4439.984641599243
 31
0.0
  0
LINE
  5
23F8
330
1E
100
AcDbEntity
  8
0
  6
Continuous
 62
     7
100
AcDbLine
 10
3387.161993520804
 20
4634.98464159926
 30
0.0
 11
3527.161993520815
 21
4739.984641599229
 31
0.0
  0
LINE
  5
23F9
330
1E
100
AcDbEntity
  8
0
  6
Continuous
 62
     7
100
AcDbLine
 10
2267.161993520799
 20
4544.984641599263
 30
0.0
 11
2127.161993520815
 21
4439.984641599243
 31
0.0
  0
LINE
  5
23FA
330
1E
100
AcDbEntity
  8
0
  6
Continuous
 62
     7
100
AcDbLine
 10
2267.161993520827
 20
4634.98464159926
 30
0.0
 11
2127.161993520815
 21
4739.984641599229
 31
0.0
  0
DIMENSION
  5
23FF
330
1E
100
AcDbEntity
  8
SUNPO_0
  6
Continuous
 62
     7
100
AcDbDimension
  2
*D17
 10
2018.365180494217
 20
2824.378646558822
 30
0.0
 11
1972.337675246036
 21
2860.814306536678
 31
0.0
 70
   160
  1
30
 71
     5
 42
30.0
  3
Standard
100
AcDbAlignedDimension
 13
2252.161993520815
 23
2854.378646558822
 33
0.0
 14
2127.161993520817
 24
2824.378646558822
 34
0.0
 50
90.0
100
AcDbRotatedDimension
1001
ACAD
1000
DSTYLE
1002
{
1070
    40
1040
20.0
1070
    41
1040
1.0
1070
    42
1040
1.0
1070
    43
1040
8.0
1070
    44
1040
1.0
1070
    46
1040
2.0
1070
    73
1070
     0
1070
    74
1070
     0
1070
   140
1040
2.0
1070
   141
1040
0.0
1070
   145
1040
1.0
1070
   146
1040
0.7
1070
   172
1070
     1
1070
   173
1070
     1
1070
   176
1070
     3
1070
   177
1070
     3
1070
   178
1070
     3
1070
   271
1070
     2
1070
   272
1070
     2
1070
   279
1070
     2
1070
   340
1005
3A
1002
}
  0
LINE
  5
2400
330
1E
100
AcDbEntity
  8
0
  6
Continuous
 62
     7
100
AcDbLine
 10
2302.861993520814
 20
2854.378646558822
 30
0.0
 11
2252.161993520815
 21
2854.378646558822
 31
0.0
  0
LINE
  5
2401
330
1E
100
AcDbEntity
  8
0
  6
Continuous
 62
     7
100
AcDbLine
 10
3527.161993520815
 20
2824.378646558822
 30
0.0
 11
3984.089011393556
 21
2824.37864655882
 31
0.0
  0
LINE
  5
2402
330
1E
100
AcDbEntity
  8
0
  6
Continuous
 62
     7
100
AcDbLine
 10
2351.461993520815
 20
2854.378646558822
 30
0.0
 11
3302.861993520814
 21
2854.378646558822
 31
0.0
  0
LINE
  5
2403
330
1E
100
AcDbEntity
  8
0
  6
Continuous
 62
     7
100
AcDbLine
 10
3402.161993520815
 20
2854.378646558822
 30
0.0
 11
3351.461993520815
 21
2854.378646558822
 31
0.0
  0
LINE
  5
2404
330
1E
100
AcDbEntity
  8
0
  6
Continuous
 62
     7
100
AcDbLine
 10
3527.161993520815
 20
2824.37864655882
 30
0.0
 11
3402.161993520815
 21
2854.378646558822
 31
0.0
  0
LINE
  5
2405
330
1E
100
AcDbEntity
  8
0
  6
Continuous
 62
     7
100
AcDbLine
 10
2252.161993520815
 20
2854.378646558822
 30
0.0
 11
2127.161993520815
 21
2824.37864655882
 31
0.0
  0
TEXT
  5
240C
330
1E
100
AcDbEntity
  8
SUNPO_0
  6
Continuous
 62
     3
100
AcDbText
 10
4820.399210023634
 20
3050.208738517058
 30
0.0
 40
40.0
  1
φ120
  7
STD
100
AcDbText
1001
ASKOBJSC
1000
1/10
1001
ASKDWGSC
1040
20.0
  0
LINE
  5
240D
330
1E
100
AcDbEntity
  8
0
  6
Continuous
 62
     7
100
AcDbLine
 10
5574.118893662035
 20
2830.37864655882
 30
0.0
 11
5574.118893662035
 21
3189.99737565581
 31
0.0
1001
ASKOBJSC
1000
1/10
1001
ASKDWGSC
1040
20.0
  0
LINE
  5
240E
330
1E
100
AcDbEntity
  8
0
  6
Continuous
 62
     7
100
AcDbLine
 10
5476.918893662034
 20
2830.37864655882
 30
0.0
 11
5476.918893662034
 21
3189.99737565581
 31
0.0
1001
ASKOBJSC
1000
1/10
1001
ASKDWGSC
1040
20.0
  0
LINE
  5
240F
330
1E
100
AcDbEntity
  8
0
  6
CENL
 62
     1
100
AcDbLine
 10
5525.518893662034
 20
2355.6161047528
 30
0.0
 11
5525.518893662034
 21
3189.99737565581
 31
0.0
1001
ASKOBJSC
1000
1/10
1001
ASKDWGSC
1040
20.0
  0
TEXT
  5
2410
330
1E
100
AcDbEntity
  8
SUNPO_0
  6
Continuous
 62
     3
100
AcDbText
 10
3800.491776761114
 20
2841.016838780344
 30
0.0
 40
80.0
  1
G.L
  7
STD
100
AcDbText
  0
TEXT
  5
2415
330
1E
100
AcDbEntity
  8
SUNPO_0
  6
Continuous
 62
     3
100
AcDbText
 10
4941.282918696111
 20
3313.243094059735
 30
0.0
 40
40.0
  1
φ48.6×3.0t
  7
STD
100
AcDbText
1001
ASKOBJSC
1000
1/10
1001
ASKDWGSC
1040
20.0
  0
TEXT
  5
2416
330
1E
100
AcDbEntity
  8
SUNPO_0
  6
Continuous
 62
     3
100
AcDbText
 10
4941.282918696111
 20
3252.319984103919
 30
0.0
 40
40.0
  1
(SUS 304)
  7
STD
100
AcDbText
1001
ASKOBJSC
1000
1/10
1001
ASKDWGSC
1040
20.0
  0
TEXT
  5
2417
330
1E
100
AcDbEntity
  8
SUNPO_0
  6
Continuous
 62
     3
100
AcDbText
 10
3432.851481594996
 20
3355.074668750665
 30
0.0
 40
40.0
  1
(SUS 304)
  7
STD
100
AcDbText
  0
LINE
  5
2418
330
1E
100
AcDbEntity
  8
0
  6
CENL
 62
     1
100
AcDbLine
 10
3327.161993520815
 20
2524.37864655882
 30
0.0
 11
3327.161993520815
 21
3150.078646558821
 31
0.0
  0
ARC
  5
2419
330
1E
100
AcDbEntity
  8
0
  6
CENL
 62
     1
100
AcDbCircle
 10
3077.161993520815
 20
3150.078646558821
 30
0.0
 40
250.0
100
AcDbArc
 50
0.0
 51
90.0
  0
LINE
  5
241A
330
1E
100
AcDbEntity
  8
0
  6
CENL
 62
     1
100
AcDbLine
 10
2577.161993520815
 20
3400.078646558821
 30
0.0
 11
3077.161993520815
 21
3400.078646558821
 31
0.0
  0
LINE
  5
241B
330
1E
100
AcDbEntity
  8
0
  6
CENL
 62
     1
100
AcDbLine
 10
2327.161993520815
 20
2524.37864655882
 30
0.0
 11
2327.161993520815
 21
3150.078646558821
 31
0.0
  0
ARC
  5
241C
330
1E
100
AcDbEntity
  8
0
  6
CENL
 62
     1
100
AcDbCircle
 10
2577.161993520815
 20
3150.078646558821
 30
0.0
 40
250.0
100
AcDbArc
 50
90.0
 51
180.0
  0
LINE
  5
2425
330
1E
100
AcDbEntity
  8
0
  6
CENL
 62
     1
100
AcDbLine
 10
2327.161993520815
 20
4589.984641599285
 30
0.0
 11
3327.161993520815
 21
4589.984641599285
 31
0.0
  0
LINE
  5
242C
330
1E
100
AcDbEntity
  8
0
  6
Continuous
 62
     7
100
AcDbLine
 10
5124.389651815543
 20
2824.37864655882
 30
0.0
 11
6147.50001970852
 21
2824.37864655882
 31
0.0
1001
ASKOBJSC
1000
1/10
1001
ASKDWGSC
1040
20.0
  0
LINE
  5
242D
330
1E
100
AcDbEntity
  8
0
  6
Continuous
 62
     7
100
AcDbLine
 10
1927.93516523971
 20
2824.378646558822
 30
0.0
 11
2127.161993520815
 21
2824.378646558822
 31
0.0
  0
LWPOLYLINE
  5
242F
330
1E
100
AcDbEntity
  8
0
  6
Continuous
 62
     7
100
AcDbPolyline
 90
        2
 70
     0
 43
0.0
 10
5574.118893662036
 20
3189.997375655701
 42
0.83436190818072
 10
5525.518893662034
 20
3189.997375655572
 42
0.8891969529775628
1001
ASKOBJSC
1000
1/10
1001
ASKDWGSC
1040
20.0
  0
LWPOLYLINE
  5
2430
330
1E
100
AcDbEntity
  8
0
  6
Continuous
 62
     7
100
AcDbPolyline
 90
        3
 70
     0
 43
0.0
 10
5476.918893662034
 20
3189.99737565581
 42
-0.7440850249184779
 10
5525.518893662034
 20
3189.99737565581
 42
0.7440850249184743
 10
5574.118893662035
 20
3189.99737565581
 42
12.78444994044794
1001
ASKOBJSC
1000
1/10
1001
ASKDWGSC
1040
20.0
  0
LINE
  5
2431
330
1E
100
AcDbEntity
  8
0
  6
Continuous
 62
     7
100
AcDbLine
 10
4994.650454135747
 20
2004.298613121885
 30
0.0
 11
5900.751016374405
 21
2004.298613121885
 31
0.0
  0
TEXT
  5
2432
330
1E
100
AcDbEntity
  8
TEXT_0
  6
Continuous
 62
     7
100
AcDbText
 10
5035.09069496291
 20
2014.231723489778
 30
0.0
 40
60.0
  1
A部詳細図　Ｓ＝１：１０
  7
STYLE1
 72
     1
 11
5453.556604053819
 21
2014.231723489778
 31
0.0
100
AcDbText
  0
TEXT
  5
2433
330
1E
100
AcDbEntity
  8
SUNPO_0
  6
Continuous
 62
     3
100
AcDbText
 10
2020.042306123589
 20
3066.372422261671
 30
0.0
 40
40.0
  1
A部
  7
STD
100
AcDbText
  0
CIRCLE
  5
2437
330
1E
100
AcDbEntity
  8
0
  6
HIDDENX2
 62
     5
 48
2.0
100
AcDbCircle
 10
2423.029212701884
 20
2818.458914117349
 30
0.0
 40
200.0
  0
TEXT
  5
2438
330
1E
100
AcDbEntity
  8
SUNPO_0
  6
Continuous
 62
     3
100
AcDbText
 10
5834.975159633523
 20
3039.660383606726
 30
0.0
 40
40.0
  1
鎖 φ6　L=600
  7
STD
100
AcDbText
1001
ASKOBJSC
1000
1/10
1001
ASKDWGSC
1040
20.0
  0
TEXT
  5
243D
330
1E
100
AcDbEntity
  8
SUNPO_0
  6
Continuous
 62
     3
100
AcDbText
 10
4659.451392746521
 20
2558.734654252727
 30
0.0
 40
40.0
  1
硬質塩化ビニール管　φ65
  7
STD
100
AcDbText
1001
ASKOBJSC
1000
1/10
1001
ASKDWGSC
1040
20.0
  0
TEXT
  5
2440
330
1E
100
AcDbEntity
  8
SUNPO_0
  6
Continuous
 62
     3
100
AcDbText
 10
5298.438494092456
 20
2271.148617009747
 30
0.0
 40
40.0
  1
φ9　L=400
  7
STD
100
AcDbText
1001
ASKOBJSC
1000
1/10
1001
ASKDWGSC
1040
20.0
  0
TEXT
  5
2444
330
1E
100
AcDbEntity
  8
SUNPO_0
  6
Continuous
 62
     3
100
AcDbText
 10
4820.399210023634
 20
3108.231738981018
 30
0.0
 40
40.0
  1
つば PL-5.0加工
  7
STD
100
AcDbText
1001
ASKOBJSC
1000
1/10
1001
ASKDWGSC
1040
20.0
  0
LINE
  5
244A
330
1E
100
AcDbEntity
  8
0
  6
Continuous
 62
     7
100
AcDbLine
 10
6038.235805661694
 20
2824.37864655882
 30
0.0
 11
5941.760580608889
 21
2824.37864655882
 31
0.0
1001
ASKOBJSC
1000
1/10
1001
ASKDWGSC
1040
20.0
  0
LINE
  5
244B
330
1E
100
AcDbEntity
  8
0
  6
Continuous
 62
     7
100
AcDbLine
 10
5375.518893662036
 20
2830.37864655882
 30
0.0
 11
5375.518893662036
 21
2824.37864655882
 31
0.0
1001
ASKOBJSC
1000
1/10
1001
ASKDWGSC
1040
20.0
  0
LINE
  5
244C
330
1E
100
AcDbEntity
  8
0
  6
Continuous
 62
     7
100
AcDbLine
 10
5675.518893662036
 20
2830.37864655882
 30
0.0
 11
5675.518893662036
 21
2824.37864655882
 31
0.0
1001
ASKOBJSC
1000
1/10
1001
ASKDWGSC
1040
20.0
  0
LINE
  5
244D
330
1E
100
AcDbEntity
  8
0
  6
Continuous
 62
     7
100
AcDbLine
 10
5476.918893662034
 20
2830.37864655882
 30
0.0
 11
5375.518893662036
 21
2830.37864655882
 31
0.0
1001
ASKOBJSC
1000
1/10
1001
ASKDWGSC
1040
20.0
  0
LINE
  5
244E
330
1E
100
AcDbEntity
  8
0
  6
Continuous
 62
     7
100
AcDbLine
 10
5675.518893662036
 20
2830.37864655882
 30
0.0
 11
5476.918893662035
 21
2830.37864655882
 31
0.0
1001
ASKOBJSC
1000
1/10
1001
ASKDWGSC
1040
20.0
  0
LINE
  5
244F
330
1E
100
AcDbEntity
  8
0
  6
Continuous
 62
     7
100
AcDbLine
 10
5476.918893662034
 20
2824.37864655882
 30
0.0
 11
5263.453196966046
 21
2824.37864655882
 31
0.0
1001
ASKOBJSC
1000
1/10
1001
ASKDWGSC
1040
20.0
  0
LINE
  5
2450
330
1E
100
AcDbEntity
  8
0
  6
Continuous
 62
     7
100
AcDbLine
 10
5476.918893662034
 20
2355.6161047528
 30
0.0
 11
5476.918893662034
 21
2824.37864655882
 31
0.0
1001
ASKOBJSC
1000
1/10
1001
ASKDWGSC
1040
20.0
  0
LINE
  5
2451
330
1E
100
AcDbEntity
  8
0
  6
Continuous
 62
     7
100
AcDbLine
 10
5574.118893662033
 20
2355.6161047528
 30
0.0
 11
5574.118893662034
 21
2824.37864655882
 31
0.0
1001
ASKOBJSC
1000
1/10
1001
ASKDWGSC
1040
20.0
  0
LINE
  5
2458
330
1E
100
AcDbEntity
  8
0
  6
Continuous
 62
     7
100
AcDbLine
 10
5590.518893662038
 20
2355.6161047528
 30
0.0
 11
5590.518893662036
 21
2824.37864655882
 31
0.0
1001
ASKOBJSC
1000
1/10
1001
ASKDWGSC
1040
20.0
  0
LINE
  5
2459
330
1E
100
AcDbEntity
  8
0
  6
Continuous
 62
     7
100
AcDbLine
 10
5460.518893662036
 20
2824.37864655882
 30
0.0
 11
5460.518893662038
 21
2355.6161047528
 31
0.0
1001
ASKOBJSC
1000
1/10
1001
ASKDWGSC
1040
20.0
  0
ARC
  5
245A
330
1E
100
AcDbEntity
  8
0
  6
Continuous
 62
     7
100
AcDbCircle
 10
5901.760580608889
 20
2844.378646558727
 30
0.0
 40
40.0
100
AcDbArc
 50
0.0
 51
180.0
1001
ASKOBJSC
1000
1/10
1001
ASKDWGSC
1040
20.0
  0
ARC
  5
245B
330
1E
100
AcDbEntity
  8
0
  6
Continuous
 62
     7
100
AcDbCircle
 10
5901.760580608889
 20
2844.378646558727
 30
0.0
 40
22.0
100
AcDbArc
 50
0.0
 51
180.0
1001
ASKOBJSC
1000
1/10
1001
ASKDWGSC
1040
20.0
  0
LINE
  5
245C
330
1E
100
AcDbEntity
  8
0
  6
Continuous
 62
     7
100
AcDbLine
 10
5861.760580608889
 20
2844.378646558727
 30
0.0
 11
5861.760580608888
 21
2502.378646558762
 31
0.0
1001
ASKOBJSC
1000
1/10
1001
ASKDWGSC
1040
20.0
  0
LINE
  5
245D
330
1E
100
AcDbEntity
  8
0
  6
Continuous
 62
     7
100
AcDbLine
 10
5941.760580608889
 20
2844.378646558727
 30
0.0
 11
5941.760580608889
 21
2502.378646558762
 31
0.0
1001
ASKOBJSC
1000
1/10
1001
ASKDWGSC
1040
20.0
  0
LINE
  5
245E
330
1E
100
AcDbEntity
  8
0
  6
Continuous
 62
     7
100
AcDbLine
 10
5879.760580608889
 20
2844.378646558727
 30
0.0
 11
5879.760580608891
 21
2494.378646558764
 31
0.0
1001
ASKOBJSC
1000
1/10
1001
ASKDWGSC
1040
20.0
  0
LINE
  5
245F
330
1E
100
AcDbEntity
  8
0
  6
Continuous
 62
     7
100
AcDbLine
 10
5923.760580608889
 20
2844.378646558727
 30
0.0
 11
5923.760580608892
 21
2494.378646558764
 31
0.0
1001
ASKOBJSC
1000
1/10
1001
ASKDWGSC
1040
20.0
  0
LINE
  5
2460
330
1E
100
AcDbEntity
  8
0
  6
Continuous
 62
     7
100
AcDbLine
 10
5923.760580608889
 20
2824.37864655882
 30
0.0
 11
5879.760580608889
 21
2824.378646558818
 31
0.0
1001
ASKOBJSC
1000
1/10
1001
ASKDWGSC
1040
20.0
  0
LINE
  5
2461
330
1E
100
AcDbEntity
  8
0
  6
Continuous
 62
     7
100
AcDbLine
 10
5861.760580608889
 20
2824.37864655882
 30
0.0
 11
5574.118893662035
 21
2824.37864655882
 31
0.0
1001
ASKOBJSC
1000
1/10
1001
ASKDWGSC
1040
20.0
  0
LWPOLYLINE
  5
2462
330
1E
100
AcDbEntity
  8
0
  6
Continuous
 62
     2
100
AcDbPolyline
 90
       16
 70
     1
 43
0.0
 10
5671.018571542128
 20
2949.632278928009
 42
0.2133426218238103
 10
5669.837434040589
 20
2945.748069051069
 42
0.0940322952041167
 10
5672.571568132324
 20
2937.291128827335
 42
0.0507036549257486
 10
5678.093618413449
 20
2929.245974406062
 42
0.0381091629128797
 10
5687.205019199979
 20
2920.017780174468
 42
0.0381091629128797
 10
5697.611467181221
 20
2912.279367321535
 42
0.0507036549257484
 10
5706.346847573986
 20
2907.930726342662
 42
0.0940322952040635
 10
5715.102003356792
 20
2906.400179251532
 42
0.2133426218235965
 10
5718.784029801464
 20
2908.110399537451
 42
0.2133426218235965
 10
5719.965167303008
 20
2911.994609414391
 42
0.0940322952040633
 10
5717.231033211273
 20
2920.451549638125
 42
0.0507036549257722
 10
5711.708982930143
 20
2928.496704059398
 42
0.038109162912885
 10
5702.597582143615
 20
2937.72489829099
 42
0.0381091629128554
 10
5692.191134162375
 20
2945.463311143923
 42
0.0507036549257501
 10
5683.45575376961
 20
2949.811952122798
 42
0.0940322952040636
 10
5674.700597986801
 20
2951.342499213928
 42
0.2133426218235965
1001
ASKOBJSC
1000
1/10
1001
ASKDWGSC
1040
20.0
  0
LWPOLYLINE
  5
2463
330
1E
100
AcDbEntity
  8
0
  6
Continuous
 62
     2
100
AcDbPolyline
 90
       16
 70
     1
 43
0.0
 10
5704.456356477934
 20
2919.509576827839
 42
0.2133426218238103
 10
5703.275218976397
 20
2915.625366950899
 42
0.0940322952041167
 10
5706.009353068131
 20
2907.168426727165
 42
0.0507036549257486
 10
5711.531403349256
 20
2899.123272305893
 42
0.0381091629128797
 10
5720.642804135788
 20
2889.8950780743
 42
0.0381091629128797
 10
5731.049252117028
 20
2882.156665221366
 42
0.0507036549257484
 10
5739.784632509793
 20
2877.808024242493
 42
0.0940322952040635
 10
5748.539788292599
 20
2876.277477151363
 42
0.2133426218235965
 10
5752.221814737273
 20
2877.98769743728
 42
0.2133426218235965
 10
5753.402952238811
 20
2881.87190731422
 42
0.0940322952040633
 10
5750.668818147078
 20
2890.328847537954
 42
0.0507036549257722
 10
5745.146767865948
 20
2898.374001959228
 42
0.038109162912885
 10
5736.035367079423
 20
2907.602196190819
 42
0.0381091629128554
 10
5725.628919098184
 20
2915.340609043755
 42
0.0507036549257501
 10
5716.893538705417
 20
2919.689250022629
 42
0.0940322952040636
 10
5708.138382922607
 20
2921.219797113759
 42
0.2133426218235965
1001
ASKOBJSC
1000
1/10
1001
ASKDWGSC
1040
20.0
  0
LWPOLYLINE
  5
2464
330
1E
100
AcDbEntity
  8
0
  6
Continuous
 62
     2
100
AcDbPolyline
 90
       16
 70
     1
 43
0.0
 10
5738.482497749224
 20
2887.649544391877
 42
0.2133426218238103
 10
5738.701069573714
 20
2883.595608215368
 42
0.0940322952041167
 10
5744.162759111373
 20
2876.583812826626
 42
0.0507036549257486
 10
5752.1033938804
 20
2870.912493012473
 42
0.0381091629128797
 10
5763.82153827825
 20
2865.357109592773
 42
0.0381091629128797
 10
5776.247093727888
 20
2861.644594968333
 42
0.0507036549257484
 10
5785.942989033594
 20
2860.545885183974
 42
0.0940322952040635
 10
5794.693622252005
 20
2862.10208101235
 42
0.2133426218235965
 10
5797.568665544295
 20
2864.968489607281
 42
0.2133426218235965
 10
5797.350093719805
 20
2869.022425783787
 42
0.0940322952040633
 10
5791.888404182146
 20
2876.034221172533
 42
0.0507036549257722
 10
5783.947769413119
 20
2881.705540986684
 42
0.038109162912885
 10
5772.229625015272
 20
2887.260924406382
 42
0.0381091629128554
 10
5759.804069565634
 20
2890.973439030826
 42
0.0507036549257501
 10
5750.108174259928
 20
2892.072148815185
 42
0.0940322952040636
 10
5741.357541041515
 20
2890.515952986809
 42
0.2133426218235965
1001
ASKOBJSC
1000
1/10
1001
ASKDWGSC
1040
20.0
  0
LWPOLYLINE
  5
2465
330
1E
100
AcDbEntity
  8
0
  6
Continuous
 62
     2
100
AcDbPolyline
 90
       16
 70
     1
 43
0.0
 10
5789.703133126231
 20
2870.005870117253
 42
0.2133426218238103
 10
5789.921704950721
 20
2865.951933940745
 42
0.0940322952041167
 10
5795.383394488382
 20
2858.940138552003
 42
0.0507036549257486
 10
5803.324029257405
 20
2853.268818737852
 42
0.0381091629128797
 10
5815.042173655256
 20
2847.713435318148
 42
0.0381091629128797
 10
5827.467729104894
 20
2844.000920693708
 42
0.0507036549257484
 10
5837.163624410599
 20
2842.902210909351
 42
0.0940322952040635
 10
5845.914257629011
 20
2844.458406737725
 42
0.2133426218235965
 10
5848.789300921302
 20
2847.324815332659
 42
0.2133426218235965
 10
5848.570729096809
 20
2851.378751509163
 42
0.0940322952040633
 10
5843.109039559151
 20
2858.390546897908
 42
0.0507036549257722
 10
5835.168404790126
 20
2864.061866712062
 42
0.038109162912885
 10
5823.450260392276
 20
2869.61725013176
 42
0.0381091629128554
 10
5811.024704942641
 20
2873.329764756203
 42
0.0507036549257501
 10
5801.328809636935
 20
2874.42847454056
 42
0.0940322952040636
 10
5792.578176418519
 20
2872.872278712186
 42
0.2133426218235965
1001
ASKOBJSC
1000
1/10
1001
ASKDWGSC
1040
20.0
  0
LWPOLYLINE
  5
2466
330
1E
100
AcDbEntity
  8
0
  6
Continuous
 62
     2
100
AcDbPolyline
 90
       12
 70
     0
 43
0.0
 10
5840.800117611403
 20
2850.157001531677
 42
0.2133426218238025
 10
5842.39203577411
 20
2846.422303588215
 42
0.0940322952041167
 10
5849.9225203935
 20
2841.701379041422
 42
0.0507036549257486
 10
5859.323981905993
 20
2839.087938703746
 42
0.0381091629128797
 10
5872.235488759393
 20
2837.875427325082
 42
0.0381091629128797
 10
5885.181446308532
 20
2838.63659498372
 42
0.0507036549257484
 10
5894.668388457136
 20
2840.9203370091
 42
0.0940322952040635
 10
5902.359043599418
 20
2845.375575573073
 42
0.2133426218235965
 10
5904.080331087155
 20
2849.052441296786
 42
0.2133426218235965
 10
5902.488412924447
 20
2852.787139240247
 42
0.0940322952040633
 10
5894.957928305057
 20
2857.50806378704
 42
0.0469683710655683
 10
5886.264182968554
 20
2859.994717132704
 42
0.0469683710655683
1001
ASKOBJSC
1000
1/10
1001
ASKDWGSC
1040
20.0
  0
LWPOLYLINE
  5
2467
330
1E
100
AcDbEntity
  8
0
  6
Continuous
 62
     2
100
AcDbPolyline
 90
        5
 70
     0
 43
0.0
 10
5865.44890731307
 20
2861.155487216542
 42
0.0169636564478406
 10
5859.699002390027
 20
2860.572847844744
 42
0.0507036549257501
 10
5850.212060241422
 20
2858.289105819362
 42
0.0940322952040636
 10
5842.521405099141
 20
2853.833867255391
 42
0.2133426218235965
 10
5840.800117611403
 20
2850.157001531677
 42
0.2133426218238103
1001
ASKOBJSC
1000
1/10
1001
ASKDWGSC
1040
20.0
  0
LINE
  5
2468
330
1E
100
AcDbEntity
  8
0
  6
Continuous
 62
     7
100
AcDbLine
 10
2526.28283699424
 20
2854.37864655882
 30
0.0
 11
2504.28283699424
 21
2854.37864655882
 31
0.0
  0
TEXT
  5
2469
330
1E
100
AcDbEntity
  8
SUNPO_0
  6
Continuous
 62
     3
100
AcDbText
 10
3674.040001662651
 20
2970.147273562952
 30
0.0
 40
40.0
  1
硬質塩化ビニール管　φ65
  7
STD
100
AcDbText
  0
TEXT
  5
246D
330
1E
100
AcDbEntity
  8
SUNPO_0
  6
Continuous
 62
     3
100
AcDbText
 10
3655.801712400819
 20
2738.486922025628
 30
0.0
 40
40.0
  1
蓋　PL-3.0t
  7
STD
100
AcDbText
  0
LINE
  5
2471
330
1E
100
AcDbEntity
  8
0
  6
Continuous
 62
     7
100
AcDbLine
 10
3302.861993520814
 20
2524.37864655882
 30
0.0
 11
3351.461993520815
 21
2524.37864655882
 31
0.0
  0
LINE
  5
2472
330
1E
100
AcDbEntity
  8
0
  6
Continuous
 62
     7
100
AcDbLine
 10
3359.661993520815
 20
2424.37864655882
 30
0.0
 11
3359.661993520815
 21
2854.378646558822
 31
0.0
  0
LINE
  5
2473
330
1E
100
AcDbEntity
  8
0
  6
Continuous
 62
     7
100
AcDbLine
 10
3294.661993520815
 20
2854.378646558822
 30
0.0
 11
3294.661993520815
 21
2424.37864655882
 31
0.0
  0
LINE
  5
2474
330
1E
100
AcDbEntity
  8
0
  6
Continuous
 62
     7
100
AcDbLine
 10
2294.661993520815
 20
2854.378646558822
 30
0.0
 11
2294.661993520815
 21
2424.37864655882
 31
0.0
  0
LINE
  5
2475
330
1E
100
AcDbEntity
  8
0
  6
Continuous
 62
     7
100
AcDbLine
 10
2302.861993520814
 20
2524.37864655882
 30
0.0
 11
2351.461993520815
 21
2524.37864655882
 31
0.0
  0
LINE
  5
2476
330
1E
100
AcDbEntity
  8
0
  6
Continuous
 62
     7
100
AcDbLine
 10
2359.661993520815
 20
2424.37864655882
 30
0.0
 11
2359.661993520815
 21
2854.378646558822
 31
0.0
  0
LINE
  5
2486
330
1E
100
AcDbEntity
  8
0
  6
Continuous
 62
     7
100
AcDbLine
 10
2504.055566577502
 20
1686.084332177549
 30
0.0
 11
3258.971954537369
 21
1686.084332177549
 31
0.0
  0
TEXT
  5
2487
330
1E
100
AcDbEntity
  8
TEXT_0
  6
Continuous
 62
     7
100
AcDbText
 10
2534.297851466526
 20
1696.017442545442
 30
0.0
 40
60.0
  1
立面図　Ｓ＝１：２０
  7
STYLE1
 72
     1
 11
2881.513760557435
 21
1696.017442545442
 31
0.0
100
AcDbText
  0
TEXT
  5
248A
330
1E
100
AcDbEntity
  8
TEXT_0
  6
Continuous
 62
     7
100
AcDbText
 10
2534.297851466526
 20
4133.061564676165
 30
0.0
 40
60.0
  1
平面図　Ｓ＝１：２０
  7
STYLE1
 72
     1
 11
2881.513760557435
 21
4133.061564676165
 31
0.0
100
AcDbText
  0
LINE
  5
248B
330
1E
100
AcDbEntity
  8
0
  6
Continuous
 62
     7
100
AcDbLine
 10
2504.055566577502
 20
4123.128454308273
 30
0.0
 11
3258.971954537369
 21
4123.128454308273
 31
0.0
  0
TEXT
  5
2495
330
1E
100
AcDbEntity
  8
SUNPO_0
  6
Continuous
 62
     3
100
AcDbText
 10
3727.058802411379
 20
2411.063990546216
 30
0.0
 40
40.0
  1
コンクリート　164B
  7
STD
100
AcDbText
  0
TEXT
  5
2497
330
1E
100
AcDbEntity
  8
SUNPO_0
  6
Continuous
 62
     3
100
AcDbText
 10
3704.138885833902
 20
2250.558556823466
 30
0.0
 40
40.0
  1
クラッシャーラン基礎
  7
STD
100
AcDbText
  0
TEXT
  5
249B
330
1E
100
AcDbEntity
  8
SUNPO_0
  6
Continuous
 62
     3
100
AcDbText
 10
2515.877477057832
 20
3212.162949337484
 30
0.0
 40
40.0
  1
R=250
  7
STD
100
AcDbText
  0
TEXT
  5
24A8
330
1E
100
AcDbEntity
  8
SUNPO_0
  6
Continuous
 62
     3
100
AcDbText
 10
3432.851481594996
 20
3415.997778706484
 30
0.0
 40
40.0
  1
φ48.6×3.0t
  7
STD
100
AcDbText
  0
LINE
  5
24C3
330
1E
100
AcDbEntity
  8
0
  6
Continuous
 62
     7
100
AcDbLine
 10
3077.161993520815
 20
3375.77864655882
 30
0.0
 11
2577.161993520815
 21
3375.77864655882
 31
0.0
  0
LINE
  5
24C4
330
1E
100
AcDbEntity
  8
0
  6
Continuous
 62
     7
100
AcDbLine
 10
2577.161993520815
 20
3424.37864655882
 30
0.0
 11
3077.161993520815
 21
3424.37864655882
 31
0.0
  0
LINE
  5
24C5
330
1E
100
AcDbEntity
  8
0
  6
HIDS
 62
     5
100
AcDbLine
 10
2077.161993520815
 20
4789.984641599243
 30
0.0
 11
2077.161993520815
 21
4389.984641599243
 31
0.0
  0
LINE
  5
24C6
330
1E
100
AcDbEntity
  8
0
  6
HIDS
 62
     5
100
AcDbLine
 10
3577.161993520815
 20
4789.984641599242
 30
0.0
 11
2077.161993520815
 21
4789.984641599243
 31
0.0
  0
LINE
  5
24C7
330
1E
100
AcDbEntity
  8
0
  6
HIDS
 62
     5
100
AcDbLine
 10
3577.161993520815
 20
4389.984641599242
 30
0.0
 11
3577.161993520815
 21
4789.984641599243
 31
0.0
  0
LINE
  5
24C8
330
1E
100
AcDbEntity
  8
0
  6
HIDS
 62
     5
100
AcDbLine
 10
2077.161993520815
 20
4389.984641599243
 30
0.0
 11
3577.161993520815
 21
4389.984641599242
 31
0.0
  0
LINE
  5
24C9
330
1E
100
AcDbEntity
  8
0
  6
Continuous
 62
     7
100
AcDbLine
 10
2127.161993520815
 20
4739.984641599243
 30
0.0
 11
2127.161993520815
 21
4439.984641599243
 31
0.0
  0
LINE
  5
24CA
330
1E
100
AcDbEntity
  8
0
  6
Continuous
 62
     7
100
AcDbLine
 10
3527.161993520815
 20
4739.984641599243
 30
0.0
 11
2127.161993520815
 21
4739.984641599243
 31
0.0
  0
LINE
  5
24CB
330
1E
100
AcDbEntity
  8
0
  6
Continuous
 62
     7
100
AcDbLine
 10
3527.161993520815
 20
4439.984641599243
 30
0.0
 11
3527.161993520815
 21
4739.984641599243
 31
0.0
  0
LINE
  5
24CC
330
1E
100
AcDbEntity
  8
0
  6
Continuous
 62
     7
100
AcDbLine
 10
2127.161993520815
 20
4439.984641599243
 30
0.0
 11
3527.161993520815
 21
4439.984641599243
 31
0.0
  0
ARC
  5
24CD
330
1E
100
AcDbEntity
  8
0
  6
Continuous
 62
     7
100
AcDbCircle
 10
3327.161993520815
 20
4589.984641599243
 30
0.0
 40
75.0
100
AcDbArc
 50
198.9050013028852
 51
161.0949986971148
  0
ARC
  5
24CE
330
1E
100
AcDbEntity
  8
0
  6
Continuous
 62
     7
100
AcDbCircle
 10
2327.161993520815
 20
4589.984641599243
 30
0.0
 40
75.0
100
AcDbArc
 50
18.90500130288517
 51
341.0949986971148
  0
ARC
  5
24CF
330
1E
100
AcDbEntity
  8
0
  6
Continuous
 62
     7
100
AcDbCircle
 10
3327.161993520815
 20
4589.984641599243
 30
0.0
 40
24.3
100
AcDbArc
 50
270.0
 51
90.0
  0
ARC
  5
24D0
330
1E
100
AcDbEntity
  8
0
  6
Continuous
 62
     7
100
AcDbCircle
 10
2327.161993520815
 20
4589.984641599243
 30
0.0
 40
24.3
100
AcDbArc
 50
90.0
 51
270.0
  0
LINE
  5
24D1
330
1E
100
AcDbEntity
  8
0
  6
Continuous
 62
     7
100
AcDbLine
 10
2327.161993520815
 20
4614.284641599284
 30
0.0
 11
3327.161993520815
 21
4614.284641599284
 31
0.0
  0
LINE
  5
24D2
330
1E
100
AcDbEntity
  8
0
  6
Continuous
 62
     7
100
AcDbLine
 10
3327.161993520815
 20
4565.684641599199
 30
0.0
 11
2327.161993520815
 21
4565.684641599199
 31
0.0
  0
LINE
  5
24D3
330
1E
100
AcDbEntity
  8
0
  6
Continuous
 62
     7
100
AcDbLine
 10
2127.161993520815
 20
2824.37864655882
 30
0.0
 11
2127.161993520815
 21
2424.37864655882
 31
0.0
  0
LINE
  5
24D4
330
1E
100
AcDbEntity
  8
0
  6
Continuous
 62
     7
100
AcDbLine
 10
2127.161993520815
 20
2424.37864655882
 30
0.0
 11
3577.161993520815
 21
2424.37864655882
 31
0.0
  0
LINE
  5
24D5
330
1E
100
AcDbEntity
  8
0
  6
Continuous
 62
     7
100
AcDbLine
 10
3527.161993520815
 20
2424.37864655882
 30
0.0
 11
3527.161993520815
 21
2824.37864655882
 31
0.0
  0
LINE
  5
24D6
330
1E
100
AcDbEntity
  8
0
  6
Continuous
 62
     7
100
AcDbLine
 10
2077.161993520815
 20
2424.37864655882
 30
0.0
 11
2077.161993520815
 21
2324.37864655882
 31
0.0
  0
LINE
  5
24D7
330
1E
100
AcDbEntity
  8
0
  6
Continuous
 62
     7
100
AcDbLine
 10
2077.161993520815
 20
2324.37864655882
 30
0.0
 11
3577.161993520815
 21
2324.37864655882
 31
0.0
  0
LINE
  5
24D8
330
1E
100
AcDbEntity
  8
0
  6
Continuous
 62
     7
100
AcDbLine
 10
3577.161993520815
 20
2324.37864655882
 30
0.0
 11
3577.161993520815
 21
2424.37864655882
 31
0.0
  0
LINE
  5
24D9
330
1E
100
AcDbEntity
  8
0
  6
Continuous
 62
     7
100
AcDbLine
 10
3077.161993520815
 20
2424.37864655882
 30
0.0
 11
2077.161993520815
 21
2424.37864655882
 31
0.0
  0
LINE
  5
24DA
330
1E
100
AcDbEntity
  8
0
  6
Continuous
 62
     7
100
AcDbLine
 10
3351.461993520815
 20
2524.37864655882
 30
0.0
 11
3351.461993520815
 21
3150.078646558821
 31
0.0
  0
LINE
  5
24DB
330
1E
100
AcDbEntity
  8
0
  6
Continuous
 62
     7
100
AcDbLine
 10
3302.861993520814
 20
2524.37864655882
 30
0.0
 11
3302.861993520814
 21
3150.078646558821
 31
0.0
  0
LINE
  5
24DC
330
1E
100
AcDbEntity
  8
0
  6
Continuous
 62
     7
100
AcDbLine
 10
2351.461993520816
 20
2524.37864655882
 30
0.0
 11
2351.461993520815
 21
3150.078646558821
 31
0.0
  0
LINE
  5
24DD
330
1E
100
AcDbEntity
  8
0
  6
Continuous
 62
     7
100
AcDbLine
 10
2302.861993520814
 20
2524.37864655882
 30
0.0
 11
2302.861993520814
 21
3150.078646558821
 31
0.0
  0
ARC
  5
24DE
330
1E
100
AcDbEntity
  8
0
  6
Continuous
 62
     7
100
AcDbCircle
 10
2577.161993520815
 20
3150.078646558821
 30
0.0
 40
274.3
100
AcDbArc
 50
90.0
 51
180.0
  0
ARC
  5
24DF
330
1E
100
AcDbEntity
  8
0
  6
Continuous
 62
     7
100
AcDbCircle
 10
2577.161993520815
 20
3150.078646558821
 30
0.0
 40
225.7
100
AcDbArc
 50
90.0
 51
180.0
  0
ARC
  5
24E0
330
1E
100
AcDbEntity
  8
0
  6
Continuous
 62
     7
100
AcDbCircle
 10
3077.161993520815
 20
3150.078646558821
 30
0.0
 40
274.3
100
AcDbArc
 50
0.0
 51
90.0
  0
ARC
  5
24E1
330
1E
100
AcDbEntity
  8
0
  6
Continuous
 62
     7
100
AcDbCircle
 10
3077.161993520815
 20
3150.078646558821
 30
0.0
 40
225.7
100
AcDbArc
 50
0.0
 51
90.0
  0
LINE
  5
24E2
330
1E
100
AcDbEntity
  8
0
  6
Continuous
 62
     7
100
AcDbLine
 10
2402.161993520815
 20
2857.378646558822
 30
0.0
 11
2351.461993520815
 21
2857.378646558822
 31
0.0
  0
LINE
  5
24E3
330
1E
100
AcDbEntity
  8
0
  6
Continuous
 62
     7
100
AcDbLine
 10
2302.861993520814
 20
2857.378646558822
 30
0.0
 11
2252.161993520815
 21
2857.378646558822
 31
0.0
  0
LINE
  5
24E4
330
1E
100
AcDbEntity
  8
0
  6
Continuous
 62
     7
100
AcDbLine
 10
2402.161993520815
 20
2857.378646558822
 30
0.0
 11
2402.161993520815
 21
2854.378646558822
 31
0.0
  0
LINE
  5
24E5
330
1E
100
AcDbEntity
  8
0
  6
Continuous
 62
     7
100
AcDbLine
 10
2252.161993520815
 20
2857.378646558822
 30
0.0
 11
2252.161993520815
 21
2854.378646558822
 31
0.0
  0
LINE
  5
24E6
330
1E
100
AcDbEntity
  8
0
  6
Continuous
 62
     7
100
AcDbLine
 10
3252.161993520815
 20
2857.378646558822
 30
0.0
 11
3252.161993520815
 21
2854.378646558822
 31
0.0
  0
LINE
  5
24E7
330
1E
100
AcDbEntity
  8
0
  6
Continuous
 62
     7
100
AcDbLine
 10
3402.161993520815
 20
2857.378646558822
 30
0.0
 11
3402.161993520815
 21
2854.378646558822
 31
0.0
  0
LINE
  5
24E8
330
1E
100
AcDbEntity
  8
0
  6
Continuous
 62
     7
100
AcDbLine
 10
3302.861993520814
 20
2857.378646558822
 30
0.0
 11
3252.161993520815
 21
2857.378646558822
 31
0.0
  0
LINE
  5
24E9
330
1E
100
AcDbEntity
  8
0
  6
Continuous
 62
     7
100
AcDbLine
 10
3402.161993520815
 20
2857.378646558822
 30
0.0
 11
3351.461993520815
 21
2857.378646558822
 31
0.0
  0
DIMENSION
  5
2509
330
1E
100
AcDbEntity
  8
0
  6
DIMENSION
 62
     7
100
AcDbDimension
  2
*D1
 10
2327.161993520815
 20
5044.629585621784
 30
0.0
 11
2227.161993520815
 21
5084.629585621784
 31
0.0
 70
    32
  1
<>
 71
     5
 42
200.0
  3
ASKSTANDARD
100
AcDbAlignedDimension
 13
2127.161993520815
 23
4814.047141599243
 33
0.0
 14
2327.161993520815
 24
4790.047141599243
 34
0.0
100
AcDbRotatedDimension
1001
ACAD
1000
DSTYLE
1002
{
1070
     3
1000
<>
1070
    41
1040
1.8
1070
    77
1070
     3
1002
}
  0
DIMENSION
  5
250A
330
1E
100
AcDbEntity
  8
0
  6
DIMENSION
 62
     7
100
AcDbDimension
  2
*D2
 10
3327.161993520815
 20
5044.629585621784
 30
0.0
 11
2827.161993520815
 21
5084.629585621784
 31
0.0
 70
    32
  1
<>
 71
     5
 42
1000.0
  3
ASKSTANDARD
100
AcDbAlignedDimension
 13
2327.161993520815
 23
4810.047141599243
 33
0.0
 14
3327.161993520815
 24
4790.047141599243
 34
0.0
100
AcDbRotatedDimension
1001
ACAD
1000
DSTYLE
1002
{
1070
     3
1000
<>
1070
    41
1040
1.8
1070
    77
1070
     3
1002
}
  0
DIMENSION
  5
250B
330
1E
100
AcDbEntity
  8
0
  6
DIMENSION
 62
     7
100
AcDbDimension
  2
*D3
 10
3527.161993520815
 20
5044.629585621784
 30
0.0
 11
3427.161993520815
 21
5084.629585621784
 31
0.0
 70
    32
  1
<>
 71
     5
 42
200.0
  3
ASKSTANDARD
100
AcDbAlignedDimension
 13
3327.161993520815
 23
4810.047141599243
 33
0.0
 14
3527.161993520815
 24
4814.047141599243
 34
0.0
100
AcDbRotatedDimension
1001
ACAD
1000
DSTYLE
1002
{
1070
     3
1000
<>
1070
    41
1040
1.8
1070
    77
1070
     3
1002
}
  0
DIMENSION
  5
250C
330
1E
100
AcDbEntity
  8
0
  6
DIMENSION
 62
     7
100
AcDbDimension
  2
*D4
 10
2127.161993520815
 20
5140.834949440279
 30
0.0
 11
2827.161993520815
 21
5180.834949440279
 31
0.0
 70
    32
  1
<>
 71
     5
 42
1400.0
  3
ASKSTANDARD
100
AcDbAlignedDimension
 13
3527.161993520815
 23
4834.047141599243
 33
0.0
 14
2127.161993520815
 24
4834.047141599243
 34
0.0
100
AcDbRotatedDimension
1001
ACAD
1000
DSTYLE
1002
{
1070
     3
1000
<>
1070
    41
1040
1.8
1070
    77
1070
     3
1002
}
  0
DIMENSION
  5
250D
330
1E
100
AcDbEntity
  8
0
  6
DIMENSION
 62
     7
100
AcDbDimension
  2
*D5
 10
1907.835345070614
 20
4589.984641599244
 30
0.0
 11
1867.835345070613
 21
4664.984641599244
 31
0.0
 70
    32
  1
<>
 71
     5
 42
150.0
  3
ASKSTANDARD
100
AcDbAlignedDimension
 13
2077.099493520815
 23
4739.984641599243
 33
0.0
 14
2077.099493520815
 24
4589.984641599243
 34
0.0
 50
90.0
100
AcDbRotatedDimension
1001
ACAD
1000
DSTYLE
1002
{
1070
     3
1000
<>
1070
    41
1040
1.8
1070
    77
1070
     3
1002
}
  0
DIMENSION
  5
250E
330
1E
100
AcDbEntity
  8
0
  6
DIMENSION
 62
     7
100
AcDbDimension
  2
*D6
 10
1907.835345070614
 20
4439.984641599244
 30
0.0
 11
1867.835345070613
 21
4514.984641599244
 31
0.0
 70
    32
  1
<>
 71
     5
 42
150.0
  3
ASKSTANDARD
100
AcDbAlignedDimension
 13
2077.161993520815
 23
4589.984641599243
 33
0.0
 14
2077.099493520815
 24
4439.984641599243
 34
0.0
 50
90.0
100
AcDbRotatedDimension
1001
ACAD
1000
DSTYLE
1002
{
1070
     3
1000
<>
1070
    41
1040
1.8
1070
    77
1070
     3
1002
}
  0
DIMENSION
  5
250F
330
1E
100
AcDbEntity
  8
0
  6
DIMENSION
 62
     7
100
AcDbDimension
  2
*D7
 10
1804.711072522533
 20
4739.984641599244
 30
0.0
 11
1764.711072522532
 21
4589.984641599244
 31
0.0
 70
    32
  1
<>
 71
     5
 42
300.0
  3
ASKSTANDARD
100
AcDbAlignedDimension
 13
2057.099493520815
 23
4439.984641599243
 33
0.0
 14
2057.099493520815
 24
4739.984641599243
 34
0.0
 50
90.0
100
AcDbRotatedDimension
1001
ACAD
1000
DSTYLE
1002
{
1070
     3
1000
<>
1070
    41
1040
1.8
1070
    77
1070
     3
1002
}
  0
DIMENSION
  5
2510
330
1E
100
AcDbEntity
  8
0
  6
DIMENSION
 62
     7
100
AcDbDimension
  2
*D8
 10
3527.161993520815
 20
2157.541890139764
 30
0.0
 11
2827.161993520815
 21
2197.541890139764
 31
0.0
 70
    32
  1
<>
 71
     5
 42
1400.0
  3
ASKSTANDARD
100
AcDbAlignedDimension
 13
2127.161993520815
 23
2322.37776863657
 33
0.0
 14
3527.161993520815
 24
2322.37776863657
 34
0.0
100
AcDbRotatedDimension
1001
ACAD
1000
DSTYLE
1002
{
1070
     3
1000
<>
1070
    41
1040
1.8
1070
    77
1070
     3
1002
}
  0
DIMENSION
  5
2511
330
1E
100
AcDbEntity
  8
0
  6
DIMENSION
 62
     7
100
AcDbDimension
  2
*D9
 10
3577.161993520815
 20
2047.390790360816
 30
0.0
 11
2827.161993520815
 21
2087.390790360816
 31
0.0
 70
    32
  1
<>
 71
     5
 42
1500.0
  3
ASKSTANDARD
100
AcDbAlignedDimension
 13
2077.161993520815
 23
2324.31614655882
 33
0.0
 14
3577.161993520815
 24
2324.31614655882
 34
0.0
100
AcDbRotatedDimension
1001
ACAD
1000
DSTYLE
1002
{
1070
     3
1000
<>
1070
    41
1040
1.8
1070
    77
1070
     3
1002
}
  0
DIMENSION
  5
2512
330
1E
100
AcDbEntity
  8
0
  6
DIMENSION
 62
     7
100
AcDbDimension
  2
*D10
 10
1887.56736174374
 20
2424.37864655882
 30
0.0
 11
1847.567361743739
 21
2374.37864655882
 31
0.0
 70
    32
  1
<>
 71
     5
 42
100.0
  3
ASKSTANDARD
100
AcDbAlignedDimension
 13
2053.099493520815
 23
2324.37864655882
 33
0.0
 14
2077.099493520815
 24
2424.37864655882
 34
0.0
 50
90.0
100
AcDbRotatedDimension
1001
ACAD
1000
DSTYLE
1002
{
1070
     3
1000
<>
1070
    41
1040
1.8
1070
    77
1070
     3
1002
}
  0
DIMENSION
  5
2513
330
1E
100
AcDbEntity
  8
0
  6
DIMENSION
 62
     7
100
AcDbDimension
  2
*D11
 10
1887.56736174374
 20
2824.37864655882
 30
0.0
 11
1847.567361743739
 21
2624.37864655882
 31
0.0
 70
    32
  1
<>
 71
     5
 42
400.0
  3
ASKSTANDARD
100
AcDbAlignedDimension
 13
2057.099493520815
 23
2424.37864655882
 33
0.0
 14
2077.099493520815
 24
2824.37864655882
 34
0.0
 50
90.0
100
AcDbRotatedDimension
1001
ACAD
1000
DSTYLE
1002
{
1070
     3
1000
<>
1070
    41
1040
1.8
1070
    77
1070
     3
1002
}
  0
DIMENSION
  5
2514
330
1E
100
AcDbEntity
  8
0
  6
DIMENSION
 62
     7
100
AcDbDimension
  2
*D12
 10
1794.31999719226
 20
2824.37864655882
 30
0.0
 11
1754.319997192259
 21
2574.37864655882
 31
0.0
 70
    32
  1
<>
 71
     5
 42
500.0
  3
ASKSTANDARD
100
AcDbAlignedDimension
 13
2033.099493520815
 23
2324.37864655882
 33
0.0
 14
2077.099493520815
 24
2824.37864655882
 34
0.0
 50
90.0
100
AcDbRotatedDimension
1001
ACAD
1000
DSTYLE
1002
{
1070
     3
1000
<>
1070
    41
1040
1.8
1070
    77
1070
     3
1002
}
  0
DIMENSION
  5
2515
330
1E
100
AcDbEntity
  8
0
  6
DIMENSION
 62
     7
100
AcDbDimension
  2
*D13
 10
1794.31999719226
 20
2824.37864655882
 30
0.0
 11
1754.319997192259
 21
3124.37864655882
 31
0.0
 70
    32
  1
<>
 71
     5
 42
600.0
  3
ASKSTANDARD
100
AcDbAlignedDimension
 13
2252.099493520815
 23
3424.37864655882
 33
0.0
 14
2077.099493520815
 24
2824.37864655882
 34
0.0
 50
90.0
100
AcDbRotatedDimension
1001
ACAD
1000
DSTYLE
1002
{
1070
     3
1000
<>
1070
    41
1040
1.8
1070
    77
1070
     3
1002
}
  0
ARC
  5
2516
330
1E
100
AcDbEntity
  8
0
  6
Continuous
 62
     7
100
AcDbCircle
 10
5609.118893662035
 20
3024.37864655882
 30
0.0
 40
35.0
100
AcDbArc
 50
270.0
 51
90.0
1001
ASKOBJSC
1000
1/10
1001
ASKDWGSC
1040
20.0
  0
ARC
  5
2517
330
1E
100
AcDbEntity
  8
0
  6
Continuous
 62
     7
100
AcDbCircle
 10
5609.118893662035
 20
3024.37864655882
 30
0.0
 40
17.0
100
AcDbArc
 50
270.0
 51
90.0
1001
ASKOBJSC
1000
1/10
1001
ASKDWGSC
1040
20.0
  0
LINE
  5
2518
330
1E
100
AcDbEntity
  8
0
  6
Continuous
 62
     7
100
AcDbLine
 10
5609.118893662035
 20
3059.37864655882
 30
0.0
 11
5574.118893662033
 21
3059.37864655882
 31
0.0
1001
ASKOBJSC
1000
1/10
1001
ASKDWGSC
1040
20.0
  0
LINE
  5
2519
330
1E
100
AcDbEntity
  8
0
  6
Continuous
 62
     7
100
AcDbLine
 10
5609.118893662035
 20
3041.37864655882
 30
0.0
 11
5574.118893662033
 21
3041.37864655882
 31
0.0
1001
ASKOBJSC
1000
1/10
1001
ASKDWGSC
1040
20.0
  0
LINE
  5
251A
330
1E
100
AcDbEntity
  8
0
  6
Continuous
 62
     7
100
AcDbLine
 10
5609.118893662035
 20
3007.37864655882
 30
0.0
 11
5574.118893662033
 21
3007.37864655882
 31
0.0
1001
ASKOBJSC
1000
1/10
1001
ASKDWGSC
1040
20.0
  0
LINE
  5
251B
330
1E
100
AcDbEntity
  8
0
  6
Continuous
 62
     7
100
AcDbLine
 10
5609.118893662035
 20
2989.37864655882
 30
0.0
 11
5574.118893662033
 21
2989.37864655882
 31
0.0
1001
ASKOBJSC
1000
1/10
1001
ASKDWGSC
1040
20.0
  0
LWPOLYLINE
  5
251C
330
1E
100
AcDbEntity
  8
0
  6
Continuous
 62
     2
100
AcDbPolyline
 90
       13
 70
     0
 43
0.0
 10
5601.729764361218
 20
3015.540465207148
 42
0.2133426218238103
 10
5600.548626859681
 20
3011.65625533021
 42
0.0940322952041167
 10
5603.282760951415
 20
3003.199315106474
 42
0.0507036549257486
 10
5608.80481123254
 20
2995.154160685202
 42
0.0381091629128797
 10
5617.916212019069
 20
2985.925966453609
 42
0.0381091629128797
 10
5628.322660000314
 20
2978.187553600676
 42
0.0507036549257484
 10
5637.058040393075
 20
2973.838912621801
 42
0.0940322952040635
 10
5645.813196175885
 20
2972.308365530671
 42
0.2133426218235965
 10
5649.495222620556
 20
2974.018585816591
 42
0.2133426218235965
 10
5650.676360122096
 20
2977.902795693528
 42
0.0940322952040633
 10
5647.942226030362
 20
2986.359735917265
 42
0.0507036549257722
 10
5642.420175749234
 20
2994.404890338537
 42
0.028903286991292
 10
5635.635478997903
 20
3001.534157023618
 42
0.0381091629128554
1001
ASKOBJSC
1000
1/10
1001
ASKDWGSC
1040
20.0
  0
LWPOLYLINE
  5
251D
330
1E
100
AcDbEntity
  8
0
  6
Continuous
 62
     2
100
AcDbPolyline
 90
        4
 70
     0
 43
0.0
 10
5621.18709470599
 20
3012.405404576821
 42
0.0403014694253
 10
5614.166946588702
 20
3015.720138401937
 42
0.0940322952040636
 10
5605.41179080589
 20
3017.250685493069
 42
0.2133426218235965
 10
5601.729764361218
 20
3015.540465207148
 42
0.2133426218238103
1001
ASKOBJSC
1000
1/10
1001
ASKDWGSC
1040
20.0
  0
LWPOLYLINE
  5
251E
330
1E
100
AcDbEntity
  8
0
  6
Continuous
 62
     2
100
AcDbPolyline
 90
       16
 70
     1
 43
0.0
 10
5637.580786606321
 20
2979.75498102818
 42
0.2133426218238103
 10
5636.399649104783
 20
2975.870771151238
 42
0.0940322952041167
 10
5639.133783196517
 20
2967.413830927504
 42
0.0507036549257486
 10
5644.655833477643
 20
2959.368676506232
 42
0.0381091629128797
 10
5653.767234264173
 20
2950.140482274639
 42
0.0381091629128797
 10
5664.173682245415
 20
2942.402069421705
 42
0.0507036549257484
 10
5672.909062638179
 20
2938.05342844283
 42
0.0940322952040635
 10
5681.664218420986
 20
2936.522881351701
 42
0.2133426218235965
 10
5685.346244865658
 20
2938.233101637619
 42
0.2133426218235965
 10
5686.527382367201
 20
2942.117311514559
 42
0.0940322952040633
 10
5683.793248275467
 20
2950.574251738293
 42
0.0507036549257722
 10
5678.271197994337
 20
2958.619406159569
 42
0.038109162912885
 10
5669.159797207809
 20
2967.847600391158
 42
0.0381091629128554
 10
5658.753349226569
 20
2975.586013244092
 42
0.0507036549257501
 10
5650.017968833804
 20
2979.934654222967
 42
0.0940322952040636
 10
5641.262813050995
 20
2981.465201314097
 42
0.2133426218235965
1001
ASKOBJSC
1000
1/10
1001
ASKDWGSC
1040
20.0
  0
LINE
  5
251F
330
1E
100
AcDbEntity
  8
0
  6
Continuous
 62
     7
100
AcDbLine
 10
5819.76058060889
 20
2502.378646558764
 30
0.0
 11
5861.760580608889
 21
2502.378646558762
 31
0.0
1001
ASKOBJSC
1000
1/10
1001
ASKDWGSC
1040
20.0
  0
LINE
  5
2520
330
1E
100
AcDbEntity
  8
0
  6
Continuous
 62
     7
100
AcDbLine
 10
5819.760580608891
 20
2484.378646558764
 30
0.0
 11
5869.760580608891
 21
2484.378646558764
 31
0.0
1001
ASKOBJSC
1000
1/10
1001
ASKDWGSC
1040
20.0
  0
LINE
  5
2521
330
1E
100
AcDbEntity
  8
0
  6
Continuous
 62
     7
100
AcDbLine
 10
5983.76058060889
 20
2502.378646558762
 30
0.0
 11
5941.760580608888
 21
2502.37864655876
 31
0.0
1001
ASKOBJSC
1000
1/10
1001
ASKDWGSC
1040
20.0
  0
LINE
  5
2522
330
1E
100
AcDbEntity
  8
0
  6
Continuous
 62
     7
100
AcDbLine
 10
5983.76058060889
 20
2484.378646558764
 30
0.0
 11
5933.760580608891
 21
2484.378646558764
 31
0.0
1001
ASKOBJSC
1000
1/10
1001
ASKDWGSC
1040
20.0
  0
ARC
  5
2523
330
1E
100
AcDbEntity
  8
0
  6
Continuous
 62
     7
100
AcDbCircle
 10
5933.760580608891
 20
2494.378646558764
 30
0.0
 40
10.0
100
AcDbArc
 50
180.0
 51
270.0
1001
ASKOBJSC
1000
1/10
1001
ASKDWGSC
1040
20.0
  0
ARC
  5
2524
330
1E
100
AcDbEntity
  8
0
  6
Continuous
 62
     7
100
AcDbCircle
 10
5869.760580608891
 20
2494.378646558764
 30
0.0
 40
10.0
100
AcDbArc
 50
270.0
 51
0.0
1001
ASKOBJSC
1000
1/10
1001
ASKDWGSC
1040
20.0
  0
LINE
  5
2525
330
1E
100
AcDbEntity
  8
0
  6
Continuous
 62
     7
100
AcDbLine
 10
5983.76058060889
 20
2502.378646558762
 30
0.0
 11
5983.76058060889
 21
2484.378646558764
 31
0.0
1001
ASKOBJSC
1000
1/10
1001
ASKDWGSC
1040
20.0
  0
LINE
  5
2526
330
1E
100
AcDbEntity
  8
0
  6
Continuous
 62
     7
100
AcDbLine
 10
5819.76058060889
 20
2502.378646558764
 30
0.0
 11
5819.760580608891
 21
2484.378646558764
 31
0.0
1001
ASKOBJSC
1000
1/10
1001
ASKDWGSC
1040
20.0
  0
DIMENSION
  5
2527
330
1E
100
AcDbEntity
  8
0
  6
DIMENSION
 62
     7
100
AcDbDimension
  2
*D14
 10
6125.592370338517
 20
2824.37864655882
 30
0.0
 11
6085.592370338516
 21
2854.378646558793
 31
0.0
 70
    32
  1
<>
 71
     5
 42
29.99999999997181
  3
ASKSTANDARD
100
AcDbAlignedDimension
 13
5901.82308060889
 23
2884.378646558764
 33
0.0
 14
5965.823080608888
 24
2824.37864655882
 34
0.0
 50
90.0
100
AcDbRotatedDimension
1001
ACAD
1000
DSTYLE
1002
{
1070
     3
1000
<>
1070
    41
1040
1.8
1070
    77
1070
     3
1070
   144
1040
0.5
1002
}
1001
ASKOBJSC
1000
1/10
1001
ASKDWGSC
1040
20.0
  0
DIMENSION
  5
2528
330
1E
100
AcDbEntity
  8
0
  6
DIMENSION
 62
     7
100
AcDbDimension
  2
*D15
 10
6125.592370338517
 20
2484.378646558764
 30
0.0
 11
6085.592370338516
 21
2654.378646558793
 31
0.0
 70
    32
  1
<>
 71
     5
 42
170.0000000000282
  3
ASKSTANDARD
100
AcDbAlignedDimension
 13
5989.998193135291
 23
2824.37864655882
 33
0.0
 14
5983.76058060889
 24
2484.378646558764
 34
0.0
 50
90.0
100
AcDbRotatedDimension
1001
ACAD
1000
DSTYLE
1002
{
1070
     3
1000
<>
1070
    41
1040
1.8
1070
    77
1070
     3
1070
   144
1040
0.5
1002
}
1001
ASKOBJSC
1000
1/10
1001
ASKDWGSC
1040
20.0
  0
DIMENSION
  5
2529
330
1E
100
AcDbEntity
  8
0
  6
DIMENSION
 62
     7
100
AcDbDimension
  2
*D16
 10
5280.168084232236
 20
2824.37864655882
 30
0.0
 11
5240.168084232235
 21
2924.378646558821
 31
0.0
 70
    32
  1
<>
 71
     5
 42
100.0
  3
ASKSTANDARD
100
AcDbAlignedDimension
 13
5455.297857960995
 23
3024.37864655882
 33
0.0
 14
5348.627509613001
 24
2824.37864655882
 34
0.0
 50
90.0
100
AcDbRotatedDimension
1001
ACAD
1000
DSTYLE
1002
{
1070
     3
1000
<>
1070
    41
1040
1.8
1070
    77
1070
     3
1070
   144
1040
0.5
1002
}
1001
ASKOBJSC
1000
1/10
1001
ASKDWGSC
1040
20.0
  0
LINE
  5
252A
330
1E
100
AcDbEntity
  8
0
  6
Continuous
 62
     7
100
AcDbLine
 10
2474.282836994244
 20
2693.378646558793
 30
0.0
 11
2474.282836994244
 21
2684.378646558793
 31
0.0
1001
ASKOBJSC
1000
1/10
1001
ASKDWGSC
1040
20.0
  0
LINE
  5
252B
330
1E
100
AcDbEntity
  8
0
  6
Continuous
 62
     7
100
AcDbLine
 10
2556.282836994244
 20
2693.378646558793
 30
0.0
 11
2556.282836994244
 21
2684.378646558793
 31
0.0
1001
ASKOBJSC
1000
1/10
1001
ASKDWGSC
1040
20.0
  0
ARC
  5
252C
330
1E
100
AcDbEntity
  8
0
  6
Continuous
 62
     7
100
AcDbCircle
 10
2499.282836994244
 20
2689.378646558793
 30
0.0
 40
5.0
100
AcDbArc
 50
270.0
 51
0.0
1001
ASKOBJSC
1000
1/10
1001
ASKDWGSC
1040
20.0
  0
ARC
  5
252D
330
1E
100
AcDbEntity
  8
0
  6
Continuous
 62
     7
100
AcDbCircle
 10
2531.282836994244
 20
2689.378646558793
 30
0.0
 40
5.0
100
AcDbArc
 50
180.0
 51
270.0
1001
ASKOBJSC
1000
1/10
1001
ASKDWGSC
1040
20.0
  0
LINE
  5
252E
330
1E
100
AcDbEntity
  8
0
  6
Continuous
 62
     7
100
AcDbLine
 10
2556.282836994244
 20
2684.378646558793
 30
0.0
 11
2531.282836994244
 21
2684.378646558793
 31
0.0
1001
ASKOBJSC
1000
1/10
1001
ASKDWGSC
1040
20.0
  0
LINE
  5
252F
330
1E
100
AcDbEntity
  8
0
  6
Continuous
 62
     7
100
AcDbLine
 10
2556.282836994244
 20
2693.378646558793
 30
0.0
 11
2535.282836994243
 21
2693.378646558791
 31
0.0
1001
ASKOBJSC
1000
1/10
1001
ASKDWGSC
1040
20.0
  0
LINE
  5
2530
330
1E
100
AcDbEntity
  8
0
  6
Continuous
 62
     7
100
AcDbLine
 10
2474.282836994244
 20
2684.378646558793
 30
0.0
 11
2499.282836994244
 21
2684.378646558793
 31
0.0
1001
ASKOBJSC
1000
1/10
1001
ASKDWGSC
1040
20.0
  0
LINE
  5
2531
330
1E
100
AcDbEntity
  8
0
  6
Continuous
 62
     7
100
AcDbLine
 10
2474.282836994244
 20
2693.378646558793
 30
0.0
 11
2495.282836994243
 21
2693.378646558793
 31
0.0
1001
ASKOBJSC
1000
1/10
1001
ASKDWGSC
1040
20.0
  0
LWPOLYLINE
  5
2532
330
1E
100
AcDbEntity
  8
0
  6
Continuous
 62
     2
100
AcDbPolyline
 90
       16
 70
     1
 43
0.0
 10
2383.19293999296
 20
2932.066813793501
 42
0.2133426218238103
 10
2382.60237124219
 20
2930.12470885503
 42
0.0940322952041167
 10
2383.969438288058
 20
2925.896238743162
 42
0.0507036549257486
 10
2386.73046342862
 20
2921.873661532527
 42
0.0381091629128797
 10
2391.286163821885
 20
2917.25956441673
 42
0.0381091629128797
 10
2396.489387812507
 20
2913.390357990264
 42
0.0507036549257484
 10
2400.857078008888
 20
2911.216037500826
 42
0.0940322952040635
 10
2405.234655900292
 20
2910.450763955261
 42
0.2133426218235965
 10
2407.075669122628
 20
2911.305874098221
 42
0.2133426218235965
 10
2407.666237873399
 20
2913.247979036691
 42
0.0940322952040633
 10
2406.299170827532
 20
2917.476449148557
 42
0.0507036549257722
 10
2403.538145686967
 20
2921.499026359195
 42
0.038109162912885
 10
2398.982445293704
 20
2926.11312347499
 42
0.0381091629128554
 10
2393.779221303083
 20
2929.982329901457
 42
0.0507036549257501
 10
2389.411531106701
 20
2932.156650390894
 42
0.0940322952040636
 10
2385.033953215297
 20
2932.921923936459
 42
0.2133426218235965
1001
ASKOBJSC
1000
1/10
1001
ASKDWGSC
1040
20.0
  0
LWPOLYLINE
  5
2533
330
1E
100
AcDbEntity
  8
0
  6
Continuous
 62
     2
100
AcDbPolyline
 90
        4
 70
     0
 43
0.0
 10
2374.996094042794
 20
2948.392025567822
 42
0.0403014694253
 10
2371.48601998415
 20
2950.04939248038
 42
0.0940322952040636
 10
2367.108442092744
 20
2950.814666025946
 42
0.2133426218235965
 10
2365.267428870408
 20
2949.959555882984
 42
0.2133426218238103
1001
ASKOBJSC
1000
1/10
1001
ASKDWGSC
1040
20.0
  0
LWPOLYLINE
  5
2534
330
1E
100
AcDbEntity
  8
0
  6
Continuous
 62
     2
100
AcDbPolyline
 90
       13
 70
     0
 43
0.0
 10
2365.267428870408
 20
2949.959555882984
 42
0.2133426218238103
 10
2364.676860119639
 20
2948.017450944515
 42
0.0940322952041167
 10
2366.043927165506
 20
2943.788980832649
 42
0.0507036549257486
 10
2368.804952306068
 20
2939.766403622012
 42
0.0381091629128797
 10
2373.360652699333
 20
2935.152306506216
 42
0.0381091629128797
 10
2378.563876689956
 20
2931.283100079749
 42
0.0507036549257484
 10
2382.931566886336
 20
2929.108779590311
 42
0.0940322952040635
 10
2387.309144777741
 20
2928.343506044746
 42
0.2133426218235965
 10
2389.150158000077
 20
2929.198616187707
 42
0.2133426218235965
 10
2389.740726750847
 20
2931.140721126174
 42
0.0940322952040633
 10
2388.37365970498
 20
2935.369191238044
 42
0.0507036549257722
 10
2385.612634564416
 20
2939.391768448679
 42
0.028903286991292
 10
2382.22028618875
 20
2942.95640179122
 42
0.0381091629128554
1001
ASKOBJSC
1000
1/10
1001
ASKDWGSC
1040
20.0
  0
LINE
  5
2535
330
1E
100
AcDbEntity
  8
0
  6
Continuous
 62
     7
100
AcDbLine
 10
2368.961993520817
 20
2936.878646558822
 30
0.0
 11
2351.461993520815
 21
2936.878646558822
 31
0.0
1001
ASKOBJSC
1000
1/10
1001
ASKDWGSC
1040
20.0
  0
LINE
  5
2536
330
1E
100
AcDbEntity
  8
0
  6
Continuous
 62
     7
100
AcDbLine
 10
2368.961993520817
 20
2945.878646558822
 30
0.0
 11
2351.461993520815
 21
2945.878646558822
 31
0.0
1001
ASKOBJSC
1000
1/10
1001
ASKDWGSC
1040
20.0
  0
LINE
  5
2537
330
1E
100
AcDbEntity
  8
0
  6
Continuous
 62
     7
100
AcDbLine
 10
2368.961993520817
 20
2962.878646558822
 30
0.0
 11
2351.461993520815
 21
2962.878646558822
 31
0.0
1001
ASKOBJSC
1000
1/10
1001
ASKDWGSC
1040
20.0
  0
LINE
  5
2538
330
1E
100
AcDbEntity
  8
0
  6
Continuous
 62
     7
100
AcDbLine
 10
2368.961993520817
 20
2971.878646558822
 30
0.0
 11
2351.461993520815
 21
2971.878646558822
 31
0.0
1001
ASKOBJSC
1000
1/10
1001
ASKDWGSC
1040
20.0
  0
ARC
  5
2539
330
1E
100
AcDbEntity
  8
0
  6
Continuous
 62
     7
100
AcDbCircle
 10
2368.961993520817
 20
2954.378646558822
 30
0.0
 40
8.5
100
AcDbArc
 50
270.0
 51
90.0
1001
ASKOBJSC
1000
1/10
1001
ASKDWGSC
1040
20.0
  0
ARC
  5
253A
330
1E
100
AcDbEntity
  8
0
  6
Continuous
 62
     7
100
AcDbCircle
 10
2368.961993520817
 20
2954.378646558822
 30
0.0
 40
17.5
100
AcDbArc
 50
270.0
 51
90.0
1001
ASKOBJSC
1000
1/10
1001
ASKDWGSC
1040
20.0
  0
LWPOLYLINE
  5
253B
330
1E
100
AcDbEntity
  8
0
  6
Continuous
 62
     2
100
AcDbPolyline
 90
        5
 70
     0
 43
0.0
 10
2497.127000346333
 20
2872.767066887682
 42
0.0169636564478406
 10
2494.252047884812
 20
2872.475747201783
 42
0.0507036549257501
 10
2489.50857681051
 20
2871.333876189092
 42
0.0940322952040636
 10
2485.663249239369
 20
2869.106256907105
 42
0.2133426218235965
 10
2484.8026054955
 20
2867.26782404525
 42
0.2133426218238103
1001
ASKOBJSC
1000
1/10
1001
ASKDWGSC
1040
20.0
  0
LWPOLYLINE
  5
253C
330
1E
100
AcDbEntity
  8
0
  6
Continuous
 62
     2
100
AcDbPolyline
 90
       12
 70
     0
 43
0.0
 10
2484.8026054955
 20
2867.26782404525
 42
0.2133426218238025
 10
2485.598564576853
 20
2865.400475073518
 42
0.0940322952041167
 10
2489.363806886548
 20
2863.040012800122
 42
0.0507036549257486
 10
2494.064537642796
 20
2861.733292631283
 42
0.0381091629128797
 10
2500.520291069495
 20
2861.127036941953
 42
0.0381091629128797
 10
2506.993269844065
 20
2861.507620771272
 42
0.0507036549257484
 10
2511.736740918367
 20
2862.649491783961
 42
0.0940322952040635
 10
2515.582068489508
 20
2864.877111065947
 42
0.2133426218235965
 10
2516.442712233376
 20
2866.715543927805
 42
0.2133426218235965
 10
2515.646753152022
 20
2868.582892899534
 42
0.0940322952040633
 10
2511.881510842327
 20
2870.943355172931
 42
0.0469683710655683
 10
2507.534638174076
 20
2872.186681845762
 42
0.0469683710655683
1001
ASKOBJSC
1000
1/10
1001
ASKDWGSC
1040
20.0
  0
LWPOLYLINE
  5
253D
330
1E
100
AcDbEntity
  8
0
  6
Continuous
 62
     2
100
AcDbPolyline
 90
       16
 70
     1
 43
0.0
 10
2459.254113252914
 20
2877.192258338038
 42
0.2133426218238103
 10
2459.36339916516
 20
2875.165290249783
 42
0.0940322952041167
 10
2462.09424393399
 20
2871.659392555413
 42
0.0507036549257486
 10
2466.064561318502
 20
2868.823732648338
 42
0.0381091629128797
 10
2471.923633517427
 20
2866.046040938485
 42
0.0381091629128797
 10
2478.136411242246
 20
2864.189783626265
 42
0.0507036549257484
 10
2482.984358895098
 20
2863.640428734087
 42
0.0940322952040635
 10
2487.359675504305
 20
2864.418526648273
 42
0.2133426218235965
 10
2488.797197150449
 20
2865.85173094574
 42
0.2133426218235965
 10
2488.687911238204
 20
2867.878699033992
 42
0.0940322952040633
 10
2485.957066469374
 20
2871.384596728365
 42
0.0507036549257722
 10
2481.986749084862
 20
2874.220256635441
 42
0.038109162912885
 10
2476.127676885936
 20
2876.99794834529
 42
0.0381091629128554
 10
2469.914899161119
 20
2878.854205657512
 42
0.0507036549257501
 10
2465.066951508266
 20
2879.403560549692
 42
0.0940322952040636
 10
2460.691634899059
 20
2878.625462635504
 42
0.2133426218235965
1001
ASKOBJSC
1000
1/10
1001
ASKDWGSC
1040
20.0
  0
LWPOLYLINE
  5
253E
330
1E
100
AcDbEntity
  8
0
  6
Continuous
 62
     2
100
AcDbPolyline
 90
       16
 70
     1
 43
0.0
 10
2433.643795564411
 20
2886.01409547535
 42
0.2133426218238103
 10
2433.753081476655
 20
2883.987127387094
 42
0.0940322952041167
 10
2436.483926245485
 20
2880.481229692725
 42
0.0507036549257486
 10
2440.454243629999
 20
2877.645569785647
 42
0.0381091629128797
 10
2446.313315828924
 20
2874.867878075796
 42
0.0381091629128797
 10
2452.526093553743
 20
2873.011620763578
 42
0.0507036549257484
 10
2457.374041206595
 20
2872.462265871398
 42
0.0940322952040635
 10
2461.749357815802
 20
2873.240363785586
 42
0.2133426218235965
 10
2463.186879461947
 20
2874.673568083052
 42
0.2133426218235965
 10
2463.077593549701
 20
2876.700536171304
 42
0.0940322952040633
 10
2460.346748780871
 20
2880.206433865676
 42
0.0507036549257722
 10
2456.376431396358
 20
2883.042093772752
 42
0.038109162912885
 10
2450.517359197435
 20
2885.819785482601
 42
0.0381091629128554
 10
2444.304581472616
 20
2887.676042794823
 42
0.0507036549257501
 10
2439.456633819763
 20
2888.225397687003
 42
0.0940322952040636
 10
2435.081317210556
 20
2887.447299772815
 42
0.2133426218235965
1001
ASKOBJSC
1000
1/10
1001
ASKDWGSC
1040
20.0
  0
LWPOLYLINE
  5
253F
330
1E
100
AcDbEntity
  8
0
  6
Continuous
 62
     2
100
AcDbPolyline
 90
       16
 70
     1
 43
0.0
 10
2416.630724928766
 20
2901.94411169333
 42
0.2133426218238103
 10
2416.040156177997
 20
2900.002006754859
 42
0.0940322952041167
 10
2417.407223223864
 20
2895.773536642993
 42
0.0507036549257486
 10
2420.168248364426
 20
2891.750959432358
 42
0.0381091629128797
 10
2424.723948757693
 20
2887.13686231656
 42
0.0381091629128797
 10
2429.927172748313
 20
2883.267655890095
 42
0.0507036549257484
 10
2434.294862944696
 20
2881.093335400657
 42
0.0940322952040635
 10
2438.672440836098
 20
2880.328061855093
 42
0.2133426218235965
 10
2440.513454058436
 20
2881.183171998051
 42
0.2133426218235965
 10
2441.104022809204
 20
2883.125276936522
 42
0.0940322952040633
 10
2439.736955763338
 20
2887.353747048388
 42
0.0507036549257722
 10
2436.975930622772
 20
2891.376324259025
 42
0.038109162912885
 10
2432.42023022951
 20
2895.990421374821
 42
0.0381091629128554
 10
2427.217006238891
 20
2899.859627801288
 42
0.0507036549257501
 10
2422.849316042507
 20
2902.033948290726
 42
0.0940322952040636
 10
2418.471738151103
 20
2902.799221836291
 42
0.2133426218235965
1001
ASKOBJSC
1000
1/10
1001
ASKDWGSC
1040
20.0
  0
LWPOLYLINE
  5
2540
330
1E
100
AcDbEntity
  8
0
  6
Continuous
 62
     2
100
AcDbPolyline
 90
       16
 70
     1
 43
0.0
 10
2399.911832460863
 20
2917.005462743417
 42
0.2133426218238103
 10
2399.321263710093
 20
2915.063357804946
 42
0.0940322952041167
 10
2400.688330755961
 20
2910.834887693078
 42
0.0507036549257486
 10
2403.449355896523
 20
2906.812310482443
 42
0.0381091629128797
 10
2408.005056289788
 20
2902.198213366644
 42
0.0381091629128797
 10
2413.20828028041
 20
2898.329006940179
 42
0.0507036549257484
 10
2417.575970476792
 20
2896.154686450742
 42
0.0940322952040635
 10
2421.953548368195
 20
2895.389412905177
 42
0.2133426218235965
 10
2423.794561590531
 20
2896.244523048137
 42
0.2133426218235965
 10
2424.385130341302
 20
2898.186627986606
 42
0.0940322952040633
 10
2423.018063295435
 20
2902.415098098472
 42
0.0507036549257722
 10
2420.25703815487
 20
2906.437675309111
 42
0.038109162912885
 10
2415.701337761607
 20
2911.051772424906
 42
0.0381091629128554
 10
2410.498113770986
 20
2914.920978851373
 42
0.0507036549257501
 10
2406.130423574604
 20
2917.09529934081
 42
0.0940322952040636
 10
2401.7528456832
 20
2917.860572886375
 42
0.2133426218235965
1001
ASKOBJSC
1000
1/10
1001
ASKDWGSC
1040
20.0
  0
LINE
  5
2541
330
1E
100
AcDbEntity
  8
0
  6
Continuous
 62
     7
100
AcDbLine
 10
2526.282836994243
 20
2864.378646558775
 30
0.0
 11
2526.282836994244
 21
2689.378646558793
 31
0.0
1001
ASKOBJSC
1000
1/10
1001
ASKDWGSC
1040
20.0
  0
LINE
  5
2542
330
1E
100
AcDbEntity
  8
0
  6
Continuous
 62
     7
100
AcDbLine
 10
2504.282836994243
 20
2864.378646558775
 30
0.0
 11
2504.282836994244
 21
2689.378646558793
 31
0.0
1001
ASKOBJSC
1000
1/10
1001
ASKDWGSC
1040
20.0
  0
LINE
  5
2543
330
1E
100
AcDbEntity
  8
0
  6
Continuous
 62
     7
100
AcDbLine
 10
2535.282836994243
 20
2864.378646558775
 30
0.0
 11
2535.282836994243
 21
2693.378646558793
 31
0.0
1001
ASKOBJSC
1000
1/10
1001
ASKDWGSC
1040
20.0
  0
LINE
  5
2544
330
1E
100
AcDbEntity
  8
0
  6
Continuous
 62
     7
100
AcDbLine
 10
2495.282836994243
 20
2864.378646558775
 30
0.0
 11
2495.282836994243
 21
2693.378646558793
 31
0.0
1001
ASKOBJSC
1000
1/10
1001
ASKDWGSC
1040
20.0
  0
ARC
  5
2545
330
1E
100
AcDbEntity
  8
0
  6
Continuous
 62
     7
100
AcDbCircle
 10
2515.282836994243
 20
2864.378646558775
 30
0.0
 40
11.0
100
AcDbArc
 50
0.0
 51
180.0
1001
ASKOBJSC
1000
1/10
1001
ASKDWGSC
1040
20.0
  0
ARC
  5
2546
330
1E
100
AcDbEntity
  8
0
  6
Continuous
 62
     7
100
AcDbCircle
 10
2515.282836994243
 20
2864.378646558775
 30
0.0
 40
20.0
100
AcDbArc
 50
0.0
 51
180.0
1001
ASKOBJSC
1000
1/10
1001
ASKDWGSC
1040
20.0
  0
INSERT
  5
2833
330
1E
100
AcDbEntity
  8
0
  6
Continuous
 62
     7
100
AcDbBlockReference
  2
kami
 10
4075.866984888758
 20
238.3883521838748
 30
0.0
 41
0.7560000163615257
 42
0.7560000163615257
1001
ASKOBJSC
1000
1/5
1001
ASKDWGSC
1040
20.0
  0
INSERT
  5
2834
330
1E
100
AcDbEntity
  8
0
  6
Continuous
 62
     7
100
AcDbBlockReference
  2
marutomo
 10
4470.623575388209
 20
238.3883521838748
 30
0.0
 41
0.7560000163615257
 42
0.7560000163615257
1001
ASKOBJSC
1000
1/5
1001
ASKDWGSC
1040
20.0
  0
TEXT
  5
2A99
330
1E
100
AcDbEntity
  8
TEXT_0
  6
Continuous
 62
     7
100
AcDbText
 10
274.8745717409116
 20
224.3715181483133
 30
0.0
 40
56.0
  1
・本製品は、(一社)日本公園施設業協会(ＪＰＦＡ)が定める賠償責任保険加入製品とする。
  7
STYLE1
100
AcDbText
  0
HATCH
  5
2AD2
330
1E
100
AcDbEntity
  8
0
  6
Continuous
 62
     3
100
AcDbHatch
 10
0.0
 20
0.0
 30
0.0
210
0.0
220
0.0
230
1.0
  2
BRICK
 70
     0
 71
     0
 91
        1
 92
        7
 72
     0
 73
     1
 93
       10
 10
3487.433492998905
 20
2371.468947562182
 10
3522.145347018428
 20
2341.284726675639
 10
3541.58733915277
 20
2324.37864655882
 10
3577.161993520816
 20
2324.37864655882
 10
3577.161993520815
 20
2424.37864655882
 10
2127.161993520815
 20
2424.37864655882
 10
2077.161993520815
 20
2424.37864655882
 10
2077.161993520815
 20
2324.37864655882
 10
3541.587339152773
 20
2324.37864655882
 10
3522.145347018447
 20
2341.284726675625
 97
        0
 75
     0
 76
     1
 52
45.0
 41
200.0
 77
     0
 78
     3
 53
45.0
 43
2077.161993520815
 44
2324.37864655882
 45
-35.35533905932737
 46
35.35533905932738
 79
     0
 53
135.0
 43
2077.161993520815
 44
2324.37864655882
 45
-70.71067811865476
 46
-70.71067811865474
 79
     2
 49
50.0
 49
-50.0
 53
135.0
 43
2112.517332580143
 44
2359.733985618147
 45
-70.71067811865476
 46
-70.71067811865474
 79
     2
 49
-50.0
 49
50.0
 47
1.789676428577743
 98
        1
 10
2672.799700649746
 20
2369.336606845018
1001
ACAD
1010
1418.366819212876
1020
2324.37864655882
1030
0.0
1001
ASKOBJSC
1000
1/5
1001
ASKDWGSC
1040
20.0
  0
LEADER
  5
2AD8
330
1E
100
AcDbEntity
  8
0
  6
DIMENSION
 62
     7
100
AcDbLeader
  3
ASKSTANDARD
 76
     3
 10
2247.000967293436
 20
2911.55162564384
 30
0.0
 10
2139.397537499208
 20
3054.372422261671
 30
0.0
 10
2000.042306123589
 20
3054.372422261671
 30
0.0
1001
ACAD
1000
DSTYLE
1002
{
1070
    41
1040
2.3
1070
    40
1040
20.0
1070
   176
1070
     3
1070
   341
1005
22
1002
}
1001
ASKOBJSC
1000
1/5
1001
ASKDWGSC
1040
20.0
  0
LEADER
  5
2AE2
330
1E
100
AcDbEntity
  8
0
  6
DIMENSION
 62
     7
100
AcDbLeader
  3
ASKSTANDARD
 76
     3
 10
2398.506646323563
 20
3319.56823773436
 30
0.0
 10
2506.110076117791
 20
3204.217974142937
 30
0.0
 10
2711.190046503878
 20
3204.217974142937
 30
0.0
211
-1.0
221
0.0
231
0.0
1001
ACAD
1000
DSTYLE
1002
{
1070
    41
1040
2.3
1070
    40
1040
20.0
1070
   176
1070
     3
1070
   341
1005
22
1002
}
1001
ASKOBJSC
1000
1/5
1001
ASKDWGSC
1040
20.0
  0
LEADER
  5
2AED
330
1E
100
AcDbEntity
  8
0
  6
DIMENSION
 62
     7
100
AcDbLeader
  3
ASKSTANDARD
 76
     3
 10
3303.826996290099
 20
3296.539324582989
 30
0.0
 10
3411.430426084327
 20
3402.902212522296
 30
0.0
 10
3793.1698346421
 20
3402.902212522296
 30
0.0
211
-1.0
221
0.0
231
0.0
1001
ACAD
1000
DSTYLE
1002
{
1070
    41
1040
2.3
1070
    40
1040
20.0
1070
   176
1070
     3
1070
   341
1005
22
1002
}
1001
ASKOBJSC
1000
1/5
1001
ASKDWGSC
1040
20.0
  0
LEADER
  5
2AF6
330
1E
100
AcDbEntity
  8
0
  6
DIMENSION
 62
     7
100
AcDbLeader
  3
ASKSTANDARD
 76
     3
 10
3362.227373473323
 20
2696.721206759721
 30
0.0
 10
3622.088380445159
 20
2960.903866151088
 30
0.0
 10
4308.353711187661
 20
2960.903866151088
 30
0.0
211
-1.0
221
0.0
231
0.0
1001
ACAD
1000
DSTYLE
1002
{
1070
    41
1040
2.3
1070
    40
1040
20.0
1070
   176
1070
     3
1070
   341
1005
22
1002
}
1001
ASKOBJSC
1000
1/5
1001
ASKDWGSC
1040
20.0
  0
LEADER
  5
2AFF
330
1E
100
AcDbEntity
  8
0
  6
DIMENSION
 62
     7
100
AcDbLeader
  3
ASKSTANDARD
 76
     3
 10
3327.161993520815
 20
2524.37864655882
 30
0.0
 10
3541.115915128514
 20
2729.286943030254
 30
0.0
 10
3970.424330342194
 20
2729.286943030254
 30
0.0
211
-1.0
221
0.0
231
0.0
1001
ACAD
1000
DSTYLE
1002
{
1070
    41
1040
2.3
1070
    40
1040
20.0
1070
   176
1070
     3
1070
   341
1005
22
1002
}
1001
ASKOBJSC
1000
1/5
1001
ASKDWGSC
1040
20.0
  0
LEADER
  5
2B08
330
1E
100
AcDbEntity
  8
0
  6
DIMENSION
 62
     7
100
AcDbLeader
  3
ASKSTANDARD
 76
     3
 10
3499.298258544198
 20
2577.089002713385
 30
0.0
 10
3713.252180151896
 20
2406.256040819024
 30
0.0
 10
4217.940511379562
 20
2406.256040819024
 30
0.0
211
-1.0
221
0.0
231
0.0
1001
ACAD
1000
DSTYLE
1002
{
1070
    41
1040
2.3
1070
    40
1040
20.0
1070
   176
1070
     3
1070
   341
1005
22
1002
}
1001
ASKOBJSC
1000
1/5
1001
ASKDWGSC
1040
20.0
  0
LEADER
  5
2B11
330
1E
100
AcDbEntity
  8
0
  6
DIMENSION
 62
     7
100
AcDbLeader
  3
ASKSTANDARD
 76
     3
 10
3515.918034888452
 20
2374.37864655882
 30
0.0
 10
3690.627830745714
 20
2241.64594850502
 30
0.0
 10
4170.306292939717
 20
2241.64594850502
 30
0.0
211
-1.0
221
0.0
231
0.0
1001
ACAD
1000
DSTYLE
1002
{
1070
    41
1040
2.3
1070
    40
1040
20.0
1070
   176
1070
     3
1070
   341
1005
22
1002
}
1001
ASKOBJSC
1000
1/5
1001
ASKDWGSC
1040
20.0
  0
HATCH
  5
2B6E
330
1E
100
AcDbEntity
  8
0
  6
Continuous
 62
     3
100
AcDbHatch
 10
0.0
 20
0.0
 30
0.0
210
0.0
220
0.0
230
1.0
  2
PLAST
 70
     0
 71
     0
 91
        5
 92
        7
 72
     1
 73
     1
 93
        6
 10
2294.661993520815
 20
2665.090543715497
 42
-0.2220203058033471
 10
2223.029212701884
 20
2818.458914117349
 42
-0.0369651088906623
 10
2225.209521040823
 20
2847.910053163623
 42
0.0
 10
2127.161993520815
 20
2824.37864655882
 42
0.0
 10
2127.161993520815
 20
2424.37864655882
 42
0.0
 10
2294.661993520815
 20
2424.37864655882
 42
0.0
 97
        0
 92
        7
 72
     1
 73
     1
 93
        5
 10
2294.661993520815
 20
2854.378646558822
 42
0.0
 10
2252.161993520815
 20
2854.378646558822
 42
0.0
 10
2225.209521040823
 20
2847.910053163624
 42
0.0369651088906629
 10
2223.029212701884
 20
2818.458914117349
 42
0.222020305803347
 10
2294.661993520815
 20
2665.090543715497
 42
0.0
 97
        0
 92
        7
 72
     1
 73
     1
 93
        6
 10
3294.661993520815
 20
2854.378646558822
 42
0.0
 10
2619.777205884363
 20
2854.378646558822
 42
-0.0451753099668611
 10
2623.029212701884
 20
2818.458914117349
 42
-0.5121206517361568
 10
2359.661993520815
 20
2628.762853184976
 42
0.0
 10
2359.661993520815
 20
2424.37864655882
 42
0.0
 10
3294.661993520815
 20
2424.37864655882
 42
0.0
 97
        0
 92
       23
 72
     1
 73
     1
 93
       18
 10
2495.282836994243
 20
2854.378646558821
 42
0.0
 10
2359.661993520815
 20
2854.378646558822
 42
0.0
 10
2359.661993520815
 20
2628.762853184976
 42
0.5121206517361568
 10
2623.029212701884
 20
2818.458914117349
 42
0.0451753099668611
 10
2619.777205884363
 20
2854.378646558822
 42
0.0
 10
2535.282836994243
 20
2854.378646558822
 42
0.0
 10
2535.282836994243
 20
2693.378646558791
 42
0.0
 10
2556.282836994243
 20
2693.378646558793
 42
0.0
 10
2556.282836994244
 20
2684.378646558793
 42
0.0
 10
2531.282836994244
 20
2684.378646558793
 42
-0.4142135623730951
 10
2526.282836994244
 20
2689.378646558793
 42
0.0
 10
2526.282836994243
 20
2854.378646558822
 42
0.0
 10
2504.282836994243
 20
2854.378646558822
 42
0.0
 10
2504.282836994244
 20
2689.378646558793
 42
-0.4142135623730951
 10
2499.282836994244
 20
2684.378646558793
 42
0.0
 10
2474.282836994244
 20
2684.378646558793
 42
0.0
 10
2474.282836994244
 20
2693.378646558793
 42
0.0
 10
2495.282836994243
 20
2693.378646558792
 42
0.0
 97
        0
 92
        7
 72
     0
 73
     1
 93
        5
 10
3527.161993520815
 20
2824.37864655882
 10
3402.161993520817
 20
2854.378646558821
 10
3359.661993520815
 20
2854.378646558822
 10
3359.661993520815
 20
2424.37864655882
 10
3527.161993520815
 20
2424.37864655882
 97
        0
 75
     0
 76
     1
 52
45.0
 41
1500.0
 77
     0
 78
     3
 53
45.0
 43
2127.161993520815
 44
2424.37864655882
 45
-265.1650429449553
 46
265.1650429449554
 79
     0
 53
45.0
 43
2094.016363152696
 44
2457.524276926939
 45
-265.1650429449553
 46
265.1650429449554
 79
     0
 53
45.0
 43
2060.870732784576
 44
2490.669907295058
 45
-265.1650429449553
 46
265.1650429449554
 79
     0
 47
1.397089158728352
 98
        5
 10
2203.656774542393
 20
2584.732264024717
 10
2257.977628390305
 20
2741.151153412893
 10
2431.292407314595
 20
2486.880912660175
 10
2408.929211682636
 20
2753.724947558503
 10
3422.26161277448
 20
2683.870490297517
1001
ACAD
1010
1468.366819212876
1020
2424.37864655882
1030
0.0
1001
ASKOBJSC
1000
1/5
1001
ASKDWGSC
1040
20.0
  0
LEADER
  5
2B7D
330
1E
100
AcDbEntity
  8
0
  6
DIMENSION
 62
     7
100
AcDbLeader
  3
ASKSTANDARD
 76
     3
 10
5501.621823072275
 20
3118.112435262957
 30
0.0
 10
5353.136513785852
 20
3299.63252970471
 30
0.0
 10
4917.426202548275
 20
3299.63252970471
 30
0.0
1001
ACAD
1000
DSTYLE
1002
{
1070
    41
1040
2.3
1070
    40
1040
20.0
1070
   176
1070
     3
1070
   341
1005
22
1002
}
1001
ASKOBJSC
1000
1/5
1001
ASKDWGSC
1040
20.0
  0
LEADER
  5
2B86
330
1E
100
AcDbEntity
  8
0
  6
DIMENSION
 62
     7
100
AcDbLeader
  3
ASKSTANDARD
 76
     3
 10
5460.518893662036
 20
2824.37864655882
 30
0.0
 10
5256.165083434218
 20
3098.68406134669
 30
0.0
 10
4820.454772196641
 20
3098.68406134669
 30
0.0
1001
ACAD
1000
DSTYLE
1002
{
1070
    41
1040
2.3
1070
    40
1040
20.0
1070
   176
1070
     3
1070
   341
1005
22
1002
}
1001
ASKOBJSC
1000
1/5
1001
ASKDWGSC
1040
20.0
  0
LEADER
  5
2B8F
330
1E
100
AcDbEntity
  8
0
  6
DIMENSION
 62
     7
100
AcDbLeader
  3
ASKSTANDARD
 76
     3
 10
5476.193997353141
 20
2745.934608999536
 30
0.0
 10
5271.840187125323
 20
2551.816545509328
 30
0.0
 10
4646.454962902542
 20
2551.816545509328
 30
0.0
1001
ACAD
1000
DSTYLE
1002
{
1070
    41
1040
2.3
1070
    40
1040
20.0
1070
   176
1070
     3
1070
   341
1005
22
1002
}
1001
ASKOBJSC
1000
1/5
1001
ASKDWGSC
1040
20.0
  0
LEADER
  5
2B98
330
1E
100
AcDbEntity
  8
0
  6
DIMENSION
 62
     7
100
AcDbLeader
  3
ASKSTANDARD
 76
     3
 10
5711.100682053155
 20
2923.626854444412
 30
0.0
 10
5818.704111847383
 20
3029.989742383719
 30
0.0
 10
6224.451857048698
 20
3029.989742383719
 30
0.0
211
-1.0
221
0.0
231
0.0
1001
ACAD
1000
DSTYLE
1002
{
1070
    41
1040
2.3
1070
    40
1040
20.0
1070
   176
1070
     3
1070
   341
1005
22
1002
}
1001
ASKOBJSC
1000
1/5
1001
ASKDWGSC
1040
20.0
  0
LEADER
  5
2BA1
330
1E
100
AcDbEntity
  8
0
  6
DIMENSION
 62
     7
100
AcDbLeader
  3
ASKSTANDARD
 76
     3
 10
5931.548050696125
 20
2535.153193579206
 30
0.0
 10
5640.247618849266
 20
2256.067633055287
 30
0.0
 10
5277.413775948484
 20
2256.067633055287
 30
0.0
1001
ACAD
1000
DSTYLE
1002
{
1070
    41
1040
2.3
1070
    40
1040
20.0
1070
   176
1070
     3
1070
   341
1005
22
1002
}
1001
ASKOBJSC
1000
1/5
1001
ASKDWGSC
1040
20.0
  0
HATCH
  5
2CC0
330
1E
100
AcDbEntity
  8
0
  6
Continuous
 62
     3
100
AcDbHatch
 10
0.0
 20
0.0
 30
0.0
210
0.0
220
0.0
230
1.0
  2
PLAST
 70
     0
 71
     0
 91
        2
 92
        7
 72
     0
 73
     1
 93
        4
 10
5460.518893662036
 20
2824.37864655882
 10
5124.389651815543
 20
2824.37864655882
 10
5124.389651815543
 20
2355.6161047528
 10
5460.518893662038
 20
2355.6161047528
 97
        0
 92
        7
 72
     1
 73
     1
 93
       18
 10
5861.760580608889
 20
2824.37864655882
 42
0.0
 10
5590.518893662036
 20
2824.37864655882
 42
0.0
 10
5590.518893662038
 20
2355.6161047528
 42
0.0
 10
6009.998193135291
 20
2355.6161047528
 42
0.0
 10
6009.998193135291
 20
2824.37864655882
 42
0.0
 10
5941.760580608889
 20
2824.37864655882
 42
0.0
 10
5941.760580608889
 20
2502.37864655876
 42
0.0
 10
5983.76058060889
 20
2502.378646558762
 42
0.0
 10
5983.76058060889
 20
2484.378646558764
 42
0.0
 10
5933.760580608891
 20
2484.378646558764
 42
-0.4142135623730921
 10
5923.760580608891
 20
2494.378646558764
 42
0.0
 10
5923.760580608889
 20
2824.37864655882
 42
0.0
 10
5879.760580608889
 20
2824.37864655882
 42
0.0
 10
5879.760580608891
 20
2494.378646558764
 42
-0.4142135623730974
 10
5869.760580608891
 20
2484.378646558764
 42
0.0
 10
5819.760580608891
 20
2484.378646558764
 42
0.0
 10
5819.76058060889
 20
2502.378646558764
 42
0.0
 10
5861.760580608888
 20
2502.378646558762
 42
0.0
 97
        0
 75
     0
 76
     1
 52
45.0
 41
1500.0
 77
     0
 78
     3
 53
45.0
 43
658.7951743079393
 44
0.0
 45
-265.1650429449553
 46
265.1650429449554
 79
     0
 53
45.0
 43
625.6495439398199
 44
33.14563036811942
 45
-265.1650429449553
 46
265.1650429449554
 79
     0
 53
45.0
 43
592.5039135717004
 44
66.29126073623884
 45
-265.1650429449553
 46
265.1650429449554
 79
     0
 47
3.200236837695937
 98
        2
 10
5332.982222136183
 20
2524.534594474844
 10
5672.433524965294
 20
2588.539341443124
1001
GradientColor1ACI
1070
     5
1001
GradientColor2ACI
1070
     2
1001
ACAD
1010
0.0
1020
0.0
1030
0.0
1001
ASKOBJSC
1000
1/5
1001
ASKDWGSC
1040
20.0
  0
TEXT
  5
2DAF
330
1E
100
AcDbEntity
  8
TEXT_0
  6
Continuous
 62
     7
100
AcDbText
 10
257.9096409166741
 20
536.4311361760849
 30
0.0
 40
60.0
  1
・基礎図は参考図とする。
  7
STYLE1
100
AcDbText
  0
ENDSEC
  0
SECTION
  2
OBJECTS
  0
DICTIONARY
  5
C
330
0
100
AcDbDictionary
281
     1
  3
ACAD_GROUP
350
D
  3
ACAD_LAYOUT
350
19
  3
ACAD_MLINESTYLE
350
16
  3
ACAD_PLOTSETTINGS
350
18
  3
ACAD_PLOTSTYLENAME
350
E
  3
ACAD_SCALELIST
350
2BE9
  3
AcAmCatalogState
350
28F4
  3
AcAsAppObject
350
287C
  3
ACASGREF_MASTER
350
28B3
  3
AcDbVariableDictionary
350
2843
  3
ACDMSYSVARMGR
350
2856
  3
ACGREF_MASTER
350
2850
  3
ACGREFACAD_MASTER
350
2879
  3
AcmDictionary
350
28EA
  3
ACME_BOM_MANAGER_NAME
350
2849
  3
ACME_COMMAND_HISTORY
350
2842
  3
ACME_SCOPE_NAME
350
2841
  3
ACMESTATEMGR
350
284E
  3
AcmeSysVarManager
350
2845
  3
AD_APPL
350
28D0
  3
AD_GREF_MODULE
350
28B1
  3
AD_HOLENOTE_REPOSITORY
350
28D2
  3
AD_MAPI_MODULE
350
28E9
  3
ADSYSVARMGR
350
28C2
  3
AmdtNamedDwgMgr
350
2874
  3
AMG
350
28B5
  3
AMGSNAPSETTINGS
350
2904
  3
AMI_MASTER
350
28B2
  3
APPDATA
350
2E45
  3
ASKSYSVAR
350
BEC
  3
ASURF_STATIC_VARS
350
287D
  3
AUTOCAD_ASSEMBLIES_PROJECT
350
28DE
  3
AutoSurf_SysVars
350
287E
  3
Designer_Assemblies_SysVars
350
28D5
  3
DWGPROPS
350
2E47
  3
GREFAM_MODULE
350
28B4
  0
DICTIONARY
  5
2A91
330
2
100
AcDbDictionary
280
     1
281
     1
  3
ACAD_LAYERSTATES
360
2A92
  0
DICTIONARY
  5
2C07
330
10
100
AcDbDictionary
280
     1
281
     1
  3
ADSK_XREC_LAYER_RECONCILED
360
2C08
  0
DICTIONARY
  5
2C09
330
40
100
AcDbDictionary
280
     1
281
     1
  3
ADSK_XREC_LAYER_RECONCILED
360
2C0A
  0
DICTIONARY
  5
2C0B
330
41
100
AcDbDictionary
280
     1
281
     1
  3
ADSK_XREC_LAYER_RECONCILED
360
2C0C
  0
DICTIONARY
  5
2C0D
330
42
100
AcDbDictionary
280
     1
281
     1
  3
ADSK_XREC_LAYER_RECONCILED
360
2C0E
  0
DICTIONARY
  5
2C0F
330
44
100
AcDbDictionary
280
     1
281
     1
  3
ADSK_XREC_LAYER_RECONCILED
360
2C10
  0
DICTIONARY
  5
2C11
330
45
100
AcDbDictionary
280
     1
281
     1
  3
ADSK_XREC_LAYER_RECONCILED
360
2C12
  0
DICTIONARY
  5
2C13
330
517
100
AcDbDictionary
280
     1
281
     1
  3
ADSK_XREC_LAYER_RECONCILED
360
2C14
  0
DICTIONARY
  5
2C15
330
518
100
AcDbDictionary
280
     1
281
     1
  3
ADSK_XREC_LAYER_RECONCILED
360
2C16
  0
DICTIONARY
  5
2C17
330
519
100
AcDbDictionary
280
     1
281
     1
  3
ADSK_XREC_LAYER_RECONCILED
360
2C18
  0
DICTIONARY
  5
2C19
330
51A
100
AcDbDictionary
280
     1
281
     1
  3
ADSK_XREC_LAYER_RECONCILED
360
2C1A
  0
DICTIONARY
  5
290C
330
1E
100
AcDbDictionary
280
     1
281
     1
  3
ACAD_INDEX
360
2DB1
  3
ACAD_SORTENTS
360
2AD3
  0
DICTIONARY
  5
D
102
{ACAD_REACTORS
330
C
102
}
330
C
100
AcDbDictionary
281
     1
  0
DICTIONARY
  5
19
102
{ACAD_REACTORS
330
C
102
}
330
C
100
AcDbDictionary
281
     1
  3
Model
350
21
  3
ﾚｲｱｳﾄ1
350
1D
  0
DICTIONARY
  5
16
102
{ACAD_REACTORS
330
C
102
}
330
C
100
AcDbDictionary
281
     1
  3
Standard
350
17
  0
DICTIONARY
  5
18
102
{ACAD_REACTORS
330
C
102
}
330
C
100
AcDbDictionary
281
     1
  0
ACDBDICTIONARYWDFLT
  5
E
102
{ACAD_REACTORS
330
C
102
}
330
C
100
AcDbDictionary
281
     1
  3
Normal
350
F
100
AcDbDictionaryWithDefault
340
F
  0
DICTIONARY
  5
2BE9
102
{ACAD_REACTORS
330
C
102
}
330
C
100
AcDbDictionary
281
     1
  3
A0
350
2BEA
  3
A1
350
2BEB
  3
A2
350
2BEC
  3
A3
350
2BED
  3
A4
350
2BEE
  3
A5
350
2BEF
  3
A6
350
2BF0
  3
A7
350
2BF1
  3
A8
350
2BF2
  3
A9
350
2BF3
  3
B0
350
2BF4
  3
B1
350
2BF5
  3
B2
350
2BF6
  3
B3
350
2BF7
  3
B4
350
2BF8
  3
B5
350
2BF9
  3
B6
350
2BFA
  0
ACAD_PROXY_OBJECT
  5
28F4
102
{ACAD_REACTORS
330
C
102
}
330
C
100
AcDbProxyObject
 90
      499
 91
      561
 95
   983063
 70
     0
 93
      568
310
3FFFFFFFE00A02844029D221D2E456DC729485DC6F647C54AABC7C0483ECB6547ABAE1819C1A3C1A741AC41B2C1C541A0C85DCAB4AE1818C76A473F416FAE4131C13B4133400AA
1001
ACAD
1000
AcRTDxfName
1000
CATALOGSTATE
1000
AcRTDxfName
1000
CATALOGSTATE
1000
AcRTDxfName
1000
CATALOGSTATE
1000
AcRTDxfName
1000
CATALOGSTATE
1000
AcRTDxfName
1000
CATALOGSTATE
1000
AcRTDxfName
1000
CATALOGSTATE
  0
ACAD_PROXY_OBJECT
  5
287C
102
{ACAD_REACTORS
330
C
102
}
330
C
100
AcDbProxyObject
 90
      499
 91
      527
 95
   983063
 70
     0
 93
       10
310
4040
1001
ACAD
1000
AcRTDxfName
1000
ASAPP
1000
AcRTDxfName
1000
ASAPP
1000
AcRTDxfName
1000
ASAPP
1000
AcRTDxfName
1000
ASAPP
1000
AcRTDxfName
1000
ASAPP
1000
AcRTDxfName
1000
ASAPP
  0
ACAD_PROXY_OBJECT
  5
28B3
102
{ACAD_REACTORS
330
C
102
}
330
C
100
AcDbProxyObject
 90
      499
 91
      535
 95
   983063
 70
     0
 93
       34
310
0100004040
1001
ACAD
1000
AcRTDxfName
1000
ACASGREFMASTER
1000
AcRTDxfName
1000
ACASGREFMASTER
1000
AcRTDxfName
1000
ACASGREFMASTER
1000
AcRTDxfName
1000
ACASGREFMASTER
1000
AcRTDxfName
1000
ACASGREFMASTER
1000
AcRTDxfName
1000
ACASGREFMASTER
  0
DICTIONARY
  5
2843
102
{ACAD_REACTORS
330
C
102
}
330
C
100
AcDbDictionary
281
     1
  3
DIMASSOC
350
2AA3
  3
INDEXCTL
350
2844
  3
PROJECTNAME
350
2AA4
  3
SORTENTS
350
2C5E
  0
ACAD_PROXY_OBJECT
  5
2856
102
{ACAD_REACTORS
330
C
102
}
330
C
100
AcDbProxyObject
 90
      499
 91
      507
 95
   983063
 70
     0
 93
      240
310
4C51A4820000000000000000000000000000000000000000000000000000
330
2857
330
2858
330
2859
330
285A
330
285B
330
285C
330
285D
330
285E
330
2862
330
2863
330
2864
330
2865
330
2866
330
2867
330
2868
330
2869
330
286A
330
286B
330
286C
330
286D
330
286E
330
286F
330
2870
330
2871
330
2872
330
2873
 94
        0
1001
ACAD
1000
AcRTDxfName
1000
ACIMSYSVARMAN
1000
AcRTDxfName
1000
ACIMSYSVARMAN
1000
AcRTDxfName
1000
ACIMSYSVARMAN
1000
AcRTDxfName
1000
ACIMSYSVARMAN
1000
AcRTDxfName
1000
ACIMSYSVARMAN
1000
AcRTDxfName
1000
ACIMSYSVARMAN
  0
ACAD_PROXY_OBJECT
  5
2850
102
{ACAD_REACTORS
330
C
102
}
330
C
100
AcDbProxyObject
 90
      499
 91
      516
 95
   983063
 70
     0
 93
       34
310
0400004280
1001
ACAD
1000
AcRTDxfName
1000
ACGREFMASTER
1000
AcRTDxfName
1000
ACGREFMASTER
1000
AcRTDxfName
1000
ACGREFMASTER
1000
AcRTDxfName
1000
ACGREFMASTER
1000
AcRTDxfName
1000
ACGREFMASTER
1000
AcRTDxfName
1000
ACGREFMASTER
  0
ACAD_PROXY_OBJECT
  5
2879
102
{ACAD_REACTORS
330
C
102
}
330
C
100
AcDbProxyObject
 90
      499
 91
      524
 95
   983063
 70
     0
 93
      114
310
04000041C000000000000000000000
1001
ACAD
1000
AcRTDxfName
1000
ACGREFMASTER
1000
AcRTDxfName
1000
ACGREFMASTER
1000
AcRTDxfName
1000
ACGREFMASTER
1000
AcRTDxfName
1000
ACGREFMASTER
1000
AcRTDxfName
1000
ACGREFMASTER
1000
AcRTDxfName
1000
ACGREFMASTER
  0
DICTIONARY
  5
28EA
102
{ACAD_REACTORS
330
C
102
}
330
C
100
AcDbDictionary
281
     1
  3
AcmBOMDATA
350
28EB
  0
ACAD_PROXY_OBJECT
  5
2849
102
{ACAD_REACTORS
330
C
102
}
330
C
100
AcDbProxyObject
 90
      499
 91
      510
 95
   983063
 70
     0
 93
       52
310
00000040400060
330
0
330
0
330
284A
 94
        0
1001
ACAD
1000
AcRTDxfName
1000
ACMEDRAWINGMAN
1000
AcRTDxfName
1000
ACMEDRAWINGMAN
1000
AcRTDxfName
1000
ACMEDRAWINGMAN
1000
AcRTDxfName
1000
ACMEDRAWINGMAN
1000
AcRTDxfName
1000
ACMEDRAWINGMAN
1000
AcRTDxfName
1000
ACMEDRAWINGMAN
  0
ACAD_PROXY_OBJECT
  5
2842
102
{ACAD_REACTORS
330
C
102
}
330
C
100
AcDbProxyObject
 90
      499
 91
      505
 95
   983063
 70
     0
 93
     5864
310
478050841534B5F4D4F564540C05084E202D20554E444F014213880B481353D591405084E202D20554E444F01429054D2D7D15615115391104014293880B48115615115391005224D5347202D202020204E657374656420636F6D6D616E642043414E43454C4C45442E014293880B48115615115391005224D5347202D2020
310
20204E657374656420636F6D6D616E642043414E43454C4C45442E01421054D2D7D353D591503014213880B4815539113C05084E202D204D4F5645014213880B4815539113C050A41534B5F455854454E44410050A4E202D20455854454E4401489354D1C80B4808080813995CDD19590818DBDB5B585B990810D05390D153
310
1311510B8050A4E202D20455854454E4401489354D1C80B4808080813995CDD19590818DBDB5B585B990810D05390D1531311510B8050A41534B5F5442334A6F62805045A4F4F4D8050C41534B5F54455854454449548050841534B5F534156458050653415645415340405184D5347202D20436F6D6D616E642043414E434
310
54C4C45442E01421054D2D7D3D41153A01431054D2D7D353D59155115615102014213880B4815539113C05084E202D20554E444F01431054D2D7D5115615115112552014154155491D1601431054D2D7D511561511511255201411693D3D3601421054D2D7D353D591503014213880B4815539113C05084E202D204D4F5645
310
014213880B4815539113C050A41534B5F5442334A6F62805045A4F4F4D8050941534B5F51534156458050551534156458050C41534B5F54455854454449548050841534B5F53415645805065341564541538050545524153458050841534B5F4D4F564541005084E202D20554E444F014213880B481353D591405084E202D2
310
04D4F5645014213880B4815539113C050841534B5F4D4F564540C05084E202D20554E444F014213880B481353D591405084E202D20554E444F01431054D2D7D5115615115112552014151549054D1601425054D2D7D454D05591601415454D055916
1001
ACAD
1000
AcRTDxfName
1000
ACMECOMMANDHISTORY
1000
AcRTDxfName
1000
ACMECOMMANDHISTORY
1000
AcRTDxfName
1000
ACMECOMMANDHISTORY
1000
AcRTDxfName
1000
ACMECOMMANDHISTORY
1000
AcRTDxfName
1000
ACMECOMMANDHISTORY
1000
AcRTDxfName
1000
ACMECOMMANDHISTORY
  0
ACAD_PROXY_OBJECT
  5
2841
102
{ACAD_REACTORS
330
C
102
}
330
C
100
AcDbProxyObject
 90
      499
 91
      504
 95
   983063
 70
     0
 93
     1074
310
04000043C00000000000000000001726020000000000000000000000000000000000000000000000000000000000000000000000000000000000000000000000000000000000000000000000000000000000000000000000000000000000000000000000000000000000000000000000000000000000000000000000000000
310
00000000AAAAAA80
360
2846
360
2847
360
2848
360
284A
360
2851
360
2852
360
2853
360
2854
360
2857
360
2858
360
2859
360
285A
360
285B
360
285C
360
285D
360
285E
360
2862
360
2863
360
2864
360
2865
360
2866
360
2867
360
2868
360
2869
360
286A
360
286B
360
286C
360
286D
360
286E
360
286F
360
2870
360
2871
360
2872
360
2873
360
287F
360
2880
360
2881
360
2882
360
2883
360
2884
360
2885
360
2886
360
2887
360
2888
360
2889
360
288A
360
288B
360
288C
360
288D
360
288E
360
288F
360
2890
360
2891
360
2892
360
2893
360
2894
360
2895
360
2896
360
2897
360
2898
360
2899
360
289A
360
289B
360
289C
360
289D
360
289E
360
289F
360
28A0
360
28A1
360
28A2
360
28A3
360
28A4
360
28A5
360
28A6
360
28A7
360
28A8
360
28A9
360
28AA
360
28AB
360
28AC
360
28AD
360
28BE
360
28BF
360
28C0
360
28C1
360
28C3
360
28C4
360
28C5
360
28C6
360
28C7
360
28C8
360
28C9
360
28CA
360
28CB
360
28CC
360
28CD
360
28CE
360
28CF
360
28D1
360
28D3
360
28D6
360
28D7
360
28D8
360
28D9
360
28DA
360
28DB
360
28DC
360
28DD
360
28E2
360
28E3
360
28E4
360
28E5
360
28E6
360
28E7
 94
        0
1001
ACAD
1000
AcRTDxfName
1000
ACMESCOPE
1000
AcRTDxfName
1000
ACMESCOPE
1000
AcRTDxfName
1000
ACMESCOPE
1000
AcRTDxfName
1000
ACMESCOPE
1000
AcRTDxfName
1000
ACMESCOPE
1000
AcRTDxfName
1000
ACMESCOPE
  0
ACAD_PROXY_OBJECT
  5
284E
102
{ACAD_REACTORS
330
C
102
}
330
C
100
AcDbProxyObject
 90
      499
 91
      515
 95
   983063
 70
     0
 93
       50
310
04000040E41280
1001
ACAD
1000
AcRTDxfName
1000
ACMESTATEMGR
1000
AcRTDxfName
1000
ACMESTATEMGR
1000
AcRTDxfName
1000
ACMESTATEMGR
1000
AcRTDxfName
1000
ACMESTATEMGR
1000
AcRTDxfName
1000
ACMESTATEMGR
1000
AcRTDxfName
1000
ACMESTATEMGR
  0
ACAD_PROXY_OBJECT
  5
2845
102
{ACAD_REACTORS
330
C
102
}
330
C
100
AcDbProxyObject
 90
      499
 91
      507
 95
   983063
 70
     0
 93
       48
310
903422000000
330
2846
330
2847
330
2848
 94
        0
1001
ACAD
1000
AcRTDxfName
1000
ACIMSYSVARMAN
1000
AcRTDxfName
1000
ACIMSYSVARMAN
1000
AcRTDxfName
1000
ACIMSYSVARMAN
1000
AcRTDxfName
1000
ACIMSYSVARMAN
1000
AcRTDxfName
1000
ACIMSYSVARMAN
1000
AcRTDxfName
1000
ACIMSYSVARMAN
  0
ACAD_PROXY_OBJECT
  5
28D0
102
{ACAD_REACTORS
330
C
102
}
330
C
100
AcDbProxyObject
 90
      499
 91
      544
 95
   983063
 70
     0
 93
       42
310
000400004500
330
28BE
 94
        0
1001
ACAD
1000
AcRTDxfName
1000
NAMEDAPPL
1000
AcRTDxfName
1000
NAMEDAPPL
1000
AcRTDxfName
1000
NAMEDAPPL
1000
AcRTDxfName
1000
NAMEDAPPL
1000
AcRTDxfName
1000
NAMEDAPPL
1000
AcRTDxfName
1000
NAMEDAPPL
  0
ACAD_PROXY_OBJECT
  5
28B1
102
{ACAD_REACTORS
330
C
102
}
330
C
100
AcDbProxyObject
 90
      499
 91
      533
 95
   983063
 70
     0
 93
      114
310
000000438000000000000000000000
1001
ACAD
1000
AcRTDxfName
1000
ACADGREFMODULE
1000
AcRTDxfName
1000
ACADGREFMODULE
1000
AcRTDxfName
1000
ACADGREFMODULE
1000
AcRTDxfName
1000
ACADGREFMODULE
1000
AcRTDxfName
1000
ACADGREFMODULE
1000
AcRTDxfName
1000
ACADGREFMODULE
  0
ACAD_PROXY_OBJECT
  5
28D2
102
{ACAD_REACTORS
330
C
102
}
330
C
100
AcDbProxyObject
 90
      499
 91
      546
 95
   983063
 70
     0
 93
        8
310
00
330
28D1
 94
        0
1001
ACAD
1000
AcRTDxfName
1000
AM_HNTEMPLATE_MGR_NAME
1000
AcRTDxfName
1000
AM_HNTEMPLATE_MGR_NAME
1000
AcRTDxfName
1000
AM_HNTEMPLATE_MGR_NAME
1000
AcRTDxfName
1000
AM_HNTEMPLATE_MGR_NAME
1000
AcRTDxfName
1000
AM_HNTEMPLATE_MGR_NAME
1000
AcRTDxfName
1000
AM_HNTEMPLATE_MGR_NAME
  0
ACAD_PROXY_OBJECT
  5
28E9
102
{ACAD_REACTORS
330
C
102
}
330
C
100
AcDbProxyObject
 90
      499
 91
      555
 95
   983063
 70
     0
 93
       34
310
0400004440
1001
ACAD
1000
AcRTDxfName
1000
MAPIADMODULE
1000
AcRTDxfName
1000
MAPIADMODULE
1000
AcRTDxfName
1000
MAPIADMODULE
1000
AcRTDxfName
1000
MAPIADMODULE
1000
AcRTDxfName
1000
MAPIADMODULE
1000
AcRTDxfName
1000
MAPIADMODULE
  0
ACAD_PROXY_OBJECT
  5
28C2
102
{ACAD_REACTORS
330
C
102
}
330
C
100
AcDbProxyObject
 90
      499
 91
      507
 95
   983063
 70
     0
 93
      136
310
90E4420000000000000000000000000000
330
28C3
330
28C4
330
28C5
330
28C6
330
28C7
330
28C8
330
28C9
330
28CA
330
28CB
330
28CC
330
28CD
330
28CE
330
28CF
330
28D3
 94
        0
1001
ACAD
1000
AcRTDxfName
1000
ACIMSYSVARMAN
1000
AcRTDxfName
1000
ACIMSYSVARMAN
1000
AcRTDxfName
1000
ACIMSYSVARMAN
1000
AcRTDxfName
1000
ACIMSYSVARMAN
1000
AcRTDxfName
1000
ACIMSYSVARMAN
1000
AcRTDxfName
1000
ACIMSYSVARMAN
  0
ACAD_PROXY_OBJECT
  5
2874
102
{ACAD_REACTORS
330
C
102
}
330
C
100
AcDbProxyObject
 90
      499
 91
      521
 95
   983063
 70
     0
 93
       42
310
000100004FC0
330
2851
 94
        0
1001
ACAD
1000
AcRTDxfName
1000
AM_DWGMGR_NAME
1000
AcRTDxfName
1000
AM_DWGMGR_NAME
1000
AcRTDxfName
1000
AM_DWGMGR_NAME
1000
AcRTDxfName
1000
AM_DWGMGR_NAME
1000
AcRTDxfName
1000
AM_DWGMGR_NAME
1000
AcRTDxfName
1000
AM_DWGMGR_NAME
  0
DICTIONARY
  5
28B5
102
{ACAD_REACTORS
330
C
102
}
330
C
100
AcDbDictionary
281
     1
  3
AcMgSettings
350
28B6
  3
AMGLAYCFG
350
28F6
  0
DICTIONARY
  5
2904
102
{ACAD_REACTORS
330
C
102
}
330
C
100
AcDbDictionary
281
     1
  3
DIMENSION
350
2909
  3
FEA
350
2908
  3
HATCH (1)
350
2905
  3
HATCH (2)
350
2906
  3
SYMBOLS
350
2907
  0
ACAD_PROXY_OBJECT
  5
28B2
102
{ACAD_REACTORS
330
C
102
}
330
C
100
AcDbProxyObject
 90
      499
 91
      534
 95
   983063
 70
     0
 93
       34
310
0400004180
1001
ACAD
1000
AcRTDxfName
1000
AMIMASTER
1000
AcRTDxfName
1000
AMIMASTER
1000
AcRTDxfName
1000
AMIMASTER
1000
AcRTDxfName
1000
AMIMASTER
1000
AcRTDxfName
1000
AMIMASTER
1000
AcRTDxfName
1000
AMIMASTER
  0
DICTIONARY
  5
2E45
102
{ACAD_REACTORS
330
C
102
}
330
C
100
AcDbDictionary
281
     1
  0
DICTIONARY
  5
BEC
102
{ACAD_REACTORS
330
C
102
}
330
C
100
AcDbDictionary
281
     1
  3
ASK_SUMMARY
350
2A9A
  3
ASKCURSC
350
BED
  0
ACAD_PROXY_OBJECT
  5
287D
102
{ACAD_REACTORS
330
C
102
}
330
C
100
AcDbProxyObject
 90
      499
 91
      528
 95
   983063
 70
     0
 93
      272
310
4C51E482000000000000000000000000000000000000000000000000000000000000
330
2890
330
2891
330
2892
330
2893
330
2894
330
2895
330
2896
330
2897
330
2898
330
2899
330
289A
330
289B
330
289C
330
289D
330
289E
330
289F
330
28A0
330
28A1
330
28A2
330
28A3
330
28A4
330
28A5
330
28A6
330
28A7
330
28A8
330
28A9
330
28AA
330
28AB
330
28AC
330
28AD
 94
        0
1001
ACAD
1000
AcRTDxfName
1000
IM_STATIC_MAN
1000
AcRTDxfName
1000
IM_STATIC_MAN
1000
AcRTDxfName
1000
IM_STATIC_MAN
1000
AcRTDxfName
1000
IM_STATIC_MAN
1000
AcRTDxfName
1000
IM_STATIC_MAN
1000
AcRTDxfName
1000
IM_STATIC_MAN
  0
ACAD_PROXY_OBJECT
  5
28DE
102
{ACAD_REACTORS
330
C
102
}
330
C
100
AcDbProxyObject
 90
      499
 91
      548
 95
   983063
 70
     0
 93
       74
310
04000048400000000000
330
28E5
330
0
330
28E6
330
0
330
0
 94
        0
1001
ACAD
1000
AcRTDxfName
1000
ACAMPROJECT
1000
AcRTDxfName
1000
ACAMPROJECT
1000
AcRTDxfName
1000
ACAMPROJECT
1000
AcRTDxfName
1000
ACAMPROJECT
1000
AcRTDxfName
1000
ACAMPROJECT
1000
AcRTDxfName
1000
ACAMPROJECT
  0
ACAD_PROXY_OBJECT
  5
287E
102
{ACAD_REACTORS
330
C
102
}
330
C
100
AcDbProxyObject
 90
      499
 91
      507
 95
   983063
 70
     0
 93
      168
310
4C5114820000000000000000000000000000000000
330
287F
330
2880
330
2881
330
2882
330
2883
330
2884
330
2885
330
2886
330
2887
330
2888
330
2889
330
288A
330
288B
330
288C
330
288D
330
288E
330
288F
 94
        0
1001
ACAD
1000
AcRTDxfName
1000
ACIMSYSVARMAN
1000
AcRTDxfName
1000
ACIMSYSVARMAN
1000
AcRTDxfName
1000
ACIMSYSVARMAN
1000
AcRTDxfName
1000
ACIMSYSVARMAN
1000
AcRTDxfName
1000
ACIMSYSVARMAN
1000
AcRTDxfName
1000
ACIMSYSVARMAN
  0
ACAD_PROXY_OBJECT
  5
28D5
102
{ACAD_REACTORS
330
C
102
}
330
C
100
AcDbProxyObject
 90
      499
 91
      507
 95
   983063
 70
     0
 93
       88
310
9084220000000000000000
330
28D6
330
28D7
330
28D8
330
28D9
330
28DA
330
28DB
330
28DC
330
28DD
 94
        0
1001
ACAD
1000
AcRTDxfName
1000
ACIMSYSVARMAN
1000
AcRTDxfName
1000
ACIMSYSVARMAN
1000
AcRTDxfName
1000
ACIMSYSVARMAN
1000
AcRTDxfName
1000
ACIMSYSVARMAN
1000
AcRTDxfName
1000
ACIMSYSVARMAN
1000
AcRTDxfName
1000
ACIMSYSVARMAN
  0
XRECORD
  5
2E47
102
{ACAD_REACTORS
330
C
102
}
330
C
100
AcDbXrecord
280
     1
  1
DWGPROPS COOKIE
  2

  3

  4

  6

  7

  8
CAD01
  9

300
AmdtFileType=84
301
=
302
=
303
=
304
=
305
=
306
=
307
=
308
=
309
=
 40
0.0
 41
2449288.259768519
 42
2458697.236542662
  1

 90
        1
  0
ACAD_PROXY_OBJECT
  5
28B4
102
{ACAD_REACTORS
330
C
102
}
330
C
100
AcDbProxyObject
 90
      499
 91
      536
 95
   983063
 70
     0
 93
        8
310
02
1001
ACAD
1000
AcRTDxfName
1000
MAPIAMMOUDLE
1000
AcRTDxfName
1000
MAPIAMMOUDLE
1000
AcRTDxfName
1000
MAPIAMMOUDLE
1000
AcRTDxfName
1000
MAPIAMMOUDLE
1000
AcRTDxfName
1000
MAPIAMMOUDLE
1000
AcRTDxfName
1000
MAPIAMMOUDLE
  0
DICTIONARY
  5
2A92
102
{ACAD_REACTORS
330
2A91
102
}
330
2A91
100
AcDbDictionary
281
     1
  0
XRECORD
  5
2C08
102
{ACAD_REACTORS
330
2C07
102
}
330
2C07
100
AcDbXrecord
280
     1
290
     1
  0
XRECORD
  5
2C0A
102
{ACAD_REACTORS
330
2C09
102
}
330
2C09
100
AcDbXrecord
280
     1
290
     1
  0
XRECORD
  5
2C0C
102
{ACAD_REACTORS
330
2C0B
102
}
330
2C0B
100
AcDbXrecord
280
     1
290
     1
  0
XRECORD
  5
2C0E
102
{ACAD_REACTORS
330
2C0D
102
}
330
2C0D
100
AcDbXrecord
280
     1
290
     1
  0
XRECORD
  5
2C10
102
{ACAD_REACTORS
330
2C0F
102
}
330
2C0F
100
AcDbXrecord
280
     1
290
     1
  0
XRECORD
  5
2C12
102
{ACAD_REACTORS
330
2C11
102
}
330
2C11
100
AcDbXrecord
280
     1
290
     1
  0
XRECORD
  5
2C14
102
{ACAD_REACTORS
330
2C13
102
}
330
2C13
100
AcDbXrecord
280
     1
290
     1
  0
XRECORD
  5
2C16
102
{ACAD_REACTORS
330
2C15
102
}
330
2C15
100
AcDbXrecord
280
     1
290
     1
  0
XRECORD
  5
2C18
102
{ACAD_REACTORS
330
2C17
102
}
330
2C17
100
AcDbXrecord
280
     1
290
     1
  0
XRECORD
  5
2C1A
102
{ACAD_REACTORS
330
2C19
102
}
330
2C19
100
AcDbXrecord
280
     1
290
     1
  0
DICTIONARY
  5
2DB1
102
{ACAD_REACTORS
330
290C
102
}
330
290C
100
AcDbDictionary
281
     1
  3
*A1
350
2DB2
  0
SORTENTSTABLE
  5
2AD3
102
{ACAD_REACTORS
330
290C
102
}
330
290C
100
AcDbSortentsTable
330
1E
331
235
  5
235
331
2EA
  5
2EA
331
2EC
  5
2EC
331
4E5
  5
4E5
331
4E9
  5
4E9
331
4EA
  5
4EA
331
4F2
  5
4F2
331
57E
  5
57E
331
57F
  5
57F
331
580
  5
580
331
581
  5
581
331
582
  5
582
331
583
  5
583
331
584
  5
584
331
585
  5
585
331
586
  5
586
331
587
  5
587
331
588
  5
588
331
589
  5
589
331
58A
  5
58A
331
58B
  5
58B
331
58C
  5
58C
331
58D
  5
58D
331
58E
  5
58E
331
58F
  5
58F
331
590
  5
590
331
591
  5
591
331
592
  5
592
331
593
  5
593
331
594
  5
594
331
595
  5
595
331
596
  5
596
331
597
  5
597
331
598
  5
598
331
599
  5
599
331
59A
  5
59A
331
59B
  5
59B
331
59C
  5
59C
331
59D
  5
59D
331
59E
  5
59E
331
59F
  5
59F
331
5A0
  5
5A0
331
5A1
  5
5A1
331
5A2
  5
5A2
331
5A3
  5
5A3
331
5A4
  5
5A4
331
5A5
  5
5A5
331
5A6
  5
5A6
331
5A7
  5
5A7
331
5A8
  5
5A8
331
5A9
  5
5A9
331
5AA
  5
5AA
331
5AB
  5
5AB
331
5AC
  5
5AC
331
5AD
  5
5AD
331
5AE
  5
5AE
331
5AF
  5
5AF
331
5B0
  5
5B0
331
5B1
  5
5B1
331
5B2
  5
5B2
331
5B3
  5
5B3
331
5B4
  5
5B4
331
5B5
  5
5B5
331
5B6
  5
5B6
331
5B7
  5
5B7
331
5B8
  5
5B8
331
5B9
  5
5B9
331
5BA
  5
5BA
331
5BB
  5
5BB
331
5BC
  5
5BC
331
5BD
  5
5BD
331
5BE
  5
5BE
331
5BF
  5
5BF
331
5C0
  5
5C0
331
5C1
  5
5C1
331
5C2
  5
5C2
331
5C3
  5
5C3
331
5C4
  5
5C4
331
5C5
  5
5C5
331
5C6
  5
5C6
331
5C7
  5
5C7
331
5C8
  5
5C8
331
5C9
  5
5C9
331
5CA
  5
5CA
331
5CB
  5
5CB
331
5CC
  5
5CC
331
5CD
  5
5CD
331
5CE
  5
5CE
331
5CF
  5
5CF
331
5D0
  5
5D0
331
5D2
  5
5D2
331
C98
  5
C98
331
23F7
  5
23F7
331
23F8
  5
23F8
331
23F9
  5
23F9
331
23FA
  5
23FA
331
23FF
  5
23FF
331
2400
  5
2400
331
2401
  5
2401
331
2402
  5
2402
331
2403
  5
2404
331
2404
  5
2405
331
2405
  5
240C
331
240C
  5
240D
331
240D
  5
240F
331
240E
  5
2410
331
240F
  5
2414
331
2410
  5
2416
331
2415
  5
2417
331
2416
  5
2418
331
2417
  5
2419
331
2418
  5
241A
331
2419
  5
241B
331
241A
  5
241C
331
241B
  5
2425
331
241C
  5
242C
331
2425
  5
242D
331
242C
  5
2430
331
242D
  5
2431
331
242F
  5
2432
331
2430
  5
2433
331
2431
  5
2437
331
2432
  5
2438
331
2433
  5
2439
331
2437
  5
2441
331
2438
  5
2445
331
243D
  5
244B
331
2440
  5
244C
331
2444
  5
244D
331
244A
  5
244E
331
244B
  5
244F
331
244C
  5
2450
331
244D
  5
2451
331
244E
  5
2452
331
244F
  5
2459
331
2450
  5
245A
331
2451
  5
245B
331
2458
  5
245C
331
2459
  5
245D
331
245A
  5
245E
331
245B
  5
245F
331
245C
  5
2460
331
245D
  5
2461
331
245E
  5
2462
331
245F
  5
2463
331
2460
  5
2464
331
2461
  5
2465
331
2462
  5
2466
331
2463
  5
2467
331
2464
  5
2468
331
2465
  5
2469
331
2466
  5
246D
331
2467
  5
2471
331
2468
  5
2472
331
2469
  5
2473
331
246D
  5
2474
331
2471
  5
2475
331
2472
  5
2476
331
2473
  5
2486
331
2474
  5
2487
331
2475
  5
248A
331
2476
  5
248B
331
2486
  5
248E
331
2487
  5
2496
331
248A
  5
2498
331
248B
  5
24A8
331
2495
  5
24C4
331
2497
  5
24C5
331
249B
  5
24C6
331
24A8
  5
24C7
331
24C3
  5
24C8
331
24C4
  5
24C9
331
24C5
  5
24CA
331
24C6
  5
24CB
331
24C7
  5
24CC
331
24C8
  5
24CD
331
24C9
  5
24CE
331
24CA
  5
24CF
331
24CB
  5
24D0
331
24CC
  5
24D1
331
24CD
  5
24D2
331
24CE
  5
24D3
331
24CF
  5
24D4
331
24D0
  5
24D5
331
24D1
  5
24D6
331
24D2
  5
24D7
331
24D3
  5
24D8
331
24D4
  5
24D9
331
24D5
  5
24DA
331
24D6
  5
24DB
331
24D7
  5
24DC
331
24D8
  5
24DD
331
24D9
  5
24DE
331
24DA
  5
24DF
331
24DB
  5
24E0
331
24DC
  5
24E1
331
24DD
  5
24E2
331
24DE
  5
24E3
331
24DF
  5
24E4
331
24E0
  5
24E5
331
24E1
  5
24E6
331
24E2
  5
24E7
331
24E3
  5
24E8
331
24E4
  5
24E9
331
24E5
  5
2509
331
24E6
  5
250A
331
24E7
  5
250B
331
24E8
  5
250C
331
24E9
  5
250D
331
2509
  5
250E
331
250A
  5
250F
331
250B
  5
2510
331
250C
  5
2511
331
250D
  5
2512
331
250E
  5
2513
331
250F
  5
2514
331
2510
  5
2515
331
2511
  5
2516
331
2512
  5
2517
331
2513
  5
2518
331
2514
  5
2519
331
2515
  5
251A
331
2516
  5
251B
331
2517
  5
251C
331
2518
  5
251D
331
2519
  5
251E
331
251A
  5
251F
331
251B
  5
2520
331
251C
  5
2521
331
251D
  5
2522
331
251E
  5
2523
331
251F
  5
2524
331
2520
  5
2525
331
2521
  5
2526
331
2522
  5
2527
331
2523
  5
2528
331
2524
  5
2529
331
2525
  5
252A
331
2526
  5
252B
331
2527
  5
252C
331
2528
  5
252D
331
2529
  5
252E
331
252A
  5
252F
331
252B
  5
2530
331
252C
  5
2531
331
252D
  5
2532
331
252E
  5
2533
331
252F
  5
2534
331
2530
  5
2535
331
2531
  5
2536
331
2532
  5
2537
331
2533
  5
2538
331
2534
  5
2539
331
2535
  5
253A
331
2536
  5
253B
331
2537
  5
253C
331
2538
  5
253D
331
2539
  5
253E
331
253A
  5
253F
331
253B
  5
2540
331
253C
  5
2541
331
253D
  5
2542
331
253E
  5
2543
331
253F
  5
2544
331
2540
  5
2545
331
2541
  5
2546
331
2542
  5
2833
331
2543
  5
2834
331
2544
  5
2A99
331
2545
  5
2AAE
331
2546
  5
2AD8
331
2833
  5
2AE2
331
2834
  5
2AED
331
2A99
  5
2AF6
331
2AD2
  5
24A9
331
2AD8
  5
2AFF
331
2AE2
  5
2B08
331
2AED
  5
2B11
331
2AF6
  5
2B20
331
2AFF
  5
2B7D
331
2B08
  5
2B86
331
2B11
  5
2B8F
331
2B6E
  5
2403
331
2B7D
  5
2B98
331
2B86
  5
2BA1
331
2B8F
  5
2C6B
331
2B98
  5
2C6C
331
2BA1
  5
2C6D
331
2CC0
  5
242F
  0
LAYOUT
  5
21
102
{ACAD_REACTORS
330
19
102
}
330
19
100
AcDbPlotSettings
  1

  2
\\CAD_SERVER\LP-8200
  4
A3
  6
V0
 40
5.873749732971191
 41
6.043089866638184
 42
5.789093017578125
 43
5.873748779296875
 44
296.9259948730469
 45
420.1159973144531
 46
1.56
 47
4.6
 48
92.98978356082443
 49
201.7165605095527
140
8072.989783560826
141
5844.716560509552
142
1.0
143
20.0
 70
 11956
 72
     1
 73
     1
 74
     4
  7
モノクロ.ctb
 75
    22
147
0.05
148
-92.98978356082443
149
-201.7165605095527
100
AcDbLayout
  1
Model
 70
     1
 71
     0
 10
0.0
 20
0.0
 11
12.0
 21
9.0
 12
0.0
 22
0.0
 32
0.0
 14
0.0
 24
0.0
 34
0.0
 15
0.0
 25
0.0
 35
0.0
146
0.0
 13
0.0
 23
0.0
 33
0.0
 16
1.0
 26
0.0
 36
0.0
 17
0.0
 27
1.0
 37
0.0
 76
     0
330
1E
331
2BB0
  0
LAYOUT
  5
1D
102
{ACAD_REACTORS
330
19
102
}
330
19
100
AcDbPlotSettings
  1

  2
\\CAD_SERVER\LP-8200
  4

  6

 40
0.0
 41
0.0
 42
0.0
 43
0.0
 44
0.0
 45
0.0
 46
0.0
 47
0.0
 48
0.0
 49
0.0
140
0.0
141
0.0
142
1.0
143
1.0
 70
   688
 72
     0
 73
     0
 74
     5
  7
モノクロ.ctb
 75
    16
147
1.0
148
0.0
149
0.0
100
AcDbLayout
  1
ﾚｲｱｳﾄ1
 70
     0
 71
     1
 10
0.0
 20
0.0
 11
12.0
 21
9.0
 12
0.0
 22
0.0
 32
0.0
 14
1.000000000000000E+20
 24
1.000000000000000E+20
 34
1.000000000000000E+20
 15
-1.000000000000000E+20
 25
-1.000000000000000E+20
 35
-1.000000000000000E+20
146
0.0
 13
0.0
 23
0.0
 33
0.0
 16
1.0
 26
0.0
 36
0.0
 17
0.0
 27
1.0
 37
0.0
 76
     0
330
1A
  0
MLINESTYLE
  5
17
102
{ACAD_REACTORS
330
16
102
}
330
16
100
AcDbMlineStyle
  2
STANDARD
 70
     0
  3

 62
   256
 51
90.0
 52
90.0
 71
     2
 49
0.5
 62
   256
  6
BYLAYER
 49
-0.5
 62
   256
  6
BYLAYER
  0
ACDBPLACEHOLDER
  5
F
102
{ACAD_REACTORS
330
E
102
}
330
E
  0
SCALE
  5
2BEA
102
{ACAD_REACTORS
330
2BE9
102
}
330
2BE9
100
AcDbScale
 70
     0
300
1:1
140
1.0
141
1.0
290
     1
  0
SCALE
  5
2BEB
102
{ACAD_REACTORS
330
2BE9
102
}
330
2BE9
100
AcDbScale
 70
     0
300
1/128" = 1'-0"
140
0.0078125
141
12.0
290
     0
  0
SCALE
  5
2BEC
102
{ACAD_REACTORS
330
2BE9
102
}
330
2BE9
100
AcDbScale
 70
     0
300
1/64" = 1'-0"
140
0.015625
141
12.0
290
     0
  0
SCALE
  5
2BED
102
{ACAD_REACTORS
330
2BE9
102
}
330
2BE9
100
AcDbScale
 70
     0
300
1/32" = 1'-0"
140
0.03125
141
12.0
290
     0
  0
SCALE
  5
2BEE
102
{ACAD_REACTORS
330
2BE9
102
}
330
2BE9
100
AcDbScale
 70
     0
300
1/16" = 1'-0"
140
0.0625
141
12.0
290
     0
  0
SCALE
  5
2BEF
102
{ACAD_REACTORS
330
2BE9
102
}
330
2BE9
100
AcDbScale
 70
     0
300
3/32" = 1'-0"
140
0.09375
141
12.0
290
     0
  0
SCALE
  5
2BF0
102
{ACAD_REACTORS
330
2BE9
102
}
330
2BE9
100
AcDbScale
 70
     0
300
1/8" = 1'-0"
140
0.125
141
12.0
290
     0
  0
SCALE
  5
2BF1
102
{ACAD_REACTORS
330
2BE9
102
}
330
2BE9
100
AcDbScale
 70
     0
300
3/16" = 1'-0"
140
0.1875
141
12.0
290
     0
  0
SCALE
  5
2BF2
102
{ACAD_REACTORS
330
2BE9
102
}
330
2BE9
100
AcDbScale
 70
     0
300
1/4" = 1'-0"
140
0.25
141
12.0
290
     0
  0
SCALE
  5
2BF3
102
{ACAD_REACTORS
330
2BE9
102
}
330
2BE9
100
AcDbScale
 70
     0
300
3/8" = 1'-0"
140
0.375
141
12.0
290
     0
  0
SCALE
  5
2BF4
102
{ACAD_REACTORS
330
2BE9
102
}
330
2BE9
100
AcDbScale
 70
     0
300
1/2" = 1'-0"
140
0.5
141
12.0
290
     0
  0
SCALE
  5
2BF5
102
{ACAD_REACTORS
330
2BE9
102
}
330
2BE9
100
AcDbScale
 70
     0
300
3/4" = 1'-0"
140
0.75
141
12.0
290
     0
  0
SCALE
  5
2BF6
102
{ACAD_REACTORS
330
2BE9
102
}
330
2BE9
100
AcDbScale
 70
     0
300
1" = 1'-0"
140
1.0
141
12.0
290
     0
  0
SCALE
  5
2BF7
102
{ACAD_REACTORS
330
2BE9
102
}
330
2BE9
100
AcDbScale
 70
     0
300
1-1/2" = 1'-0"
140
1.5
141
12.0
290
     0
  0
SCALE
  5
2BF8
102
{ACAD_REACTORS
330
2BE9
102
}
330
2BE9
100
AcDbScale
 70
     0
300
3" = 1'-0"
140
3.0
141
12.0
290
     0
  0
SCALE
  5
2BF9
102
{ACAD_REACTORS
330
2BE9
102
}
330
2BE9
100
AcDbScale
 70
     0
300
6" = 1'-0"
140
6.0
141
12.0
290
     0
  0
SCALE
  5
2BFA
102
{ACAD_REACTORS
330
2BE9
102
}
330
2BE9
100
AcDbScale
 70
     0
300
1'-0" = 1'-0"
140
12.0
141
12.0
290
     0
  0
DICTIONARYVAR
  5
2AA3
102
{ACAD_REACTORS
330
2843
102
}
330
2843
100
DictionaryVariables
280
     0
  1
1
  0
DICTIONARYVAR
  5
2844
102
{ACAD_REACTORS
330
2843
102
}
330
2843
100
DictionaryVariables
280
     0
  1
1
  0
DICTIONARYVAR
  5
2AA4
102
{ACAD_REACTORS
330
2843
102
}
330
2843
100
DictionaryVariables
280
     0
  1

  0
DICTIONARYVAR
  5
2C5E
102
{ACAD_REACTORS
330
2843
102
}
330
2843
100
DictionaryVariables
280
     0
  1
127
  0
ACAD_PROXY_OBJECT
  5
28EB
102
{ACAD_REACTORS
330
28EA
102
}
330
28EA
100
AcDbProxyObject
 90
      499
 91
      556
 95
   983063
 70
     0
 93
      118
310
405010040CA904C415CD5B074D5028
350
28EC
 94
        0
1001
ACAD
1000
AcRTDxfName
1000
ACMDATADICTIONARY
1000
AcRTDxfName
1000
ACMDATADICTIONARY
1000
AcRTDxfName
1000
ACMDATADICTIONARY
1000
AcRTDxfName
1000
ACMDATADICTIONARY
1000
AcRTDxfName
1000
ACMDATADICTIONARY
1000
AcRTDxfName
1000
ACMDATADICTIONARY
  0
ACAD_PROXY_OBJECT
  5
2846
330
2841
100
AcDbProxyObject
 90
      499
 91
      508
 95
   983063
 70
     0
 93
      156
310
00010143D050D351505391D5531054925390D490
330
2841
 94
        0
1001
ACAD
1000
AcRTDxfName
1000
ACIMREALSYSVAR
1000
AcRTDxfName
1000
ACIMREALSYSVAR
1000
AcRTDxfName
1000
ACIMREALSYSVAR
1000
AcRTDxfName
1000
ACIMREALSYSVAR
1000
AcRTDxfName
1000
ACIMREALSYSVAR
1000
AcRTDxfName
1000
ACIMREALSYSVAR
  0
ACAD_PROXY_OBJECT
  5
2847
330
2841
100
AcDbProxyObject
 90
      499
 91
      508
 95
   983063
 70
     0
 93
      148
310
000101439050D351531253915054925390D490
330
2841
 94
        0
1001
ACAD
1000
AcRTDxfName
1000
ACIMREALSYSVAR
1000
AcRTDxfName
1000
ACIMREALSYSVAR
1000
AcRTDxfName
1000
ACIMREALSYSVAR
1000
AcRTDxfName
1000
ACIMREALSYSVAR
1000
AcRTDxfName
1000
ACIMREALSYSVAR
1000
AcRTDxfName
1000
ACIMREALSYSVAR
  0
ACAD_PROXY_OBJECT
  5
2848
330
2841
100
AcDbProxyObject
 90
      499
 91
      509
 95
   983063
 70
     0
 93
      156
310
000101439050D35154D6535093D314D256915080
330
2841
 94
        0
1001
ACAD
1000
AcRTDxfName
1000
ACIMINTSYSVAR
1000
AcRTDxfName
1000
ACIMINTSYSVAR
1000
AcRTDxfName
1000
ACIMINTSYSVAR
1000
AcRTDxfName
1000
ACIMINTSYSVAR
1000
AcRTDxfName
1000
ACIMINTSYSVAR
1000
AcRTDxfName
1000
ACIMINTSYSVAR
  0
ACAD_PROXY_OBJECT
  5
284A
330
2841
100
AcDbProxyObject
 90
      499
 91
      511
 95
   983063
 70
     0
 93
       88
310
000101411093D34C402B00
330
2841
330
0
330
0
 94
        0
1001
ACAD
1000
AcRTDxfName
1000
ACMEVIEW
1000
AcRTDxfName
1000
ACMEVIEW
1000
AcRTDxfName
1000
ACMEVIEW
1000
AcRTDxfName
1000
ACMEVIEW
1000
AcRTDxfName
1000
ACMEVIEW
1000
AcRTDxfName
1000
ACMEVIEW
  0
ACAD_PROXY_OBJECT
  5
2851
330
2841
100
AcDbProxyObject
 90
      499
 91
      517
 95
   983063
 70
     0
 93
      398
310
0001014124FEA55D00509342E302E35362E3132014124FEA55D00509342E302E35362E313240501000041905394D24CCC658
330
2841
330
2852
330
2856
 94
        0
1001
ACAD
1000
AcRTDxfName
1000
AM_DRAWING_MGR
1000
AcRTDxfName
1000
AM_DRAWING_MGR
1000
AcRTDxfName
1000
AM_DRAWING_MGR
1000
AcRTDxfName
1000
AM_DRAWING_MGR
1000
AcRTDxfName
1000
AM_DRAWING_MGR
1000
AcRTDxfName
1000
AM_DRAWING_MGR
  0
ACAD_PROXY_OBJECT
  5
2852
330
2841
100
AcDbProxyObject
 90
      499
 91
      518
 95
   983063
 70
     0
 93
       48
310
000190142200
330
2841
330
2853
 94
        0
1001
ACAD
1000
AcRTDxfName
1000
AM_DWG_DOCUMENT
1000
AcRTDxfName
1000
AM_DWG_DOCUMENT
1000
AcRTDxfName
1000
AM_DWG_DOCUMENT
1000
AcRTDxfName
1000
AM_DWG_DOCUMENT
1000
AcRTDxfName
1000
AM_DWG_DOCUMENT
1000
AcRTDxfName
1000
AM_DWG_DOCUMENT
  0
ACAD_PROXY_OBJECT
  5
2853
330
2841
100
AcDbProxyObject
 90
      499
 91
      519
 95
   983063
 70
     0
 93
       48
310
0001AA000000
330
2841
330
1D
330
2854
330
0
 94
        0
1001
ACAD
1000
AcRTDxfName
1000
AM_DWG_SHEET
1000
AcRTDxfName
1000
AM_DWG_SHEET
1000
AcRTDxfName
1000
AM_DWG_SHEET
1000
AcRTDxfName
1000
AM_DWG_SHEET
1000
AcRTDxfName
1000
AM_DWG_SHEET
1000
AcRTDxfName
1000
AM_DWG_SHEET
  0
ACAD_PROXY_OBJECT
  5
2854
330
2841
100
AcDbProxyObject
 90
      499
 91
      520
 95
   983063
 70
     0
 93
       28
310
0001AAA0
330
2841
 94
        0
1001
ACAD
1000
AcRTDxfName
1000
AM_VIEWDIMPARMAP
1000
AcRTDxfName
1000
AM_VIEWDIMPARMAP
1000
AcRTDxfName
1000
AM_VIEWDIMPARMAP
1000
AcRTDxfName
1000
AM_VIEWDIMPARMAP
1000
AcRTDxfName
1000
AM_VIEWDIMPARMAP
1000
AcRTDxfName
1000
AM_VIEWDIMPARMAP
  0
ACAD_PROXY_OBJECT
  5
2857
330
2841
100
AcDbProxyObject
 90
      499
 91
      509
 95
   983063
 70
     0
 93
      108
310
000101421053521310D05310D010
330
2841
 94
        0
1001
ACAD
1000
AcRTDxfName
1000
ACIMINTSYSVAR
1000
AcRTDxfName
1000
ACIMINTSYSVAR
1000
AcRTDxfName
1000
ACIMINTSYSVAR
1000
AcRTDxfName
1000
ACIMINTSYSVAR
1000
AcRTDxfName
1000
ACIMINTSYSVAR
1000
AcRTDxfName
1000
ACIMINTSYSVAR
  0
ACAD_PROXY_OBJECT
  5
2858
330
2841
100
AcDbProxyObject
 90
      499
 91
      509
 95
   983063
 70
     0
 93
      124
310
000101429053541493D2951654115010
330
2841
 94
        0
1001
ACAD
1000
AcRTDxfName
1000
ACIMINTSYSVAR
1000
AcRTDxfName
1000
ACIMINTSYSVAR
1000
AcRTDxfName
1000
ACIMINTSYSVAR
1000
AcRTDxfName
1000
ACIMINTSYSVAR
1000
AcRTDxfName
1000
ACIMINTSYSVAR
1000
AcRTDxfName
1000
ACIMINTSYSVAR
  0
ACAD_PROXY_OBJECT
  5
2859
330
2841
100
AcDbProxyObject
 90
      499
 91
      509
 95
   983063
 70
     0
 93
      124
310
00010142905354915554D15112535010
330
2841
 94
        0
1001
ACAD
1000
AcRTDxfName
1000
ACIMINTSYSVAR
1000
AcRTDxfName
1000
ACIMINTSYSVAR
1000
AcRTDxfName
1000
ACIMINTSYSVAR
1000
AcRTDxfName
1000
ACIMINTSYSVAR
1000
AcRTDxfName
1000
ACIMINTSYSVAR
1000
AcRTDxfName
1000
ACIMINTSYSVAR
  0
ACAD_PROXY_OBJECT
  5
285A
330
2841
100
AcDbProxyObject
 90
      499
 91
      509
 95
   983063
 70
     0
 93
      132
310
00010143105354D150D51253D391125360
330
2841
 94
        0
1001
ACAD
1000
AcRTDxfName
1000
ACIMINTSYSVAR
1000
AcRTDxfName
1000
ACIMINTSYSVAR
1000
AcRTDxfName
1000
ACIMINTSYSVAR
1000
AcRTDxfName
1000
ACIMINTSYSVAR
1000
AcRTDxfName
1000
ACIMINTSYSVAR
1000
AcRTDxfName
1000
ACIMINTSYSVAR
  0
ACAD_PROXY_OBJECT
  5
285B
330
2841
100
AcDbProxyObject
 90
      499
 91
      509
 95
   983063
 70
     0
 93
      124
310
00010142905355941093D49111549010
330
2841
 94
        0
1001
ACAD
1000
AcRTDxfName
1000
ACIMINTSYSVAR
1000
AcRTDxfName
1000
ACIMINTSYSVAR
1000
AcRTDxfName
1000
ACIMINTSYSVAR
1000
AcRTDxfName
1000
ACIMINTSYSVAR
1000
AcRTDxfName
1000
ACIMINTSYSVAR
1000
AcRTDxfName
1000
ACIMINTSYSVAR
  0
ACAD_PROXY_OBJECT
  5
285C
330
2841
100
AcDbProxyObject
 90
      499
 91
      509
 95
   983063
 70
     0
 93
      116
310
0001014290535115D1D0D3D313D4A0
330
2841
 94
        0
1001
ACAD
1000
AcRTDxfName
1000
ACIMINTSYSVAR
1000
AcRTDxfName
1000
ACIMINTSYSVAR
1000
AcRTDxfName
1000
ACIMINTSYSVAR
1000
AcRTDxfName
1000
ACIMINTSYSVAR
1000
AcRTDxfName
1000
ACIMINTSYSVAR
1000
AcRTDxfName
1000
ACIMINTSYSVAR
  0
ACAD_PROXY_OBJECT
  5
285D
330
2841
100
AcDbProxyObject
 90
      499
 91
      509
 95
   983063
 70
     0
 93
      148
310
00010143505355925155D49151949154D21010
330
2841
 94
        0
1001
ACAD
1000
AcRTDxfName
1000
ACIMINTSYSVAR
1000
AcRTDxfName
1000
ACIMINTSYSVAR
1000
AcRTDxfName
1000
ACIMINTSYSVAR
1000
AcRTDxfName
1000
ACIMINTSYSVAR
1000
AcRTDxfName
1000
ACIMINTSYSVAR
1000
AcRTDxfName
1000
ACIMINTSYSVAR
  0
ACAD_PROXY_OBJECT
  5
285E
330
2841
100
AcDbProxyObject
 90
      499
 91
      509
 95
   983063
 70
     0
 93
      172
310
00010144105350539393D51154149154D15495915010
330
2841
 94
        0
1001
ACAD
1000
AcRTDxfName
1000
ACIMINTSYSVAR
1000
AcRTDxfName
1000
ACIMINTSYSVAR
1000
AcRTDxfName
1000
ACIMINTSYSVAR
1000
AcRTDxfName
1000
ACIMINTSYSVAR
1000
AcRTDxfName
1000
ACIMINTSYSVAR
1000
AcRTDxfName
1000
ACIMINTSYSVAR
  0
ACAD_PROXY_OBJECT
  5
2862
330
2841
100
AcDbProxyObject
 90
      499
 91
      509
 95
   983063
 70
     0
 93
      108
310
00010142105354D51114D0D51060
330
2841
 94
        0
1001
ACAD
1000
AcRTDxfName
1000
ACIMINTSYSVAR
1000
AcRTDxfName
1000
ACIMINTSYSVAR
1000
AcRTDxfName
1000
ACIMINTSYSVAR
1000
AcRTDxfName
1000
ACIMINTSYSVAR
1000
AcRTDxfName
1000
ACIMINTSYSVAR
1000
AcRTDxfName
1000
ACIMINTSYSVAR
  0
ACAD_PROXY_OBJECT
  5
2863
330
2841
100
AcDbProxyObject
 90
      499
 91
      509
 95
   983063
 70
     0
 93
      108
310
00010142105354D5111510541060
330
2841
 94
        0
1001
ACAD
1000
AcRTDxfName
1000
ACIMINTSYSVAR
1000
AcRTDxfName
1000
ACIMINTSYSVAR
1000
AcRTDxfName
1000
ACIMINTSYSVAR
1000
AcRTDxfName
1000
ACIMINTSYSVAR
1000
AcRTDxfName
1000
ACIMINTSYSVAR
1000
AcRTDxfName
1000
ACIMINTSYSVAR
  0
ACAD_PROXY_OBJECT
  5
2864
330
2841
100
AcDbProxyObject
 90
      499
 91
      509
 95
   983063
 70
     0
 93
      108
310
00010142105354D5111115131060
330
2841
 94
        0
1001
ACAD
1000
AcRTDxfName
1000
ACIMINTSYSVAR
1000
AcRTDxfName
1000
ACIMINTSYSVAR
1000
AcRTDxfName
1000
ACIMINTSYSVAR
1000
AcRTDxfName
1000
ACIMINTSYSVAR
1000
AcRTDxfName
1000
ACIMINTSYSVAR
1000
AcRTDxfName
1000
ACIMINTSYSVAR
  0
ACAD_PROXY_OBJECT
  5
2865
330
2841
100
AcDbProxyObject
 90
      499
 91
      508
 95
   983063
 70
     0
 93
      148
310
00010141905350D310D34295C8FC2F528BC3F0
330
2841
 94
        0
1001
ACAD
1000
AcRTDxfName
1000
ACIMREALSYSVAR
1000
AcRTDxfName
1000
ACIMREALSYSVAR
1000
AcRTDxfName
1000
ACIMREALSYSVAR
1000
AcRTDxfName
1000
ACIMREALSYSVAR
1000
AcRTDxfName
1000
ACIMREALSYSVAR
1000
AcRTDxfName
1000
ACIMREALSYSVAR
  0
ACAD_PROXY_OBJECT
  5
2866
330
2841
100
AcDbProxyObject
 90
      499
 91
      508
 95
   983063
 70
     0
 93
      156
310
00010141D05350D311D05402B8716D9CEF7C33F0
330
2841
 94
        0
1001
ACAD
1000
AcRTDxfName
1000
ACIMREALSYSVAR
1000
AcRTDxfName
1000
ACIMREALSYSVAR
1000
AcRTDxfName
1000
ACIMREALSYSVAR
1000
AcRTDxfName
1000
ACIMREALSYSVAR
1000
AcRTDxfName
1000
ACIMREALSYSVAR
1000
AcRTDxfName
1000
ACIMREALSYSVAR
  0
ACAD_PROXY_OBJECT
  5
2867
330
2841
100
AcDbProxyObject
 90
      499
 91
      508
 95
   983063
 70
     0
 93
      164
310
00010142105350D313D4D2150295C8FC2F528BC3F0
330
2841
 94
        0
1001
ACAD
1000
AcRTDxfName
1000
ACIMREALSYSVAR
1000
AcRTDxfName
1000
ACIMREALSYSVAR
1000
AcRTDxfName
1000
ACIMREALSYSVAR
1000
AcRTDxfName
1000
ACIMREALSYSVAR
1000
AcRTDxfName
1000
ACIMREALSYSVAR
1000
AcRTDxfName
1000
ACIMREALSYSVAR
  0
ACAD_PROXY_OBJECT
  5
2868
330
2841
100
AcDbProxyObject
 90
      499
 91
      509
 95
   983063
 70
     0
 93
      100
310
00010141D05350D31410549010
330
2841
 94
        0
1001
ACAD
1000
AcRTDxfName
1000
ACIMINTSYSVAR
1000
AcRTDxfName
1000
ACIMINTSYSVAR
1000
AcRTDxfName
1000
ACIMINTSYSVAR
1000
AcRTDxfName
1000
ACIMINTSYSVAR
1000
AcRTDxfName
1000
ACIMINTSYSVAR
1000
AcRTDxfName
1000
ACIMINTSYSVAR
  0
ACAD_PROXY_OBJECT
  5
2869
330
2841
100
AcDbProxyObject
 90
      499
 91
      509
 95
   983063
 70
     0
 93
      100
310
0001014210535590539254D220
330
2841
 94
        0
1001
ACAD
1000
AcRTDxfName
1000
ACIMINTSYSVAR
1000
AcRTDxfName
1000
ACIMINTSYSVAR
1000
AcRTDxfName
1000
ACIMINTSYSVAR
1000
AcRTDxfName
1000
ACIMINTSYSVAR
1000
AcRTDxfName
1000
ACIMINTSYSVAR
1000
AcRTDxfName
1000
ACIMINTSYSVAR
  0
ACAD_PROXY_OBJECT
  5
286A
330
2841
100
AcDbProxyObject
 90
      499
 91
      508
 95
   983063
 70
     0
 93
      188
310
00010142D0535312539155121250D2C295C8FC2F5289C3F0
330
2841
 94
        0
1001
ACAD
1000
AcRTDxfName
1000
ACIMREALSYSVAR
1000
AcRTDxfName
1000
ACIMREALSYSVAR
1000
AcRTDxfName
1000
ACIMREALSYSVAR
1000
AcRTDxfName
1000
ACIMREALSYSVAR
1000
AcRTDxfName
1000
ACIMREALSYSVAR
1000
AcRTDxfName
1000
ACIMREALSYSVAR
  0
ACAD_PROXY_OBJECT
  5
286B
330
2841
100
AcDbProxyObject
 90
      499
 91
      509
 95
   983063
 70
     0
 93
      172
310
00010144105350555513D11253505494905391D15010
330
2841
 94
        0
1001
ACAD
1000
AcRTDxfName
1000
ACIMINTSYSVAR
1000
AcRTDxfName
1000
ACIMINTSYSVAR
1000
AcRTDxfName
1000
ACIMINTSYSVAR
1000
AcRTDxfName
1000
ACIMINTSYSVAR
1000
AcRTDxfName
1000
ACIMINTSYSVAR
1000
AcRTDxfName
1000
ACIMINTSYSVAR
  0
ACAD_PROXY_OBJECT
  5
286C
330
2841
100
AcDbProxyObject
 90
      499
 91
      509
 95
   983063
 70
     0
 93
      124
310
00010142D05351561514915191125360
330
2841
 94
        0
1001
ACAD
1000
AcRTDxfName
1000
ACIMINTSYSVAR
1000
AcRTDxfName
1000
ACIMINTSYSVAR
1000
AcRTDxfName
1000
ACIMINTSYSVAR
1000
AcRTDxfName
1000
ACIMINTSYSVAR
1000
AcRTDxfName
1000
ACIMINTSYSVAR
1000
AcRTDxfName
1000
ACIMINTSYSVAR
  0
ACAD_PROXY_OBJECT
  5
286D
330
2841
100
AcDbProxyObject
 90
      499
 91
      509
 95
   983063
 70
     0
 93
      132
310
00010142D05355105410539393D5115010
330
2841
 94
        0
1001
ACAD
1000
AcRTDxfName
1000
ACIMINTSYSVAR
1000
AcRTDxfName
1000
ACIMINTSYSVAR
1000
AcRTDxfName
1000
ACIMINTSYSVAR
1000
AcRTDxfName
1000
ACIMINTSYSVAR
1000
AcRTDxfName
1000
ACIMINTSYSVAR
1000
AcRTDxfName
1000
ACIMINTSYSVAR
  0
ACAD_PROXY_OBJECT
  5
286E
330
2841
100
AcDbProxyObject
 90
      499
 91
      509
 95
   983063
 70
     0
 93
      108
310
00010142105350555513D0D31010
330
2841
 94
        0
1001
ACAD
1000
AcRTDxfName
1000
ACIMINTSYSVAR
1000
AcRTDxfName
1000
ACIMINTSYSVAR
1000
AcRTDxfName
1000
ACIMINTSYSVAR
1000
AcRTDxfName
1000
ACIMINTSYSVAR
1000
AcRTDxfName
1000
ACIMINTSYSVAR
1000
AcRTDxfName
1000
ACIMINTSYSVAR
  0
ACAD_PROXY_OBJECT
  5
286F
330
2841
100
AcDbProxyObject
 90
      499
 91
      509
 95
   983063
 70
     0
 93
      108
310
00010142105350D3119150551050
330
2841
 94
        0
1001
ACAD
1000
AcRTDxfName
1000
ACIMINTSYSVAR
1000
AcRTDxfName
1000
ACIMINTSYSVAR
1000
AcRTDxfName
1000
ACIMINTSYSVAR
1000
AcRTDxfName
1000
ACIMINTSYSVAR
1000
AcRTDxfName
1000
ACIMINTSYSVAR
1000
AcRTDxfName
1000
ACIMINTSYSVAR
  0
ACAD_PROXY_OBJECT
  5
2870
330
2841
100
AcDbProxyObject
 90
      499
 91
      509
 95
   983063
 70
     0
 93
      108
310
00010142105350D315925155D3F0
330
2841
 94
        0
1001
ACAD
1000
AcRTDxfName
1000
ACIMINTSYSVAR
1000
AcRTDxfName
1000
ACIMINTSYSVAR
1000
AcRTDxfName
1000
ACIMINTSYSVAR
1000
AcRTDxfName
1000
ACIMINTSYSVAR
1000
AcRTDxfName
1000
ACIMINTSYSVAR
1000
AcRTDxfName
1000
ACIMINTSYSVAR
  0
ACAD_PROXY_OBJECT
  5
2871
330
2841
100
AcDbProxyObject
 90
      499
 91
      509
 95
   983063
 70
     0
 93
      148
310
0001014350535212511156915493D112535010
330
2841
 94
        0
1001
ACAD
1000
AcRTDxfName
1000
ACIMINTSYSVAR
1000
AcRTDxfName
1000
ACIMINTSYSVAR
1000
AcRTDxfName
1000
ACIMINTSYSVAR
1000
AcRTDxfName
1000
ACIMINTSYSVAR
1000
AcRTDxfName
1000
ACIMINTSYSVAR
1000
AcRTDxfName
1000
ACIMINTSYSVAR
  0
ACAD_PROXY_OBJECT
  5
2872
330
2841
100
AcDbProxyObject
 90
      499
 91
      509
 95
   983063
 70
     0
 93
      116
310
00010142905352105510D21254D3E0
330
2841
 94
        0
1001
ACAD
1000
AcRTDxfName
1000
ACIMINTSYSVAR
1000
AcRTDxfName
1000
ACIMINTSYSVAR
1000
AcRTDxfName
1000
ACIMINTSYSVAR
1000
AcRTDxfName
1000
ACIMINTSYSVAR
1000
AcRTDxfName
1000
ACIMINTSYSVAR
1000
AcRTDxfName
1000
ACIMINTSYSVAR
  0
ACAD_PROXY_OBJECT
  5
2873
330
2841
100
AcDbProxyObject
 90
      499
 91
      509
 95
   983063
 70
     0
 93
      148
310
00010143905354D25391D31152105513105660
330
2841
 94
        0
1001
ACAD
1000
AcRTDxfName
1000
ACIMINTSYSVAR
1000
AcRTDxfName
1000
ACIMINTSYSVAR
1000
AcRTDxfName
1000
ACIMINTSYSVAR
1000
AcRTDxfName
1000
ACIMINTSYSVAR
1000
AcRTDxfName
1000
ACIMINTSYSVAR
1000
AcRTDxfName
1000
ACIMINTSYSVAR
  0
ACAD_PROXY_OBJECT
  5
287F
330
2841
100
AcDbProxyObject
 90
      499
 91
      509
 95
   983063
 70
     0
 93
      116
310
000101425053541051D15311539190
330
2841
 94
        0
1001
ACAD
1000
AcRTDxfName
1000
ACIMINTSYSVAR
1000
AcRTDxfName
1000
ACIMINTSYSVAR
1000
AcRTDxfName
1000
ACIMINTSYSVAR
1000
AcRTDxfName
1000
ACIMINTSYSVAR
1000
AcRTDxfName
1000
ACIMINTSYSVAR
1000
AcRTDxfName
1000
ACIMINTSYSVAR
  0
ACAD_PROXY_OBJECT
  5
2880
330
2841
100
AcDbProxyObject
 90
      499
 91
      509
 95
   983063
 70
     0
 93
      108
310
000101421053555312539154D050
330
2841
 94
        0
1001
ACAD
1000
AcRTDxfName
1000
ACIMINTSYSVAR
1000
AcRTDxfName
1000
ACIMINTSYSVAR
1000
AcRTDxfName
1000
ACIMINTSYSVAR
1000
AcRTDxfName
1000
ACIMINTSYSVAR
1000
AcRTDxfName
1000
ACIMINTSYSVAR
1000
AcRTDxfName
1000
ACIMINTSYSVAR
  0
ACAD_PROXY_OBJECT
  5
2881
330
2841
100
AcDbProxyObject
 90
      499
 91
      509
 95
   983063
 70
     0
 93
      108
310
000101421053559312539154D030
330
2841
 94
        0
1001
ACAD
1000
AcRTDxfName
1000
ACIMINTSYSVAR
1000
AcRTDxfName
1000
ACIMINTSYSVAR
1000
AcRTDxfName
1000
ACIMINTSYSVAR
1000
AcRTDxfName
1000
ACIMINTSYSVAR
1000
AcRTDxfName
1000
ACIMINTSYSVAR
1000
AcRTDxfName
1000
ACIMINTSYSVAR
  0
ACAD_PROXY_OBJECT
  5
2882
330
2841
100
AcDbProxyObject
 90
      499
 91
      509
 95
   983063
 70
     0
 93
      140
310
00010143105354D1911254D41353D1115010
330
2841
 94
        0
1001
ACAD
1000
AcRTDxfName
1000
ACIMINTSYSVAR
1000
AcRTDxfName
1000
ACIMINTSYSVAR
1000
AcRTDxfName
1000
ACIMINTSYSVAR
1000
AcRTDxfName
1000
ACIMINTSYSVAR
1000
AcRTDxfName
1000
ACIMINTSYSVAR
1000
AcRTDxfName
1000
ACIMINTSYSVAR
  0
ACAD_PROXY_OBJECT
  5
2883
330
2841
100
AcDbProxyObject
 90
      499
 91
      508
 95
   983063
 70
     0
 93
      172
310
00010142505354119255105391C1C052DC9A6F104400
330
2841
 94
        0
1001
ACAD
1000
AcRTDxfName
1000
ACIMREALSYSVAR
1000
AcRTDxfName
1000
ACIMREALSYSVAR
1000
AcRTDxfName
1000
ACIMREALSYSVAR
1000
AcRTDxfName
1000
ACIMREALSYSVAR
1000
AcRTDxfName
1000
ACIMREALSYSVAR
1000
AcRTDxfName
1000
ACIMREALSYSVAR
  0
ACAD_PROXY_OBJECT
  5
2884
330
2841
100
AcDbProxyObject
 90
      499
 91
      508
 95
   983063
 70
     0
 93
      164
310
000101421053559150D05551C000000000000E03F0
330
2841
 94
        0
1001
ACAD
1000
AcRTDxfName
1000
ACIMREALSYSVAR
1000
AcRTDxfName
1000
ACIMREALSYSVAR
1000
AcRTDxfName
1000
ACIMREALSYSVAR
1000
AcRTDxfName
1000
ACIMREALSYSVAR
1000
AcRTDxfName
1000
ACIMREALSYSVAR
1000
AcRTDxfName
1000
ACIMREALSYSVAR
  0
ACAD_PROXY_OBJECT
  5
2885
330
2841
100
AcDbProxyObject
 90
      499
 91
      508
 95
   983063
 70
     0
 93
      180
310
00010142905350931153911513D307B14AE47E17A843F0
330
2841
 94
        0
1001
ACAD
1000
AcRTDxfName
1000
ACIMREALSYSVAR
1000
AcRTDxfName
1000
ACIMREALSYSVAR
1000
AcRTDxfName
1000
ACIMREALSYSVAR
1000
AcRTDxfName
1000
ACIMREALSYSVAR
1000
AcRTDxfName
1000
ACIMREALSYSVAR
1000
AcRTDxfName
1000
ACIMREALSYSVAR
  0
ACAD_PROXY_OBJECT
  5
2886
330
2841
100
AcDbProxyObject
 90
      499
 91
      508
 95
   983063
 70
     0
 93
      172
310
0001014250535293D25391D05407B14AE47E17A843F0
330
2841
 94
        0
1001
ACAD
1000
AcRTDxfName
1000
ACIMREALSYSVAR
1000
AcRTDxfName
1000
ACIMREALSYSVAR
1000
AcRTDxfName
1000
ACIMREALSYSVAR
1000
AcRTDxfName
1000
ACIMREALSYSVAR
1000
AcRTDxfName
1000
ACIMREALSYSVAR
1000
AcRTDxfName
1000
ACIMREALSYSVAR
  0
ACAD_PROXY_OBJECT
  5
2887
330
2841
100
AcDbProxyObject
 90
      499
 91
      508
 95
   983063
 70
     0
 93
      172
310
000101425053541192551311538000000FC83D797410
330
2841
 94
        0
1001
ACAD
1000
AcRTDxfName
1000
ACIMREALSYSVAR
1000
AcRTDxfName
1000
ACIMREALSYSVAR
1000
AcRTDxfName
1000
ACIMREALSYSVAR
1000
AcRTDxfName
1000
ACIMREALSYSVAR
1000
AcRTDxfName
1000
ACIMREALSYSVAR
1000
AcRTDxfName
1000
ACIMREALSYSVAR
  0
ACAD_PROXY_OBJECT
  5
2888
330
2841
100
AcDbProxyObject
 90
      499
 91
      508
 95
   983063
 70
     0
 93
      156
310
00010141D053559150D4D18000000000000E03F0
330
2841
 94
        0
1001
ACAD
1000
AcRTDxfName
1000
ACIMREALSYSVAR
1000
AcRTDxfName
1000
ACIMREALSYSVAR
1000
AcRTDxfName
1000
ACIMREALSYSVAR
1000
AcRTDxfName
1000
ACIMREALSYSVAR
1000
AcRTDxfName
1000
ACIMREALSYSVAR
1000
AcRTDxfName
1000
ACIMREALSYSVAR
  0
ACAD_PROXY_OBJECT
  5
2889
330
2841
100
AcDbProxyObject
 90
      499
 91
      508
 95
   983063
 70
     0
 93
      156
310
00010141D05354D19513D30FCA9F1D24D62503F0
330
2841
 94
        0
1001
ACAD
1000
AcRTDxfName
1000
ACIMREALSYSVAR
1000
AcRTDxfName
1000
ACIMREALSYSVAR
1000
AcRTDxfName
1000
ACIMREALSYSVAR
1000
AcRTDxfName
1000
ACIMREALSYSVAR
1000
AcRTDxfName
1000
ACIMREALSYSVAR
1000
AcRTDxfName
1000
ACIMREALSYSVAR
  0
ACAD_PROXY_OBJECT
  5
288A
330
2841
100
AcDbProxyObject
 90
      499
 91
      508
 95
   983063
 70
     0
 93
      172
310
000101425053541192551513D307B14AE47E17A843F0
330
2841
 94
        0
1001
ACAD
1000
AcRTDxfName
1000
ACIMREALSYSVAR
1000
AcRTDxfName
1000
ACIMREALSYSVAR
1000
AcRTDxfName
1000
ACIMREALSYSVAR
1000
AcRTDxfName
1000
ACIMREALSYSVAR
1000
AcRTDxfName
1000
ACIMREALSYSVAR
1000
AcRTDxfName
1000
ACIMREALSYSVAR
  0
ACAD_PROXY_OBJECT
  5
288B
330
2841
100
AcDbProxyObject
 90
      499
 91
      508
 95
   983063
 70
     0
 93
      188
310
00010142D05354D151D192551513D307B14AE47E17A843F0
330
2841
 94
        0
1001
ACAD
1000
AcRTDxfName
1000
ACIMREALSYSVAR
1000
AcRTDxfName
1000
ACIMREALSYSVAR
1000
AcRTDxfName
1000
ACIMREALSYSVAR
1000
AcRTDxfName
1000
ACIMREALSYSVAR
1000
AcRTDxfName
1000
ACIMREALSYSVAR
1000
AcRTDxfName
1000
ACIMREALSYSVAR
  0
ACAD_PROXY_OBJECT
  5
288C
330
2841
100
AcDbProxyObject
 90
      499
 91
      508
 95
   983063
 70
     0
 93
      148
310
000101419053541311538000000FC83D797410
330
2841
 94
        0
1001
ACAD
1000
AcRTDxfName
1000
ACIMREALSYSVAR
1000
AcRTDxfName
1000
ACIMREALSYSVAR
1000
AcRTDxfName
1000
ACIMREALSYSVAR
1000
AcRTDxfName
1000
ACIMREALSYSVAR
1000
AcRTDxfName
1000
ACIMREALSYSVAR
1000
AcRTDxfName
1000
ACIMREALSYSVAR
  0
ACAD_PROXY_OBJECT
  5
288D
330
2841
100
AcDbProxyObject
 90
      499
 91
      508
 95
   983063
 70
     0
 93
      172
310
00010142505354105391D513D301C052DC9A6F104400
330
2841
 94
        0
1001
ACAD
1000
AcRTDxfName
1000
ACIMREALSYSVAR
1000
AcRTDxfName
1000
ACIMREALSYSVAR
1000
AcRTDxfName
1000
ACIMREALSYSVAR
1000
AcRTDxfName
1000
ACIMREALSYSVAR
1000
AcRTDxfName
1000
ACIMREALSYSVAR
1000
AcRTDxfName
1000
ACIMREALSYSVAR
  0
ACAD_PROXY_OBJECT
  5
288E
330
2841
100
AcDbProxyObject
 90
      499
 91
      508
 95
   983063
 70
     0
 93
      132
310
0001014114D25691400000000000024400
330
2841
 94
        0
1001
ACAD
1000
AcRTDxfName
1000
ACIMREALSYSVAR
1000
AcRTDxfName
1000
ACIMREALSYSVAR
1000
AcRTDxfName
1000
ACIMREALSYSVAR
1000
AcRTDxfName
1000
ACIMREALSYSVAR
1000
AcRTDxfName
1000
ACIMREALSYSVAR
1000
AcRTDxfName
1000
ACIMREALSYSVAR
  0
ACAD_PROXY_OBJECT
  5
288F
330
2841
100
AcDbProxyObject
 90
      499
 91
      529
 95
   983063
 70
     0
 93
      156
310
00010142905351D4941491519256005034153470
330
2841
 94
        0
1001
ACAD
1000
AcRTDxfName
1000
ACIMSTRSYSVAR
1000
AcRTDxfName
1000
ACIMSTRSYSVAR
1000
AcRTDxfName
1000
ACIMSTRSYSVAR
1000
AcRTDxfName
1000
ACIMSTRSYSVAR
1000
AcRTDxfName
1000
ACIMSTRSYSVAR
1000
AcRTDxfName
1000
ACIMSTRSYSVAR
  0
ACAD_PROXY_OBJECT
  5
2890
330
2841
100
AcDbProxyObject
 90
      499
 91
      530
 95
   983063
 70
     0
 93
      314
310
00014080509646973745363616C650000000000003C2FC000000000000F0BF0000003F20F5E5D040
330
2841
 94
        0
1001
ACAD
1000
AcRTDxfName
1000
ACIMDBLSTATICVAR
1000
AcRTDxfName
1000
ACIMDBLSTATICVAR
1000
AcRTDxfName
1000
ACIMDBLSTATICVAR
1000
AcRTDxfName
1000
ACIMDBLSTATICVAR
1000
AcRTDxfName
1000
ACIMDBLSTATICVAR
1000
AcRTDxfName
1000
ACIMDBLSTATICVAR
  0
ACAD_PROXY_OBJECT
  5
2891
330
2841
100
AcDbProxyObject
 90
      499
 91
      530
 95
   983063
 70
     0
 93
      322
310
0001408050A65646175526F74617465060B51153EC87E4FC182D4454FB2119C0060B51153EC8465000
330
2841
 94
        0
1001
ACAD
1000
AcRTDxfName
1000
ACIMDBLSTATICVAR
1000
AcRTDxfName
1000
ACIMDBLSTATICVAR
1000
AcRTDxfName
1000
ACIMDBLSTATICVAR
1000
AcRTDxfName
1000
ACIMDBLSTATICVAR
1000
AcRTDxfName
1000
ACIMDBLSTATICVAR
1000
AcRTDxfName
1000
ACIMDBLSTATICVAR
  0
ACAD_PROXY_OBJECT
  5
2892
330
2841
100
AcDbProxyObject
 90
      499
 91
      530
 95
   983063
 70
     0
 93
      314
310
00014080509656461755477697374060B51153EC846500000000FC83D797C10000003F20F5E5D040
330
2841
 94
        0
1001
ACAD
1000
AcRTDxfName
1000
ACIMDBLSTATICVAR
1000
AcRTDxfName
1000
ACIMDBLSTATICVAR
1000
AcRTDxfName
1000
ACIMDBLSTATICVAR
1000
AcRTDxfName
1000
ACIMDBLSTATICVAR
1000
AcRTDxfName
1000
ACIMDBLSTATICVAR
1000
AcRTDxfName
1000
ACIMDBLSTATICVAR
  0
ACAD_PROXY_OBJECT
  5
2893
330
2841
100
AcDbProxyObject
 90
      499
 91
      531
 95
   983063
 70
     0
 93
      294
310
000140C050A656467654F75747075740144F3B7F635ECB74A140A4817D41BDB1E5B1A5B994
330
2841
 94
        0
1001
ACAD
1000
AcRTDxfName
1000
ACIMSTRSTATICVAR
1000
AcRTDxfName
1000
ACIMSTRSTATICVAR
1000
AcRTDxfName
1000
ACIMSTRSTATICVAR
1000
AcRTDxfName
1000
ACIMSTRSTATICVAR
1000
AcRTDxfName
1000
ACIMSTRSTATICVAR
1000
AcRTDxfName
1000
ACIMSTRSTATICVAR
  0
ACAD_PROXY_OBJECT
  5
2894
330
2841
100
AcDbProxyObject
 90
      499
 91
      532
 95
   983063
 70
     0
 93
      154
310
0001404050B65646974507265766965774064040
330
2841
 94
        0
1001
ACAD
1000
AcRTDxfName
1000
ACIMINTSTATICVAR
1000
AcRTDxfName
1000
ACIMINTSTATICVAR
1000
AcRTDxfName
1000
ACIMINTSTATICVAR
1000
AcRTDxfName
1000
ACIMINTSTATICVAR
1000
AcRTDxfName
1000
ACIMINTSTATICVAR
1000
AcRTDxfName
1000
ACIMINTSTATICVAR
  0
ACAD_PROXY_OBJECT
  5
2895
330
2841
100
AcDbProxyObject
 90
      499
 91
      532
 95
   983063
 70
     0
 93
      170
310
0001404050A666C6F77556C696E657342A3A00C00000
330
2841
 94
        0
1001
ACAD
1000
AcRTDxfName
1000
ACIMINTSTATICVAR
1000
AcRTDxfName
1000
ACIMINTSTATICVAR
1000
AcRTDxfName
1000
ACIMINTSTATICVAR
1000
AcRTDxfName
1000
ACIMINTSTATICVAR
1000
AcRTDxfName
1000
ACIMINTSTATICVAR
1000
AcRTDxfName
1000
ACIMINTSTATICVAR
  0
ACAD_PROXY_OBJECT
  5
2896
330
2841
100
AcDbProxyObject
 90
      499
 91
      532
 95
   983063
 70
     0
 93
      170
310
0001404050A666C6F77566C696E657342A3A00C00000
330
2841
 94
        0
1001
ACAD
1000
AcRTDxfName
1000
ACIMINTSTATICVAR
1000
AcRTDxfName
1000
ACIMINTSTATICVAR
1000
AcRTDxfName
1000
ACIMINTSTATICVAR
1000
AcRTDxfName
1000
ACIMINTSTATICVAR
1000
AcRTDxfName
1000
ACIMINTSTATICVAR
1000
AcRTDxfName
1000
ACIMINTSTATICVAR
  0
ACAD_PROXY_OBJECT
  5
2897
330
2841
100
AcDbProxyObject
 90
      499
 91
      530
 95
   983063
 70
     0
 93
      322
310
0001408050A666C7366456E645261640000000000003C2FC000000000000F0BF0000003F20F5E5D040
330
2841
 94
        0
1001
ACAD
1000
AcRTDxfName
1000
ACIMDBLSTATICVAR
1000
AcRTDxfName
1000
ACIMDBLSTATICVAR
1000
AcRTDxfName
1000
ACIMDBLSTATICVAR
1000
AcRTDxfName
1000
ACIMDBLSTATICVAR
1000
AcRTDxfName
1000
ACIMDBLSTATICVAR
1000
AcRTDxfName
1000
ACIMDBLSTATICVAR
  0
ACAD_PROXY_OBJECT
  5
2898
330
2841
100
AcDbProxyObject
 90
      499
 91
      531
 95
   983063
 70
     0
 93
      246
310
000140C05086A6E33644D6F64650143E3BA24EB8A134A4817D3585B9D585B0
330
2841
 94
        0
1001
ACAD
1000
AcRTDxfName
1000
ACIMSTRSTATICVAR
1000
AcRTDxfName
1000
ACIMSTRSTATICVAR
1000
AcRTDxfName
1000
ACIMSTRSTATICVAR
1000
AcRTDxfName
1000
ACIMSTRSTATICVAR
1000
AcRTDxfName
1000
ACIMSTRSTATICVAR
1000
AcRTDxfName
1000
ACIMSTRSTATICVAR
  0
ACAD_PROXY_OBJECT
  5
2899
330
2841
100
AcDbProxyObject
 90
      499
 91
      531
 95
   983063
 70
     0
 93
      294
310
000140C050A6A6E33644F75747075740144F3B7F635ECB74A140A4817D41BDB1E5B1A5B994
330
2841
 94
        0
1001
ACAD
1000
AcRTDxfName
1000
ACIMSTRSTATICVAR
1000
AcRTDxfName
1000
ACIMSTRSTATICVAR
1000
AcRTDxfName
1000
ACIMSTRSTATICVAR
1000
AcRTDxfName
1000
ACIMSTRSTATICVAR
1000
AcRTDxfName
1000
ACIMSTRSTATICVAR
1000
AcRTDxfName
1000
ACIMSTRSTATICVAR
  0
ACAD_PROXY_OBJECT
  5
289A
330
2841
100
AcDbProxyObject
 90
      499
 91
      530
 95
   983063
 70
     0
 93
      306
310
000140805086C656E675065726300000000002016D002D431CEBE2361A3F0000003F20F5E5D040
330
2841
 94
        0
1001
ACAD
1000
AcRTDxfName
1000
ACIMDBLSTATICVAR
1000
AcRTDxfName
1000
ACIMDBLSTATICVAR
1000
AcRTDxfName
1000
ACIMDBLSTATICVAR
1000
AcRTDxfName
1000
ACIMDBLSTATICVAR
1000
AcRTDxfName
1000
ACIMDBLSTATICVAR
1000
AcRTDxfName
1000
ACIMDBLSTATICVAR
  0
ACAD_PROXY_OBJECT
  5
289B
330
2841
100
AcDbProxyObject
 90
      499
 91
      530
 95
   983063
 70
     0
 93
      266
310
0001408050B6D61737344656E7369747942D431CEBE2361A3F0000003F20F5E5D040
330
2841
 94
        0
1001
ACAD
1000
AcRTDxfName
1000
ACIMDBLSTATICVAR
1000
AcRTDxfName
1000
ACIMDBLSTATICVAR
1000
AcRTDxfName
1000
ACIMDBLSTATICVAR
1000
AcRTDxfName
1000
ACIMDBLSTATICVAR
1000
AcRTDxfName
1000
ACIMDBLSTATICVAR
1000
AcRTDxfName
1000
ACIMDBLSTATICVAR
  0
ACAD_PROXY_OBJECT
  5
289C
330
2841
100
AcDbProxyObject
 90
      499
 91
      530
 95
   983063
 70
     0
 93
      186
310
000140805096D617373546869636BA0000003F20F5E5D040
330
2841
 94
        0
1001
ACAD
1000
AcRTDxfName
1000
ACIMDBLSTATICVAR
1000
AcRTDxfName
1000
ACIMDBLSTATICVAR
1000
AcRTDxfName
1000
ACIMDBLSTATICVAR
1000
AcRTDxfName
1000
ACIMDBLSTATICVAR
1000
AcRTDxfName
1000
ACIMDBLSTATICVAR
1000
AcRTDxfName
1000
ACIMDBLSTATICVAR
  0
ACAD_PROXY_OBJECT
  5
289D
330
2841
100
AcDbProxyObject
 90
      499
 91
      531
 95
   983063
 70
     0
 93
      230
310
000140C05086D6173735479706501436F2AB64A14CA4817D4DA195B1B0
330
2841
 94
        0
1001
ACAD
1000
AcRTDxfName
1000
ACIMSTRSTATICVAR
1000
AcRTDxfName
1000
ACIMSTRSTATICVAR
1000
AcRTDxfName
1000
ACIMSTRSTATICVAR
1000
AcRTDxfName
1000
ACIMSTRSTATICVAR
1000
AcRTDxfName
1000
ACIMSTRSTATICVAR
1000
AcRTDxfName
1000
ACIMSTRSTATICVAR
  0
ACAD_PROXY_OBJECT
  5
289E
330
2841
100
AcDbProxyObject
 90
      499
 91
      530
 95
   983063
 70
     0
 93
      242
310
000140805086F667366446973744000000FC83D797C10000003F20F5E5D040
330
2841
 94
        0
1001
ACAD
1000
AcRTDxfName
1000
ACIMDBLSTATICVAR
1000
AcRTDxfName
1000
ACIMDBLSTATICVAR
1000
AcRTDxfName
1000
ACIMDBLSTATICVAR
1000
AcRTDxfName
1000
ACIMDBLSTATICVAR
1000
AcRTDxfName
1000
ACIMDBLSTATICVAR
1000
AcRTDxfName
1000
ACIMDBLSTATICVAR
  0
ACAD_PROXY_OBJECT
  5
289F
330
2841
100
AcDbProxyObject
 90
      499
 91
      530
 95
   983063
 70
     0
 93
      258
310
0001408050A7072696D52616469757342D431CEBE2361A3F0000003F20F5E5D040
330
2841
 94
        0
1001
ACAD
1000
AcRTDxfName
1000
ACIMDBLSTATICVAR
1000
AcRTDxfName
1000
ACIMDBLSTATICVAR
1000
AcRTDxfName
1000
ACIMDBLSTATICVAR
1000
AcRTDxfName
1000
ACIMDBLSTATICVAR
1000
AcRTDxfName
1000
ACIMDBLSTATICVAR
1000
AcRTDxfName
1000
ACIMDBLSTATICVAR
  0
ACAD_PROXY_OBJECT
  5
28A0
330
2841
100
AcDbProxyObject
 90
      499
 91
      530
 95
   983063
 70
     0
 93
      194
310
0001408050A7072696D546F70526164A0000003F20F5E5D040
330
2841
 94
        0
1001
ACAD
1000
AcRTDxfName
1000
ACIMDBLSTATICVAR
1000
AcRTDxfName
1000
ACIMDBLSTATICVAR
1000
AcRTDxfName
1000
ACIMDBLSTATICVAR
1000
AcRTDxfName
1000
ACIMDBLSTATICVAR
1000
AcRTDxfName
1000
ACIMDBLSTATICVAR
1000
AcRTDxfName
1000
ACIMDBLSTATICVAR
  0
ACAD_PROXY_OBJECT
  5
28A1
330
2841
100
AcDbProxyObject
 90
      499
 91
      530
 95
   983063
 70
     0
 93
      266
310
0001408050B7072696D5475626552616442D431CEBE2361A3F0000003F20F5E5D040
330
2841
 94
        0
1001
ACAD
1000
AcRTDxfName
1000
ACIMDBLSTATICVAR
1000
AcRTDxfName
1000
ACIMDBLSTATICVAR
1000
AcRTDxfName
1000
ACIMDBLSTATICVAR
1000
AcRTDxfName
1000
ACIMDBLSTATICVAR
1000
AcRTDxfName
1000
ACIMDBLSTATICVAR
1000
AcRTDxfName
1000
ACIMDBLSTATICVAR
  0
ACAD_PROXY_OBJECT
  5
28A2
330
2841
100
AcDbProxyObject
 90
      499
 91
      530
 95
   983063
 70
     0
 93
      258
310
0001408050A7072696D4865696768744000000FC83D797C10000003F20F5E5D040
330
2841
 94
        0
1001
ACAD
1000
AcRTDxfName
1000
ACIMDBLSTATICVAR
1000
AcRTDxfName
1000
ACIMDBLSTATICVAR
1000
AcRTDxfName
1000
ACIMDBLSTATICVAR
1000
AcRTDxfName
1000
ACIMDBLSTATICVAR
1000
AcRTDxfName
1000
ACIMDBLSTATICVAR
1000
AcRTDxfName
1000
ACIMDBLSTATICVAR
  0
ACAD_PROXY_OBJECT
  5
28A3
330
2841
100
AcDbProxyObject
 90
      499
 91
      530
 95
   983063
 70
     0
 93
      250
310
000140805097072696D5374416E678182D4454FB2119C0060B51153EC8465000
330
2841
 94
        0
1001
ACAD
1000
AcRTDxfName
1000
ACIMDBLSTATICVAR
1000
AcRTDxfName
1000
ACIMDBLSTATICVAR
1000
AcRTDxfName
1000
ACIMDBLSTATICVAR
1000
AcRTDxfName
1000
ACIMDBLSTATICVAR
1000
AcRTDxfName
1000
ACIMDBLSTATICVAR
1000
AcRTDxfName
1000
ACIMDBLSTATICVAR
  0
ACAD_PROXY_OBJECT
  5
28A4
330
2841
100
AcDbProxyObject
 90
      499
 91
      530
 95
   983063
 70
     0
 93
      322
310
0001408050A7072696D456E64416E67060B51153EC846500182D4454FB2119C0060B51153EC8465000
330
2841
 94
        0
1001
ACAD
1000
AcRTDxfName
1000
ACIMDBLSTATICVAR
1000
AcRTDxfName
1000
ACIMDBLSTATICVAR
1000
AcRTDxfName
1000
ACIMDBLSTATICVAR
1000
AcRTDxfName
1000
ACIMDBLSTATICVAR
1000
AcRTDxfName
1000
ACIMDBLSTATICVAR
1000
AcRTDxfName
1000
ACIMDBLSTATICVAR
  0
ACAD_PROXY_OBJECT
  5
28A5
330
2841
100
AcDbProxyObject
 90
      499
 91
      530
 95
   983063
 70
     0
 93
      242
310
000140805087265765374416E678182D4454FB2119C0060B51153EC8465000
330
2841
 94
        0
1001
ACAD
1000
AcRTDxfName
1000
ACIMDBLSTATICVAR
1000
AcRTDxfName
1000
ACIMDBLSTATICVAR
1000
AcRTDxfName
1000
ACIMDBLSTATICVAR
1000
AcRTDxfName
1000
ACIMDBLSTATICVAR
1000
AcRTDxfName
1000
ACIMDBLSTATICVAR
1000
AcRTDxfName
1000
ACIMDBLSTATICVAR
  0
ACAD_PROXY_OBJECT
  5
28A6
330
2841
100
AcDbProxyObject
 90
      499
 91
      530
 95
   983063
 70
     0
 93
      314
310
00014080509726576456E64416E67060B51153EC846500182D4454FB2119C0060B51153EC8465000
330
2841
 94
        0
1001
ACAD
1000
AcRTDxfName
1000
ACIMDBLSTATICVAR
1000
AcRTDxfName
1000
ACIMDBLSTATICVAR
1000
AcRTDxfName
1000
ACIMDBLSTATICVAR
1000
AcRTDxfName
1000
ACIMDBLSTATICVAR
1000
AcRTDxfName
1000
ACIMDBLSTATICVAR
1000
AcRTDxfName
1000
ACIMDBLSTATICVAR
  0
ACAD_PROXY_OBJECT
  5
28A7
330
2841
100
AcDbProxyObject
 90
      499
 91
      532
 95
   983063
 70
     0
 93
      194
310
0001404050C7266736655706174636865734290139C0C00000
330
2841
 94
        0
1001
ACAD
1000
AcRTDxfName
1000
ACIMINTSTATICVAR
1000
AcRTDxfName
1000
ACIMINTSTATICVAR
1000
AcRTDxfName
1000
ACIMINTSTATICVAR
1000
AcRTDxfName
1000
ACIMINTSTATICVAR
1000
AcRTDxfName
1000
ACIMINTSTATICVAR
1000
AcRTDxfName
1000
ACIMINTSTATICVAR
  0
ACAD_PROXY_OBJECT
  5
28A8
330
2841
100
AcDbProxyObject
 90
      499
 91
      532
 95
   983063
 70
     0
 93
      194
310
0001404050C7266736656706174636865734290139C0C00000
330
2841
 94
        0
1001
ACAD
1000
AcRTDxfName
1000
ACIMINTSTATICVAR
1000
AcRTDxfName
1000
ACIMINTSTATICVAR
1000
AcRTDxfName
1000
ACIMINTSTATICVAR
1000
AcRTDxfName
1000
ACIMINTSTATICVAR
1000
AcRTDxfName
1000
ACIMINTSTATICVAR
1000
AcRTDxfName
1000
ACIMINTSTATICVAR
  0
ACAD_PROXY_OBJECT
  5
28A9
330
2841
100
AcDbProxyObject
 90
      499
 91
      531
 95
   983063
 70
     0
 93
      246
310
000140C0508747562654D6F64650143E3BA24EB8A134A4817D3585B9D585B0
330
2841
 94
        0
1001
ACAD
1000
AcRTDxfName
1000
ACIMSTRSTATICVAR
1000
AcRTDxfName
1000
ACIMSTRSTATICVAR
1000
AcRTDxfName
1000
ACIMSTRSTATICVAR
1000
AcRTDxfName
1000
ACIMSTRSTATICVAR
1000
AcRTDxfName
1000
ACIMSTRSTATICVAR
1000
AcRTDxfName
1000
ACIMSTRSTATICVAR
  0
ACAD_PROXY_OBJECT
  5
28AA
330
2841
100
AcDbProxyObject
 90
      499
 91
      530
 95
   983063
 70
     0
 93
      274
310
0001408050C747562654469616D6574657242D431CEBE2361A3F0000003F20F5E5D040
330
2841
 94
        0
1001
ACAD
1000
AcRTDxfName
1000
ACIMDBLSTATICVAR
1000
AcRTDxfName
1000
ACIMDBLSTATICVAR
1000
AcRTDxfName
1000
ACIMDBLSTATICVAR
1000
AcRTDxfName
1000
ACIMDBLSTATICVAR
1000
AcRTDxfName
1000
ACIMDBLSTATICVAR
1000
AcRTDxfName
1000
ACIMDBLSTATICVAR
  0
ACAD_PROXY_OBJECT
  5
28AB
330
2841
100
AcDbProxyObject
 90
      499
 91
      530
 95
   983063
 70
     0
 93
      314
310
00014080509626C656E644261636B0000000000000D1002D431CEBE2361A3F000000000000165000
330
2841
 94
        0
1001
ACAD
1000
AcRTDxfName
1000
ACIMDBLSTATICVAR
1000
AcRTDxfName
1000
ACIMDBLSTATICVAR
1000
AcRTDxfName
1000
ACIMDBLSTATICVAR
1000
AcRTDxfName
1000
ACIMDBLSTATICVAR
1000
AcRTDxfName
1000
ACIMDBLSTATICVAR
1000
AcRTDxfName
1000
ACIMDBLSTATICVAR
  0
ACAD_PROXY_OBJECT
  5
28AC
330
2841
100
AcDbProxyObject
 90
      499
 91
      532
 95
   983063
 70
     0
 93
      130
310
00014040509696E746572506F6C79A4040
330
2841
 94
        0
1001
ACAD
1000
AcRTDxfName
1000
ACIMINTSTATICVAR
1000
AcRTDxfName
1000
ACIMINTSTATICVAR
1000
AcRTDxfName
1000
ACIMINTSTATICVAR
1000
AcRTDxfName
1000
ACIMINTSTATICVAR
1000
AcRTDxfName
1000
ACIMINTSTATICVAR
1000
AcRTDxfName
1000
ACIMINTSTATICVAR
  0
ACAD_PROXY_OBJECT
  5
28AD
330
2841
100
AcDbProxyObject
 90
      499
 91
      532
 95
   983063
 70
     0
 93
      146
310
0001404050A70726F6A4F757470757440A4080
330
2841
 94
        0
1001
ACAD
1000
AcRTDxfName
1000
ACIMINTSTATICVAR
1000
AcRTDxfName
1000
ACIMINTSTATICVAR
1000
AcRTDxfName
1000
ACIMINTSTATICVAR
1000
AcRTDxfName
1000
ACIMINTSTATICVAR
1000
AcRTDxfName
1000
ACIMINTSTATICVAR
1000
AcRTDxfName
1000
ACIMINTSTATICVAR
  0
ACAD_PROXY_OBJECT
  5
28BE
330
2841
100
AcDbProxyObject
 90
      499
 91
      540
 95
   983063
 70
     0
 93
      682
310
0001000000009AA6A9AA40518546875204D61792030312032313A34313A3037203230303301424D0B8C0B8D4D8B8C4C80518546875204D61792030312032313A34373A3131203230303301424D0B8C0B8D4D8B8C4C80
330
2841
330
28BF
330
28C0
330
28C2
330
0
 94
        0
1001
ACAD
1000
AcRTDxfName
1000
ADAPPL
1000
AcRTDxfName
1000
ADAPPL
1000
AcRTDxfName
1000
ADAPPL
1000
AcRTDxfName
1000
ADAPPL
1000
AcRTDxfName
1000
ADAPPL
1000
AcRTDxfName
1000
ADAPPL
  0
ACAD_PROXY_OBJECT
  5
28BF
330
2841
100
AcDbProxyObject
 90
      499
 91
      541
 95
   983063
 70
     0
 93
       70
310
0001AAA80820000000
330
2841
330
28BF
330
28BF
 94
        0
1001
ACAD
1000
AcRTDxfName
1000
DEPMGR
1000
AcRTDxfName
1000
DEPMGR
1000
AcRTDxfName
1000
DEPMGR
1000
AcRTDxfName
1000
DEPMGR
1000
AcRTDxfName
1000
DEPMGR
1000
AcRTDxfName
1000
DEPMGR
  0
ACAD_PROXY_OBJECT
  5
28C0
330
2841
100
AcDbProxyObject
 90
      499
 91
      542
 95
   983063
 70
     0
 93
       48
310
000100000000
330
2841
330
0
330
28C1
330
0
330
0
 94
        0
1001
ACAD
1000
AcRTDxfName
1000
PARAMMGR
1000
AcRTDxfName
1000
PARAMMGR
1000
AcRTDxfName
1000
PARAMMGR
1000
AcRTDxfName
1000
PARAMMGR
1000
AcRTDxfName
1000
PARAMMGR
1000
AcRTDxfName
1000
PARAMMGR
  0
ACAD_PROXY_OBJECT
  5
28C1
330
2841
100
AcDbProxyObject
 90
      499
 91
      543
 95
   983063
 70
     0
 93
       40
310
000100AAAA
330
2841
330
0
 94
        0
1001
ACAD
1000
AcRTDxfName
1000
PARAMSCOPE
1000
AcRTDxfName
1000
PARAMSCOPE
1000
AcRTDxfName
1000
PARAMSCOPE
1000
AcRTDxfName
1000
PARAMSCOPE
1000
AcRTDxfName
1000
PARAMSCOPE
1000
AcRTDxfName
1000
PARAMSCOPE
  0
ACAD_PROXY_OBJECT
  5
28C3
330
2841
100
AcDbProxyObject
 90
      499
 91
      509
 95
   983063
 70
     0
 93
      124
310
00010142905350D3D39114D414D69050
330
2841
 94
        0
1001
ACAD
1000
AcRTDxfName
1000
ACIMINTSYSVAR
1000
AcRTDxfName
1000
ACIMINTSYSVAR
1000
AcRTDxfName
1000
ACIMINTSYSVAR
1000
AcRTDxfName
1000
ACIMINTSYSVAR
1000
AcRTDxfName
1000
ACIMINTSYSVAR
1000
AcRTDxfName
1000
ACIMINTSYSVAR
  0
ACAD_PROXY_OBJECT
  5
28C4
330
2841
100
AcDbProxyObject
 90
      499
 91
      509
 95
   983063
 70
     0
 93
      124
310
000101429053549553115353D1115010
330
2841
 94
        0
1001
ACAD
1000
AcRTDxfName
1000
ACIMINTSYSVAR
1000
AcRTDxfName
1000
ACIMINTSYSVAR
1000
AcRTDxfName
1000
ACIMINTSYSVAR
1000
AcRTDxfName
1000
ACIMINTSYSVAR
1000
AcRTDxfName
1000
ACIMINTSYSVAR
1000
AcRTDxfName
1000
ACIMINTSYSVAR
  0
ACAD_PROXY_OBJECT
  5
28C5
330
2841
100
AcDbProxyObject
 90
      499
 91
      509
 95
   983063
 70
     0
 93
      108
310
00010142105354D2D353D1115010
330
2841
 94
        0
1001
ACAD
1000
AcRTDxfName
1000
ACIMINTSYSVAR
1000
AcRTDxfName
1000
ACIMINTSYSVAR
1000
AcRTDxfName
1000
ACIMINTSYSVAR
1000
AcRTDxfName
1000
ACIMINTSYSVAR
1000
AcRTDxfName
1000
ACIMINTSYSVAR
1000
AcRTDxfName
1000
ACIMINTSYSVAR
  0
ACAD_PROXY_OBJECT
  5
28C6
330
2841
100
AcDbProxyObject
 90
      499
 91
      509
 95
   983063
 70
     0
 93
      140
310
000101435053511253511254D41353D11160
330
2841
 94
        0
1001
ACAD
1000
AcRTDxfName
1000
ACIMINTSYSVAR
1000
AcRTDxfName
1000
ACIMINTSYSVAR
1000
AcRTDxfName
1000
ACIMINTSYSVAR
1000
AcRTDxfName
1000
ACIMINTSYSVAR
1000
AcRTDxfName
1000
ACIMINTSYSVAR
1000
AcRTDxfName
1000
ACIMINTSYSVAR
  0
ACAD_PROXY_OBJECT
  5
28C7
330
2841
100
AcDbProxyObject
 90
      499
 91
      508
 95
   983063
 70
     0
 93
      180
310
00010142905354D2D05391D513D3000000000000010400
330
2841
 94
        0
1001
ACAD
1000
AcRTDxfName
1000
ACIMREALSYSVAR
1000
AcRTDxfName
1000
ACIMREALSYSVAR
1000
AcRTDxfName
1000
ACIMREALSYSVAR
1000
AcRTDxfName
1000
ACIMREALSYSVAR
1000
AcRTDxfName
1000
ACIMREALSYSVAR
1000
AcRTDxfName
1000
ACIMREALSYSVAR
  0
ACAD_PROXY_OBJECT
  5
28C8
330
2841
100
AcDbProxyObject
 90
      499
 91
      529
 95
   983063
 70
     0
 93
      164
310
00010142505354D2D4D516531140505434F4E542A0
330
2841
 94
        0
1001
ACAD
1000
AcRTDxfName
1000
ACIMSTRSYSVAR
1000
AcRTDxfName
1000
ACIMSTRSYSVAR
1000
AcRTDxfName
1000
ACIMSTRSYSVAR
1000
AcRTDxfName
1000
ACIMSTRSYSVAR
1000
AcRTDxfName
1000
ACIMSTRSYSVAR
1000
AcRTDxfName
1000
ACIMSTRSYSVAR
  0
ACAD_PROXY_OBJECT
  5
28C9
330
2841
100
AcDbProxyObject
 90
      499
 91
      509
 95
   983063
 70
     0
 93
      108
310
00010142105350D3511112535010
330
2841
 94
        0
1001
ACAD
1000
AcRTDxfName
1000
ACIMINTSYSVAR
1000
AcRTDxfName
1000
ACIMINTSYSVAR
1000
AcRTDxfName
1000
ACIMINTSYSVAR
1000
AcRTDxfName
1000
ACIMINTSYSVAR
1000
AcRTDxfName
1000
ACIMINTSYSVAR
1000
AcRTDxfName
1000
ACIMINTSYSVAR
  0
ACAD_PROXY_OBJECT
  5
28CA
330
2841
100
AcDbProxyObject
 90
      499
 91
      509
 95
   983063
 70
     0
 93
      108
310
00010142105350D3D35414D59010
330
2841
 94
        0
1001
ACAD
1000
AcRTDxfName
1000
ACIMINTSYSVAR
1000
AcRTDxfName
1000
ACIMINTSYSVAR
1000
AcRTDxfName
1000
ACIMINTSYSVAR
1000
AcRTDxfName
1000
ACIMINTSYSVAR
1000
AcRTDxfName
1000
ACIMINTSYSVAR
1000
AcRTDxfName
1000
ACIMINTSYSVAR
  0
ACAD_PROXY_OBJECT
  5
28CB
330
2841
100
AcDbProxyObject
 90
      499
 91
      529
 95
   983063
 70
     0
 93
      164
310
0001014290535410549514D4119600504504152540
330
2841
 94
        0
1001
ACAD
1000
AcRTDxfName
1000
ACIMSTRSYSVAR
1000
AcRTDxfName
1000
ACIMSTRSYSVAR
1000
AcRTDxfName
1000
ACIMSTRSYSVAR
1000
AcRTDxfName
1000
ACIMSTRSYSVAR
1000
AcRTDxfName
1000
ACIMSTRSYSVAR
1000
AcRTDxfName
1000
ACIMSTRSYSVAR
  0
ACAD_PROXY_OBJECT
  5
28CC
330
2841
100
AcDbProxyObject
 90
      499
 91
      529
 95
   983063
 70
     0
 93
      220
310
0001014350535513D3D31093D11654119600508544F4F4C424F44590
330
2841
 94
        0
1001
ACAD
1000
AcRTDxfName
1000
ACIMSTRSYSVAR
1000
AcRTDxfName
1000
ACIMSTRSYSVAR
1000
AcRTDxfName
1000
ACIMSTRSYSVAR
1000
AcRTDxfName
1000
ACIMSTRSYSVAR
1000
AcRTDxfName
1000
ACIMSTRSYSVAR
1000
AcRTDxfName
1000
ACIMSTRSYSVAR
  0
ACAD_PROXY_OBJECT
  5
28CD
330
2841
100
AcDbProxyObject
 90
      499
 91
      509
 95
   983063
 70
     0
 93
      116
310
000101425053511254D410D3D39010
330
2841
 94
        0
1001
ACAD
1000
AcRTDxfName
1000
ACIMINTSYSVAR
1000
AcRTDxfName
1000
ACIMINTSYSVAR
1000
AcRTDxfName
1000
ACIMINTSYSVAR
1000
AcRTDxfName
1000
ACIMINTSYSVAR
1000
AcRTDxfName
1000
ACIMINTSYSVAR
1000
AcRTDxfName
1000
ACIMINTSYSVAR
  0
ACAD_PROXY_OBJECT
  5
28CE
330
2841
100
AcDbProxyObject
 90
      499
 91
      509
 95
   983063
 70
     0
 93
      108
310
00010142105350D3D39114D41010
330
2841
 94
        0
1001
ACAD
1000
AcRTDxfName
1000
ACIMINTSYSVAR
1000
AcRTDxfName
1000
ACIMINTSYSVAR
1000
AcRTDxfName
1000
ACIMINTSYSVAR
1000
AcRTDxfName
1000
ACIMINTSYSVAR
1000
AcRTDxfName
1000
ACIMINTSYSVAR
1000
AcRTDxfName
1000
ACIMINTSYSVAR
  0
ACAD_PROXY_OBJECT
  5
28CF
330
2841
100
AcDbProxyObject
 90
      499
 91
      509
 95
   983063
 70
     0
 93
      124
310
0001014290535490511114D414D69190
330
2841
 94
        0
1001
ACAD
1000
AcRTDxfName
1000
ACIMINTSYSVAR
1000
AcRTDxfName
1000
ACIMINTSYSVAR
1000
AcRTDxfName
1000
ACIMINTSYSVAR
1000
AcRTDxfName
1000
ACIMINTSYSVAR
1000
AcRTDxfName
1000
ACIMINTSYSVAR
1000
AcRTDxfName
1000
ACIMINTSYSVAR
  0
ACAD_PROXY_OBJECT
  5
28D1
330
2841
100
AcDbProxyObject
 90
      499
 91
      545
 95
   983063
 70
     0
 93
     3196
310
0001419088050A544852555F4452494C4C0142D09312539117D1149253130050A544852555F43424F52450142D09312539117D0D093D4914050A544852555F4353494E4B0142D09312539117D0D4D25392D0642201459EC94958C8094950535112504815121493D551D20B9F4051C7B252563202525414D444941205820252
310
5414D44455020444545507D014F5EC94958C8094950535112504815121493D551D20B9F57141ED0D093D49148094958C80949505350D112504816080949505350D091115408111151541F405437B252563202525414D4449412058202525414D44455020444545507D5C507B43424F524520252563202525414D4344494120
310
58202525414D434244455020444545507D014EDEC94958C8094950535112504815121493D551D20B9F57141ED0D4D25392C8094958C80949505350D112504816080949505350D4D05391C949591F405417B252563202525414D4449412058202525414D44455020444545507D5C507B4353494E4B20252563202525414D434
310
449412058202525414D4353414E472525647D0
330
2841
 94
        0
1001
ACAD
1000
AcRTDxfName
1000
ADHNTMPLT
1000
AcRTDxfName
1000
ADHNTMPLT
1000
AcRTDxfName
1000
ADHNTMPLT
1000
AcRTDxfName
1000
ADHNTMPLT
1000
AcRTDxfName
1000
ADHNTMPLT
1000
AcRTDxfName
1000
ADHNTMPLT
  0
ACAD_PROXY_OBJECT
  5
28D3
330
2841
100
AcDbProxyObject
 90
      499
 91
      509
 95
   983063
 70
     0
 93
      140
310
00010143105354D554141490D3D313D49060
330
2841
 94
        0
1001
ACAD
1000
AcRTDxfName
1000
ACIMINTSYSVAR
1000
AcRTDxfName
1000
ACIMINTSYSVAR
1000
AcRTDxfName
1000
ACIMINTSYSVAR
1000
AcRTDxfName
1000
ACIMINTSYSVAR
1000
AcRTDxfName
1000
ACIMINTSYSVAR
1000
AcRTDxfName
1000
ACIMINTSYSVAR
  0
ACAD_PROXY_OBJECT
  5
28D6
330
2841
100
AcDbProxyObject
 90
      499
 91
      509
 95
   983063
 70
     0
 93
      132
310
00010142D05050555513D4D3D315915010
330
2841
 94
        0
1001
ACAD
1000
AcRTDxfName
1000
ACIMINTSYSVAR
1000
AcRTDxfName
1000
ACIMINTSYSVAR
1000
AcRTDxfName
1000
ACIMINTSYSVAR
1000
AcRTDxfName
1000
ACIMINTSYSVAR
1000
AcRTDxfName
1000
ACIMINTSYSVAR
1000
AcRTDxfName
1000
ACIMINTSYSVAR
  0
ACAD_PROXY_OBJECT
  5
28D7
330
2841
100
AcDbProxyObject
 90
      499
 91
      509
 95
   983063
 70
     0
 93
      156
310
00010143905050555513D054D4D1535093115010
330
2841
 94
        0
1001
ACAD
1000
AcRTDxfName
1000
ACIMINTSYSVAR
1000
AcRTDxfName
1000
ACIMINTSYSVAR
1000
AcRTDxfName
1000
ACIMINTSYSVAR
1000
AcRTDxfName
1000
ACIMINTSYSVAR
1000
AcRTDxfName
1000
ACIMINTSYSVAR
1000
AcRTDxfName
1000
ACIMINTSYSVAR
  0
ACAD_PROXY_OBJECT
  5
28D8
330
2841
100
AcDbProxyObject
 90
      499
 91
      509
 95
   983063
 70
     0
 93
      148
310
00010143505055925155D49154D513D4915010
330
2841
 94
        0
1001
ACAD
1000
AcRTDxfName
1000
ACIMINTSYSVAR
1000
AcRTDxfName
1000
ACIMINTSYSVAR
1000
AcRTDxfName
1000
ACIMINTSYSVAR
1000
AcRTDxfName
1000
ACIMINTSYSVAR
1000
AcRTDxfName
1000
ACIMINTSYSVAR
1000
AcRTDxfName
1000
ACIMINTSYSVAR
  0
ACAD_PROXY_OBJECT
  5
28D9
330
2841
100
AcDbProxyObject
 90
      499
 91
      509
 95
   983063
 70
     0
 93
      124
310
00010142D050525394D15495105094E0
330
2841
 94
        0
1001
ACAD
1000
AcRTDxfName
1000
ACIMINTSYSVAR
1000
AcRTDxfName
1000
ACIMINTSYSVAR
1000
AcRTDxfName
1000
ACIMINTSYSVAR
1000
AcRTDxfName
1000
ACIMINTSYSVAR
1000
AcRTDxfName
1000
ACIMINTSYSVAR
1000
AcRTDxfName
1000
ACIMINTSYSVAR
  0
ACAD_PROXY_OBJECT
  5
28DA
330
2841
100
AcDbProxyObject
 90
      499
 91
      509
 95
   983063
 70
     0
 93
      148
310
00010143505054D0D153915554111055115010
330
2841
 94
        0
1001
ACAD
1000
AcRTDxfName
1000
ACIMINTSYSVAR
1000
AcRTDxfName
1000
ACIMINTSYSVAR
1000
AcRTDxfName
1000
ACIMINTSYSVAR
1000
AcRTDxfName
1000
ACIMINTSYSVAR
1000
AcRTDxfName
1000
ACIMINTSYSVAR
1000
AcRTDxfName
1000
ACIMINTSYSVAR
  0
ACAD_PROXY_OBJECT
  5
28DB
330
2841
100
AcDbProxyObject
 90
      499
 91
      529
 95
   983063
 70
     0
 93
      172
310
00010143105054D5509054D4D3541196005035355420
330
2841
 94
        0
1001
ACAD
1000
AcRTDxfName
1000
ACIMSTRSYSVAR
1000
AcRTDxfName
1000
ACIMSTRSYSVAR
1000
AcRTDxfName
1000
ACIMSTRSYSVAR
1000
AcRTDxfName
1000
ACIMSTRSYSVAR
1000
AcRTDxfName
1000
ACIMSTRSYSVAR
1000
AcRTDxfName
1000
ACIMSTRSYSVAR
  0
ACAD_PROXY_OBJECT
  5
28DC
330
2841
100
AcDbProxyObject
 90
      499
 91
      529
 95
   983063
 70
     0
 93
      172
310
00010142905054D0D15391541196005055343454E450
330
2841
 94
        0
1001
ACAD
1000
AcRTDxfName
1000
ACIMSTRSYSVAR
1000
AcRTDxfName
1000
ACIMSTRSYSVAR
1000
AcRTDxfName
1000
ACIMSTRSYSVAR
1000
AcRTDxfName
1000
ACIMSTRSYSVAR
1000
AcRTDxfName
1000
ACIMSTRSYSVAR
1000
AcRTDxfName
1000
ACIMSTRSYSVAR
  0
ACAD_PROXY_OBJECT
  5
28DD
330
2841
100
AcDbProxyObject
 90
      499
 91
      509
 95
   983063
 70
     0
 93
      148
310
00010143505350555513D313D0D2D4D0D39010
330
2841
 94
        0
1001
ACAD
1000
AcRTDxfName
1000
ACIMINTSYSVAR
1000
AcRTDxfName
1000
ACIMINTSYSVAR
1000
AcRTDxfName
1000
ACIMINTSYSVAR
1000
AcRTDxfName
1000
ACIMINTSYSVAR
1000
AcRTDxfName
1000
ACIMINTSYSVAR
1000
AcRTDxfName
1000
ACIMINTSYSVAR
  0
ACAD_PROXY_OBJECT
  5
28E2
330
2841
100
AcDbProxyObject
 90
      499
 91
      549
 95
   983063
 70
     0
 93
       32
310
00010000
330
2841
340
28DF
330
28E4
330
28DF
 94
        0
1001
ACAD
1000
AcRTDxfName
1000
ACAMGRCOMPDEF
1000
AcRTDxfName
1000
ACAMGRCOMPDEF
1000
AcRTDxfName
1000
ACAMGRCOMPDEF
1000
AcRTDxfName
1000
ACAMGRCOMPDEF
1000
AcRTDxfName
1000
ACAMGRCOMPDEF
1000
AcRTDxfName
1000
ACAMGRCOMPDEF
  0
ACAD_PROXY_OBJECT
  5
28E3
330
2841
100
AcDbProxyObject
 90
      499
 91
      550
 95
   983063
 70
     0
 93
       18
310
000180
330
2841
 94
        0
1001
ACAD
1000
AcRTDxfName
1000
ACCMCONTEXT
1000
AcRTDxfName
1000
ACCMCONTEXT
1000
AcRTDxfName
1000
ACCMCONTEXT
1000
AcRTDxfName
1000
ACCMCONTEXT
1000
AcRTDxfName
1000
ACCMCONTEXT
1000
AcRTDxfName
1000
ACCMCONTEXT
  0
ACAD_PROXY_OBJECT
  5
28E4
330
2841
100
AcDbProxyObject
 90
      499
 91
      551
 95
   983063
 70
     0
 93
       95
310
00010140D294D21050055400
330
2841
330
28E2
330
28E3
 94
        0
1001
ACAD
1000
AcRTDxfName
1000
ACAMCOMPDEF
1000
AcRTDxfName
1000
ACAMCOMPDEF
1000
AcRTDxfName
1000
ACAMCOMPDEF
1000
AcRTDxfName
1000
ACAMCOMPDEF
1000
AcRTDxfName
1000
ACAMCOMPDEF
1000
AcRTDxfName
1000
ACAMCOMPDEF
  0
ACAD_PROXY_OBJECT
  5
28E5
330
2841
100
AcDbProxyObject
 90
      499
 91
      552
 95
   983063
 70
     0
 93
       40
310
000100AAAA
330
2841
330
28E4
 94
        0
1001
ACAD
1000
AcRTDxfName
1000
ACAMCOMPDEFMGR
1000
AcRTDxfName
1000
ACAMCOMPDEFMGR
1000
AcRTDxfName
1000
ACAMCOMPDEFMGR
1000
AcRTDxfName
1000
ACAMCOMPDEFMGR
1000
AcRTDxfName
1000
ACAMCOMPDEFMGR
1000
AcRTDxfName
1000
ACAMCOMPDEFMGR
  0
ACAD_PROXY_OBJECT
  5
28E6
330
2841
100
AcDbProxyObject
 90
      499
 91
      553
 95
   983063
 70
     0
 93
       96
310
0001901422000000000000AA
330
2841
330
28E7
330
28E7
330
28E7
330
28E7
330
28E7
330
0
 94
        0
1001
ACAD
1000
AcRTDxfName
1000
AMCONTEXTMGR
1000
AcRTDxfName
1000
AMCONTEXTMGR
1000
AcRTDxfName
1000
AMCONTEXTMGR
1000
AcRTDxfName
1000
AMCONTEXTMGR
1000
AcRTDxfName
1000
AMCONTEXTMGR
1000
AcRTDxfName
1000
AMCONTEXTMGR
  0
ACAD_PROXY_OBJECT
  5
28E7
330
2841
100
AcDbProxyObject
 90
      499
 91
      554
 95
   983063
 70
     0
 93
      141
310
00010000406AAAAAAAAAAAAAA9A9806AAAA0
330
2841
330
28E6
330
28E4
 94
        0
1001
ACAD
1000
AcRTDxfName
1000
ACAMCONTEXTMODELER
1000
AcRTDxfName
1000
ACAMCONTEXTMODELER
1000
AcRTDxfName
1000
ACAMCONTEXTMODELER
1000
AcRTDxfName
1000
ACAMCONTEXTMODELER
1000
AcRTDxfName
1000
ACAMCONTEXTMODELER
1000
AcRTDxfName
1000
ACAMCONTEXTMODELER
  0
DICTIONARY
  5
28B6
102
{ACAD_REACTORS
330
28B5
102
}
330
28B5
100
AcDbDictionary
281
     1
  3
DWGSETTINGS
350
28B7
  3
TRANSSETTINGS
350
28BB
  0
ACAD_PROXY_OBJECT
  5
28F6
102
{ACAD_REACTORS
330
28B5
102
}
330
28B5
100
AcDbProxyObject
 90
      499
 91
      563
 95
   983063
 70
     0
 93
    16352
310
40903491013041105357CC10747A404C504414D5F314391E9013241105357CC90547A404CD04414D5F334190F9013441105357CD10343E404D504414D5F3540D0F9013641105357CD90247A404DD04414D5F374110F9013841105357CE10143E404E504414D5F397F641102324141505357CC4C10747A408D10505414D5F31
310
3140D0F902495041505357CC4C90747902408C13905414D5F304E41D1E902314E41505357CC5390E47A408C93905414D5F324E4151E902334E41505357CCD390643E408D13905414D5F344E40D0F902354E41505357CD5390343E408D93905414D5F364E4091E902374E41505357CDD390443E408E13905414D5F384E4050F
310
902394E41505357CE539FD90440CC9053906414D5F31304E41D1E90334414E41905357CC4C5390343E40D25413906414D5F31324E41D1E409044B4C494E41505357D0D310143D094112539193D08414D5F50415245464110F42D055241484D3541905357D093D4907479094115925155D08414D5F56494557534050F42D064
310
24548494E4441905357D253959FD90D415514905253105414D5F545240D0F4250348494441905357D2125110743D0940D59254D06414D5F56495341D1E4250650415244494D42505357D4105491125350343D0941949151911253509414D5F52454644494D4110F4257641105315149013441D1E411091531250134CFFFFFF
310
FF411092139590139CFFFFFFFF415092139594D06424548494E44CFFFFFFFF41109312511023441CFFFFFFFF411093D0541023441CFFFFFFFF411093D48C9055241484D354050F411093D48CD055241484D354091E411093D48D5055241484D35CFFFFFFFF411093D48DD055241484D354793C41109410541023441CFFFFFF
310
FF41109411561023441CFFFFFFFF411095111250135CFFFFFFFF4110D0530C90134CFFFFFFFF4110D0530CD01344091E4110D0530D5013441D1E4110D0530DD01344793C4110D1539390137CFFFFFFFF4110D15395D0137CFFFFFFFF4110D312539044B4C494ECFFFFFFFF4110D3D38C50130CFFFFFFFF4110D3D38C90131C
310
FFFFFFFF4110D3D38CD0132CFFFFFFFF4110D3D38D10132CFFFFFFFF411111549410134CFFFFFFFF411111551050134CFFFFFFFF4111125051D0135CFFFFFFFF411112531250135CFFFFFFFF411112535410650415244494DCFFFFFFFF411112535490652454644494DCFFFFFFFF41115613541023441CFFFFFFFF41119153
310
5390138CFFFFFFFF4151915354139013840CFFFFFFFF4151915354D41023441CFFFFFFFF4151915354D5102344140D0F41519153559390132CFFFFFFFF4151915355951013240D0F411193105510130CFFFFFFFF41119490549023441CFFFFFFFF4111D4931250135CFFFFFFFF4111D593125023441CFFFFFFFF4112105510
310
D0138CFFFFFFFF411212511390133CFFFFFFFF4112125115D0133CFFFFFFFF411213125390134CFFFFFFFF411213D0D390137CFFFFFFFF411213D0D5D0137CFFFFFFFF4112539193D04494E464FCFFFFFFFF411310511250134CFFFFFFFF411311505110135CFFFFFFFF419397D0921395902394ECFFFFFFFF419397D0D3D3
310
8C502304ECFFFFFFFF419397D0D3D38C902314ECFFFFFFFF419397D0D3D38CD02324ECFFFFFFFF419397D0D3D38D102324ECFFFFFFFF419397D0D15393902374ECFFFFFFFF419397D0D15395D02374ECFFFFFFFF419397D1125312502354ECFFFFFFFF419397D2105510D02384ECFFFFFFFF419397D2125113902334ECFFFF
310
FFFF419397D2125115D02334ECFFFFFFFF419397D3115051102354ECFFFFFFFF419397D391D25410349504ECFFFFFFFF419397D412105390334414ECFFFFFFFF419397D510D3D3902304ECFFFFFFFF419397D5121312502344ECFFFFFFFF419397D5131153902304ECFFFFFFFF419397D516150CD02364ECFFFFFFFF419397
310
D594131250332414ECFFFFFFFF411391D2541024950CFFFFFFFF411410530C9055241484D354050F411410530CD055241484D354091E411410530D5055241484D35CFFFFFFFF411410530DD055241484D354793C41141210539023441CFFFFFFFF411413D4D39013641D1E419413D4D49151901364151E411413D4D610136C
310
FFFFFFFF411414D150D023441CFFFFFFFF411490D1D390137CFFFFFFFF411490D1D5D0137CFFFFFFFF411491911250134CFFFFFFFF41149455149013441D1E411494D093D0130CFFFFFFFF4114D09492D013441D1E4114D0D15390137CFFFFFFFF4114D150D510134CFFFFFFFF4114D1531390137CFFFFFFFF4114D15315D0
310
137CFFFFFFFF4114D4D654D0130CFFFFFFFF4114D513125013441D1E4114D6508C50135CFFFFFFFF4114D6508C90135CFFFFFFFF4114D6508CD01354091E4114D6508D5013541D1E4114D6535390137CFFFFFFFF4114D65355D0137CFFFFFFFF411510D3D390130CFFFFFFFF411512131250134CFFFFFFFF411512550C9055
310
241484D354050F411512550CD055241484D354091E411512550D5055241484D35CFFFFFFFF411512550DD055241484D354793C411513115390130CFFFFFFFF415514905253105545241494CCFFFFFFFF41151492D390137CFFFFFFFF41151492D5D0137CFFFFFFFF411514931250134CFFFFFFFF411516150C5013640D0F41
310
1516150C9013640D0F411516150CD0136CFFFFFFFF411516150D5013641D1E411516150DD01364793C4115925155D0456494557CFFFFFFFF4115915112103484944CFFFFFFFF4115915115903564953CFFFFFFFF41159413125023241CFFFFFFFF411692569050134CFFFFFFFFAA7F5013F90A4391E41D1E4190F4151E4110
310
F40D0F4091E4050F4793C7F6
340
15
340
15
340
15
340
285F
340
15
340
15
340
15
340
2861
340
15
340
15
340
2861
340
2860
340
15
340
15
340
15
340
15
340
285F
340
15
340
15
340
15
340
2861
340
15
340
15
340
2861
340
2860
340
15
340
28FA
340
15
340
15
340
15
340
15
340
15
340
285F
340
15
340
15
340
15
340
2900
340
14
340
14
340
14
340
14
340
14
340
14
340
14
340
14
340
14
340
14
340
14
340
14
340
14
340
14
340
14
340
14
340
2901
340
14
340
14
340
14
340
14
340
14
340
14
340
2860
340
14
340
14
340
14
340
14
340
14
340
14
340
14
340
14
340
15
340
14
340
14
340
14
340
14
340
14
340
14
340
14
340
14
340
2900
340
14
340
14
340
2901
340
14
340
14
340
14
340
14
340
14
340
14
340
14
340
14
340
14
340
2901
340
14
340
14
340
14
340
2900
340
14
340
14
340
14
340
14
340
14
340
2900
340
14
340
14
340
2860
340
14
340
14
340
14
340
14
340
14
340
14
340
14
340
14
340
14
340
14
340
2901
340
14
340
14
340
2901
340
14
340
14
340
15
340
14
340
2901
340
14
340
14
340
2900
340
14
340
14
340
15
340
14
340
2901
340
14
340
14
340
2900
340
14
340
14
340
14
340
14
340
14
340
14
340
2901
340
14
340
14
340
14
340
14
340
14
340
14
340
14
340
14
340
14
340
14
340
2860
340
2902
 94
        0
1001
ACAD
1000
AcRTDxfName
1000
AMGOBJPROPCFG
1000
AcRTDxfName
1000
AMGOBJPROPCFG
1000
AcRTDxfName
1000
AMGOBJPROPCFG
1000
AcRTDxfName
1000
AMGOBJPROPCFG
1000
AcRTDxfName
1000
AMGOBJPROPCFG
1000
AcRTDxfName
1000
AMGOBJPROPCFG
  0
ACAD_PROXY_OBJECT
  5
2909
102
{ACAD_REACTORS
330
2904
102
}
330
2904
100
AcDbProxyObject
 90
      499
 91
      564
 95
   983063
 70
     0
 93
      253
310
43D1444494D454E53494F4E2C414D44545F2A5F44494D404A9012A404A9012A8
1001
ACAD
1000
AcRTDxfName
1000
ACAMGFILTERDAT
1000
AcRTDxfName
1000
ACAMGFILTERDAT
1000
AcRTDxfName
1000
ACAMGFILTERDAT
1000
AcRTDxfName
1000
ACAMGFILTERDAT
1000
AcRTDxfName
1000
ACAMGFILTERDAT
1000
AcRTDxfName
1000
ACAMGFILTERDAT
  0
ACAD_PROXY_OBJECT
  5
2908
102
{ACAD_REACTORS
330
2904
102
}
330
2904
100
AcDbProxyObject
 90
      499
 91
      564
 95
   983063
 70
     0
 93
      181
310
43D012A42D05357D191504B505357CA9012A404A9012A8
1001
ACAD
1000
AcRTDxfName
1000
ACAMGFILTERDAT
1000
AcRTDxfName
1000
ACAMGFILTERDAT
1000
AcRTDxfName
1000
ACAMGFILTERDAT
1000
AcRTDxfName
1000
ACAMGFILTERDAT
1000
AcRTDxfName
1000
ACAMGFILTERDAT
1000
AcRTDxfName
1000
ACAMGFILTERDAT
  0
ACAD_PROXY_OBJECT
  5
2905
102
{ACAD_REACTORS
330
2904
102
}
330
2904
100
AcDbProxyObject
 90
      499
 91
      564
 95
   983063
 70
     0
 93
      133
310
43D054841544348404A9012A404A9012A8
1001
ACAD
1000
AcRTDxfName
1000
ACAMGFILTERDAT
1000
AcRTDxfName
1000
ACAMGFILTERDAT
1000
AcRTDxfName
1000
ACAMGFILTERDAT
1000
AcRTDxfName
1000
ACAMGFILTERDAT
1000
AcRTDxfName
1000
ACAMGFILTERDAT
1000
AcRTDxfName
1000
ACAMGFILTERDAT
  0
ACAD_PROXY_OBJECT
  5
2906
102
{ACAD_REACTORS
330
2904
102
}
330
2904
100
AcDbProxyObject
 90
      499
 91
      564
 95
   983063
 70
     0
 93
      549
310
43D044C494E4549CE0B0E138B0A8B4E0B0A8B4E138B105357CE0B105357CE138B0A8B505357CE0B0A8B505357CE139012A404A910494E534552542C5354445041525432448
1001
ACAD
1000
AcRTDxfName
1000
ACAMGFILTERDAT
1000
AcRTDxfName
1000
ACAMGFILTERDAT
1000
AcRTDxfName
1000
ACAMGFILTERDAT
1000
AcRTDxfName
1000
ACAMGFILTERDAT
1000
AcRTDxfName
1000
ACAMGFILTERDAT
1000
AcRTDxfName
1000
ACAMGFILTERDAT
  0
ACAD_PROXY_OBJECT
  5
2907
102
{ACAD_REACTORS
330
2904
102
}
330
2904
100
AcDbProxyObject
 90
      499
 91
      564
 95
   983063
 70
     0
 93
      909
310
43D6641434D46434652414D452C41434D444154554D5441524745542C41434D444154554D49442C41434D57454C4453594D2C41434D5355524653594D2C41434D4645415449442C41434D504152545245462C41434D42414C4C4F4F4E2C414D44544544474553594D404A9012A404A9012A8
1001
ACAD
1000
AcRTDxfName
1000
ACAMGFILTERDAT
1000
AcRTDxfName
1000
ACAMGFILTERDAT
1000
AcRTDxfName
1000
ACAMGFILTERDAT
1000
AcRTDxfName
1000
ACAMGFILTERDAT
1000
AcRTDxfName
1000
ACAMGFILTERDAT
1000
AcRTDxfName
1000
ACAMGFILTERDAT
  0
XRECORD
  5
2A9A
102
{ACAD_REACTORS
330
BEC
102
}
330
BEC
100
AcDbXrecord
280
     1
300
ASK2000BIKOU>>A3横 1/20       <<                                                                                                                                                                                                                                                                                
  0
XRECORD
  5
BED
102
{ACAD_REACTORS
330
BEC
102
}
330
BEC
100
AcDbXrecord
280
     1
  1
1/5
  0
LAYER_INDEX
  5
2DB2
102
{ACAD_REACTORS
330
2DB1
102
}
330
2DB1
100
AcDbIndex
 40
2457087.285200208
100
AcDbLayerIndex
  8
0
360
2DB3
 90
      176
  8
1
360
2DB4
 90
        2
  8
3
360
2DB5
 90
        2
  8
SUNPO_0
360
2DB6
 90
       18
  8
DEFPOINTS
360
2DB7
 90
        0
  8
HATCHING_0
360
2DB8
 90
        0
  8
TEXT_0
360
2DB9
 90
        7
  8
ASKPAPERSIZE
360
2DBA
 90
        1
  8
9図面枠
360
2DBB
 90
       26
  8
9図面文字
360
2DBC
 90
       50
  8
非表示破線
360
2DBD
 90
        8
  0
ACAD_PROXY_OBJECT
  5
28EC
102
{ACAD_REACTORS
330
28EB
102
}
330
28EB
100
AcDbProxyObject
 90
      499
 91
      557
 95
   983063
 70
     0
 93
      139
310
057356C1D35406406AA8FFFFFFFF09AA4040
330
1E
330
0
330
0
 94
        0
1001
ACAD
1000
AcRTDxfName
1000
ACMDATAENTRYBLOCK
1000
AcRTDxfName
1000
ACMDATAENTRYBLOCK
1000
AcRTDxfName
1000
ACMDATAENTRYBLOCK
1000
AcRTDxfName
1000
ACMDATAENTRYBLOCK
1000
AcRTDxfName
1000
ACMDATAENTRYBLOCK
1000
AcRTDxfName
1000
ACMDATAENTRYBLOCK
  0
ACAD_PROXY_OBJECT
  5
28B7
102
{ACAD_REACTORS
330
28B6
102
}
330
28B6
100
AcDbProxyObject
 90
      499
 91
      537
 95
   983063
 70
     0
 93
     2627
310
4050B44574753455454494E4753A0E8482A68AA6A88882A08829CA69284A1A0A723A0A92920ACA0A8419983E1A1ABE1B1820C868A9C829C8E82A12686AF87260F862666A8321A2A72224A0A50000000000000701FA0E868A9C889282A682A16605C6AF8625C60F8625C6A83A1A2A72224A9AA250000000000000601FA0C868
310
A9C988A9C940000000000001C07E8321A2A727A323250000000000000701FA128698929C82A4A482B282A1C605C62646AF8605C646AF8605C6A8421A624A722AA2CA820A82AC2624A722A1288AE8EAAA68682988A94283A620A9AA27A12520A80982109A82968AAC928AAE9FA04832922AB24A9A4A0A809820AA68682988A8
310
2A08627464608429AA20A72220A92220A8220A729A4A12A8929A8AA6A8829AA09413BF6D8A68434E68283AB22A929A4A7A720A82989A971818220F688AE8EA68AA8A8929C8EA68A9C88FA0
1001
ACAD
1000
AcRTDxfName
1000
AMGSETTINGSOBJ
1000
AcRTDxfName
1000
AMGSETTINGSOBJ
1000
AcRTDxfName
1000
AMGSETTINGSOBJ
1000
AcRTDxfName
1000
AMGSETTINGSOBJ
1000
AcRTDxfName
1000
AMGSETTINGSOBJ
1000
AcRTDxfName
1000
AMGSETTINGSOBJ
  0
ACAD_PROXY_OBJECT
  5
28BB
102
{ACAD_REACTORS
330
28B6
102
}
330
28B6
100
AcDbProxyObject
 90
      499
 91
      537
 95
   983063
 70
     0
 93
      852
310
4050D5452414E5353455454494E4753A2488A482AE929C8EA8A4829CA69882A8929E9C0C00800050D4F524947494E414C4C595F4F4E0600400008529A7AAA921A2A620A723A0A81A52827212AAA0A48AA68AA4AC8A0C0080001107B44574753455454494E4753454E447D0
1001
ACAD
1000
AcRTDxfName
1000
AMGSETTINGSOBJ
1000
AcRTDxfName
1000
AMGSETTINGSOBJ
1000
AcRTDxfName
1000
AMGSETTINGSOBJ
1000
AcRTDxfName
1000
AMGSETTINGSOBJ
1000
AcRTDxfName
1000
AMGSETTINGSOBJ
1000
AcRTDxfName
1000
AMGSETTINGSOBJ
  0
IDBUFFER
  5
2DB3
330
2DB2
100
AcDbIdBuffer
330
23F7
330
23F8
330
23F9
330
23FA
330
2400
330
2401
330
2402
330
2403
330
2404
330
2405
330
240D
330
240E
330
240F
330
2418
330
2419
330
241A
330
241B
330
241C
330
2425
330
242C
330
242D
330
242F
330
2430
330
2431
330
2437
330
244A
330
244B
330
244C
330
244D
330
244E
330
244F
330
2450
330
2451
330
2458
330
2459
330
245A
330
245B
330
245C
330
245D
330
245E
330
245F
330
2460
330
2461
330
2462
330
2463
330
2464
330
2465
330
2466
330
2467
330
2468
330
2471
330
2472
330
2473
330
2474
330
2475
330
2476
330
2486
330
248B
330
24C3
330
24C4
330
24C5
330
24C6
330
24C7
330
24C8
330
24C9
330
24CA
330
24CB
330
24CC
330
24CD
330
24CE
330
24CF
330
24D0
330
24D1
330
24D2
330
24D3
330
24D4
330
24D5
330
24D6
330
24D7
330
24D8
330
24D9
330
24DA
330
24DB
330
24DC
330
24DD
330
24DE
330
24DF
330
24E0
330
24E1
330
24E2
330
24E3
330
24E4
330
24E5
330
24E6
330
24E7
330
24E8
330
24E9
330
2509
330
250A
330
250B
330
250C
330
250D
330
250E
330
250F
330
2510
330
2511
330
2512
330
2513
330
2514
330
2515
330
2516
330
2517
330
2518
330
2519
330
251A
330
251B
330
251C
330
251D
330
251E
330
251F
330
2520
330
2521
330
2522
330
2523
330
2524
330
2525
330
2526
330
2527
330
2528
330
2529
330
252A
330
252B
330
252C
330
252D
330
252E
330
252F
330
2530
330
2531
330
2532
330
2533
330
2534
330
2535
330
2536
330
2537
330
2538
330
2539
330
253A
330
253B
330
253C
330
253D
330
253E
330
253F
330
2540
330
2541
330
2542
330
2543
330
2544
330
2545
330
2546
330
2833
330
2834
330
2AD2
330
2AD8
330
2AE2
330
2AED
330
2AF6
330
2AFF
330
2B08
330
2B11
330
2B6E
330
2B7D
330
2B86
330
2B8F
330
2B98
330
2BA1
330
2CC0
  0
IDBUFFER
  5
2DB4
330
2DB2
100
AcDbIdBuffer
330
235
330
4F2
  0
IDBUFFER
  5
2DB5
330
2DB2
100
AcDbIdBuffer
330
4E5
330
4E9
  0
IDBUFFER
  5
2DB6
330
2DB2
100
AcDbIdBuffer
330
4EA
330
23FF
330
240C
330
2410
330
2415
330
2416
330
2417
330
2433
330
2438
330
243D
330
2440
330
2444
330
2469
330
246D
330
2495
330
2497
330
249B
330
24A8
  0
IDBUFFER
  5
2DB7
330
2DB2
100
AcDbIdBuffer
  0
IDBUFFER
  5
2DB8
330
2DB2
100
AcDbIdBuffer
  0
IDBUFFER
  5
2DB9
330
2DB2
100
AcDbIdBuffer
330
2EA
330
2EC
330
2432
330
2487
330
248A
330
2A99
330
2DAF
  0
IDBUFFER
  5
2DBA
330
2DB2
100
AcDbIdBuffer
330
5D2
  0
IDBUFFER
  5
2DBB
330
2DB2
100
AcDbIdBuffer
330
591
330
592
330
593
330
598
330
59A
330
59B
330
5A1
330
5A2
330
5A3
330
5A4
330
5A5
330
5A6
330
5A7
330
5A9
330
5AE
330
5AF
330
5B3
330
5B6
330
5B9
330
5BD
330
5C0
330
5CA
330
5CC
330
5CE
330
5CF
330
5D0
  0
IDBUFFER
  5
2DBC
330
2DB2
100
AcDbIdBuffer
330
57E
330
57F
330
580
330
581
330
582
330
583
330
584
330
585
330
586
330
587
330
588
330
589
330
58A
330
58B
330
58C
330
58D
330
58E
330
58F
330
590
330
594
330
595
330
596
330
597
330
599
330
59C
330
59D
330
59E
330
59F
330
5A0
330
5A8
330
5AA
330
5AB
330
5AD
330
5B4
330
5B5
330
5B7
330
5B8
330
5BA
330
5BB
330
5BC
330
5C2
330
5C3
330
5C4
330
5C5
330
5C6
330
5C7
330
5C8
330
5C9
330
5CD
330
C98
  0
IDBUFFER
  5
2DBD
330
2DB2
100
AcDbIdBuffer
330
5AC
330
5B0
330
5B1
330
5B2
330
5BE
330
5BF
330
5C1
330
5CB
  0
ENDSEC
  0
EOF
